#VERSION:0.83;
#TITLE:27th style;
#SUBTITLE:;
#ARTIST:三代目 "dj TAKA & DAYBREAKERS";
#TITLETRANSLIT:;
#SUBTITLETRANSLIT:;
#ARTISTTRANSLIT:3rd generation "dj TAKA & DAYBREAKERS";
#GENRE:HIP HOP;
#CREDIT:Graphics made by TonyAkita;
#MUSIC:27th style.ogg;
#BANNER:27th style-bn.png;
#BACKGROUND:27th style-bg.png;
#CDTITLE:cdtitle.png;
#SAMPLESTART:38.662;
#SAMPLELENGTH:12.000;
#SELECTABLE:YES;
#OFFSET:1.338;
#BPMS:0.000=150.000;
#STOPS:;
#SPEEDS:0.000=1.000=0.000=0;
#SCROLLS:0.000=1.000;
#TICKCOUNTS:0.000=4;
#TIMESIGNATURES:0.000=4=4;
#LABELS:0.000=Song Start;
#COMBOS:0.000=1;
#DISPLAYBPM:150.000;
#ORIGIN:;
#PREVIEWVID:;
#JACKET:27th style-jacket.png;
#CDIMAGE:;
#DISCIMAGE:;
#BGCHANGES:3.750=27th style.avi=1.000=0=0=0=StretchNoLoop====,
99999.000=-nosongbg-=1.000=0=0=0=StretchNoLoop====
;
#FGCHANGES:;

//--------------- dance-single - ----------------
#NOTEDATA:;
#STEPSTYPE:dance-single;
#DESCRIPTION:;
#DIFFICULTY:Beginner;
#METER:3;
#RADARVALUES:0.174823,0.208447,0.130534,0.097901,0,150,134,16,12,0,0,0,0,0,0.174823,0.208447,0.130534,0.097901,0,150,134,16,12,0,0,0,0,0;
#DISPLAYBPM:150.000;
#CHARTNAME:;
#CHARTSTYLE:;
#CREDIT:TonyAkita;
#NOTES:
0000
0000
0000
0000
,
0000
0000
0000
0000
,
0000
0000
0000
0000
,
0000
0000
0000
0000
,
0000
0000
0000
0000
,
1000
1000
1000
0000
,
0001
0001
0001
0000
,
0100
0100
0100
0000
,
0020
0000
0030
0000
,
1001
0000
0000
0000
,
0110
0000
0000
0000
,
1001
0000
0000
0000
,
1000
1000
0000
0001
,
0001
0000
0000
0000
,
0110
0000
0000
0000
,
1001
0000
0000
0000
,
0001
0001
0000
1000
,
1000
0000
0010
0000
,
1000
1000
1000
0000
,
0001
0000
0010
0000
,
0001
0001
0001
0000
,
0100
0000
0010
0000
,
1000
1000
1000
0000
,
0010
0000
0100
0000
,
0001
0001
0001
0000
,
1001
0000
0000
0000
,
0110
0000
0000
0000
,
1001
0000
0000
0000
,
0010
0000
0010
0000
,
0110
0000
0000
0000
,
1001
0000
0000
0000
,
0110
0000
0000
0000
,
1000
0000
0001
0000
,
0002
0000
0003
0000
,
2000
0000
3000
0000
,
0020
0000
0030
0000
,
0200
0000
0300
0000
,
0001
0000
0001
0000
,
1000
0000
1000
0000
,
0100
0000
0010
0000
,
2002
0000
3003
0000
,
1000
1000
1000
0000
,
0001
0001
0001
0000
,
0100
0100
0100
0000
,
0010
0010
0010
0000
,
1000
0000
0100
0000
,
1000
0000
0010
0000
,
0100
0000
0001
0000
,
2002
0000
3003
0000
,
1000
1000
1000
0000
,
0001
0001
0001
0000
,
0100
0100
0100
0000
,
0010
0000
0100
0000
,
0001
0000
0010
0000
,
0001
0000
0100
0000
,
0010
0000
1000
0000
,
0100
0000
1000
0000
,
0010
0000
0100
0000
,
0001
0000
1000
0000
,
0100
0000
0010
0000
,
0001
0000
1000
0000
,
0010
0010
0010
0000
,
0100
0100
0100
0000
,
0001
0001
0001
0000
,
1000
1000
1000
0000
,
0002
0000
0003
0000
,
2000
0000
3000
0000
,
0020
0000
0030
0000
,
0100
0000
0010
0000
,
1001
0000
0000
0000
,
0110
0000
0000
0000
,
1000
0000
0001
0000
,
0010
0010
0010
0000
,
1001
0000
0000
0000
;

//--------------- dance-single - ----------------
#NOTEDATA:;
#STEPSTYPE:dance-single;
#DESCRIPTION:;
#DIFFICULTY:Easy;
#METER:5;
#RADARVALUES:0.304192,0.362233,0.228435,0.114218,0,261,233,28,14,0,0,0,0,0,0.304192,0.362233,0.228435,0.114218,0,261,233,28,14,0,0,0,0,0;
#DISPLAYBPM:150.000;
#CHARTNAME:;
#CHARTSTYLE:;
#CREDIT:TonyAkita;
#NOTES:
0000
0000
0000
0000
,
0000
0000
0000
0000
,
0000
0000
0000
0000
,
0000
0000
0000
0000
,
0000
0000
0000
0000
,
1000
0010
1000
0100
,
0010
0000
0001
0000
1000
1000
1000
0000
,
0001
0100
0001
0010
,
0100
0100
0200
0300
,
1001
0000
1000
0001
,
0011
0000
0001
0100
,
0101
0000
0100
0010
,
1010
0000
1001
0000
0000
0110
0000
0000
,
0011
0000
0001
1000
,
1010
0000
1000
0100
,
1100
0000
0100
0010
,
0011
0000
1001
0000
0000
0110
0000
0000
,
1000
0010
1000
0000
,
0001
0100
1000
0100
,
0001
0010
0001
0000
,
1000
0100
0001
0100
,
0010
0001
0100
0000
,
0010
1000
0001
0010
,
0100
1000
0010
0000
,
0100
0001
1000
0100
,
0020
0030
0001
1000
,
0100
0001
0100
1000
,
0020
0030
0100
0001
,
1000
0100
0010
0001
,
0200
0300
0001
1000
,
0010
0001
0010
1000
,
0200
0300
0010
0001
,
1000
0010
0100
0001
,
1000
0000
0000
2000
0000
0000
3001
0000
,
0001
0000
0000
0002
0000
0000
0013
0000
,
0010
0000
0000
0020
0000
0000
0130
0000
,
0100
0000
0000
0200
0000
0000
1300
0000
,
0001
0100
1000
0100
,
0001
0010
0100
1001
,
1000
0100
0001
0100
,
0020
0000
0000
0030
,
0001
0100
0001
0010
,
0100
0000
1000
0000
0001
0001
0001
0000
,
0100
1000
0100
0010
,
1000
0000
0001
0000
0010
0010
0010
0000
,
0001
0100
1000
0100
,
0001
0000
1000
0000
0010
0010
0010
0000
,
1000
0100
0001
0100
,
2002
0000
0000
3003
,
1000
1000
1000
0000
,
0010
0100
0010
0110
,
0001
0001
0001
0000
,
0010
0100
0010
0100
,
1000
0001
0100
0000
,
0010
1000
0100
0000
,
0010
0001
1000
0000
,
0010
0100
0001
1000
,
0100
0010
0001
0000
,
1000
0001
0100
0000
,
0010
1000
0100
0000
,
0010
0001
1000
0010
,
0100
0100
0101
0000
,
0001
0001
1001
0000
,
1000
1000
1010
0000
,
0010
0010
0100
0001
,
0101
0000
0001
1000
,
1100
0000
1000
0010
,
1010
0000
0010
0100
,
0101
0000
1001
0000
0000
0110
0000
0000
,
1100
0000
1000
0001
,
0101
0000
0001
0010
,
0011
0000
0010
0100
,
1000
0000
0001
0000
0100
0100
0100
0000
,
0220
0000
0000
0000
,
0330
0000
0000
0000
;

//--------------- dance-single - ----------------
#NOTEDATA:;
#STEPSTYPE:dance-single;
#DESCRIPTION:;
#DIFFICULTY:Medium;
#METER:9;
#RADARVALUES:0.463864,0.482977,0.334495,0.171326,0.081584,398,357,41,21,0,0,0,0,0,0.463864,0.482977,0.334495,0.171326,0.081584,398,357,41,21,0,0,0,0,0;
#DISPLAYBPM:150.000;
#CHARTNAME:;
#CHARTSTYLE:;
#CREDIT:TonyAkita;
#NOTES:
0000
0000
0000
0000
,
0000
0000
0000
0000
,
0000
0000
0000
0000
,
0000
0000
0000
0000
,
0000
0000
0000
0000
,
0000
1000
0000
0010
0000
1000
0001
0100
,
0000
0001
0000
0010
0100
1000
0001
0000
,
0100
0001
0010
0001
,
2000
0001
0001
3010
,
1010
0000
1000
0100
0010
0000
0001
0000
,
0011
0000
0001
1000
0010
0000
0100
0000
,
0101
0000
1000
0100
0010
0000
0001
0000
,
0011
0000
2020
0000
3030
1001
0000
0000
,
0101
0000
0001
0100
0010
0000
1000
0000
,
1010
0000
1000
0001
0010
0000
0100
0000
,
1100
0000
0001
0100
0010
0000
1000
0000
,
1010
0000
0022
0000
0033
1001
0000
0000
,
1000
0100
0010
0100
1000
0000
1001
0000
,
0001
0100
0010
0100
0001
0000
1001
0000
,
1000
0100
0010
0001
1000
0000
0110
0000
,
0001
0100
0001
0010
0001
0100
0010
0000
,
1000
0010
0001
0010
1000
0000
1001
0000
,
0001
0010
1000
0010
0001
0000
1001
0000
,
1000
0100
0001
0100
0010
0000
0011
0000
,
1000
0010
1000
0100
1000
0010
0100
0000
,
0002
0000
0013
0000
0001
0100
0010
0000
,
2000
0000
3010
0000
1000
0100
0010
0000
,
0002
0000
1003
0000
0001
0010
0100
0000
,
1100
0000
1001
0000
0001
0100
0010
0000
,
0200
0000
0301
0000
1000
0100
0010
0000
,
0200
0000
1300
0000
0001
0100
1000
0000
,
0200
0000
0310
0000
1000
0001
1000
0000
,
1001
1010
0101
1001
,
0002
0000
0010
0013
0000
0001
1000
0000
,
0020
0000
0100
0130
0000
0010
1000
0000
,
2000
0000
0010
3010
0000
1000
0001
0000
,
0020
0000
0100
0130
0000
0010
0001
0000
,
0000
1000
0000
0010
0000
1000
0100
0010
,
0000
0001
0000
0100
0000
0001
0010
0100
,
0000
1000
0000
0001
0000
0100
0010
1000
,
0002
0000
0013
0000
,
0001
0000
0000
0001
0000
0000
0001
0000
0000
0000
1000
0000
0100
0000
0001
0000
,
0100
0000
0000
0100
0000
0000
0100
0000
0000
0000
0010
0000
0001
0000
0000
0000
,
1000
0000
0000
1000
0000
0000
1000
0000
0000
0000
0001
0000
0100
0000
1000
0000
,
0100
0000
0000
0100
0000
0000
0100
0000
0000
0000
0010
0000
1000
0000
0000
0000
,
0001
0000
0000
0010
0000
0000
0001
0000
0000
0000
1000
0000
0100
0000
0010
0000
,
0001
0000
0000
0100
0000
0000
1000
0000
0000
0000
0100
0000
0010
0000
0000
0000
,
1000
0000
0000
0010
0000
0000
1000
0000
0000
0000
0001
0000
0010
0000
0100
0000
,
1000
0000
0000
0100
0000
0000
0001
0000
0000
0000
0100
0000
0010
0000
0001
0000
,
2000
0000
0000
0010
0000
0000
3010
0000
0000
0000
1001
0000
0000
0000
0001
0000
,
0002
0000
0000
0010
0000
0000
0013
0000
0000
0000
0100
0000
1000
0000
0001
0000
,
0200
0000
0000
0010
0000
0000
0310
0000
0000
0000
1001
0000
0000
0000
1000
0000
,
0100
0000
0000
0100
0000
0000
0010
0000
0000
0010
0000
0000
0001
0000
1000
0000
,
0001
0000
1000
0100
0010
0001
1000
0000
,
0001
0000
0100
1000
0100
0001
0100
0000
,
0010
0000
1000
0010
0100
0001
1000
0000
,
0001
0000
0010
1000
0010
0001
0010
0000
,
0100
0000
1000
0001
1000
0010
0100
0000
,
0001
0000
0010
0100
0010
0001
0010
0000
,
0100
0000
1000
0001
1000
0100
0010
0000
,
0011
1001
1010
0110
,
0001
0000
0000
0100
0000
0000
0001
0000
0000
0011
0000
0000
0000
0000
0100
0000
,
1000
0000
0000
0010
0000
0000
1000
0000
0000
1010
0000
0000
0000
0000
0000
0000
,
0010
0000
0000
0100
0000
0000
0010
0000
0000
0110
0000
0000
0000
0000
0001
0000
,
1000
0000
0000
0001
0000
0000
1000
0000
0000
0000
0100
0000
0010
0000
0000
0000
,
0011
0000
0001
0100
0010
0000
1000
0000
,
1010
0000
1000
0001
0010
0000
0100
0000
,
1100
0000
0001
0100
0010
0000
1000
0000
,
0001
0010
1000
0010
0001
0010
0100
0000
,
1100
0000
1000
0100
0010
0000
0001
0000
,
0011
0000
0001
1000
0010
0000
0100
0000
,
0001
0100
1000
0100
0001
0100
0010
0000
,
1010
0000
0110
0000
0100
0001
1000
0000
,
2002
0000
0000
0000
,
3003
0000
0000
0000
;

//--------------- dance-single - ----------------
#NOTEDATA:;
#STEPSTYPE:dance-single;
#DESCRIPTION:;
#DIFFICULTY:Hard;
#METER:13;
#RADARVALUES:0.631694,0.633908,0.293703,0.081584,0.314099,542,506,36,10,0,0,0,0,0,0.631694,0.633908,0.293703,0.081584,0.314099,542,506,36,10,0,0,0,0,0;
#DISPLAYBPM:150.000;
#CHARTNAME:;
#CHARTSTYLE:;
#CREDIT:TonyAkita;
#NOTES:
0000
0000
0000
0000
,
0000
0000
0000
0000
,
0000
0000
0000
0000
,
0000
0000
0000
0000
,
0000
0000
0000
0000
,
1000
0000
0010
0000
1000
0000
0001
0000
1000
0000
0010
0000
0100
0001
0100
0000
,
0001
0000
0010
0000
0001
0000
1000
0000
0001
0010
0001
0000
0110
0000
0000
0000
,
1000
0000
0100
0000
1000
0000
0001
0000
0010
0000
0100
0000
1000
0001
1000
0000
,
0002
0000
1000
0000
1000
1000
0013
0000
,
0011
0000
0000
0001
0100
0000
0010
0000
1000
0000
0001
0000
1000
0000
0000
0000
,
1010
0000
0000
1000
0100
0000
0010
0000
0100
0000
1000
0000
0001
0000
0000
0000
,
1001
0000
0000
0001
0100
0000
0010
0000
1000
0000
0001
0000
1000
0000
0000
0000
,
1010
0000
0110
0000
0001
1000
1001
0000
,
1100
0000
0000
1000
0100
0000
0001
0000
0100
0000
0100
0000
0010
0000
0000
0000
,
0011
0000
0000
0001
0100
0000
1000
0000
0100
0000
0100
0000
0010
0000
0000
0000
,
1010
0000
0000
1000
0001
0000
0010
0000
0100
0000
0100
0000
1000
0000
0000
0000
,
1100
0000
0110
0000
0001
1000
1001
0000
,
0001
0000
0100
0000
1000
0000
0100
0010
0100
0000
0010
0000
1000
0000
0000
0000
,
0001
0000
0010
0000
1000
0000
0010
0100
0010
0000
0100
0000
1000
0000
0001
0000
,
1000
0000
0100
0000
0001
0000
0100
0010
0100
0000
0010
0000
0001
0000
0000
0000
,
1000
0000
0010
0000
0001
0000
0010
0100
0010
0000
0100
0000
0001
0000
1000
0000
,
0001
0000
0100
0000
0010
0000
0100
0001
0100
0000
1000
0000
0100
0000
0000
0000
,
0001
0000
1000
0000
0100
0000
0010
0100
0010
0000
0001
0000
1000
0000
0001
0000
,
1000
0000
0100
0000
0010
0000
0100
1000
0100
0000
0001
0000
0100
0000
0000
0000
,
1000
0000
0001
0000
0100
0000
0010
0100
0010
0000
1000
0000
0001
0000
1000
0000
,
0001
0010
0100
1000
0100
0001
0100
0000
,
1000
0000
0010
0000
0100
0000
0001
0000
0100
0000
1000
0000
0100
0010
0100
0010
,
1000
0010
0001
0010
1000
0010
0100
0000
,
0001
0000
0010
0000
1000
0000
0010
0000
0001
0000
0010
0000
0100
1000
0100
1000
,
0010
0100
0001
0100
1000
0100
0001
0000
,
0010
0000
0100
0000
1000
0000
0100
0000
0001
0000
0100
0000
1000
0100
1000
0100
,
0010
0001
1000
0010
0100
0010
1000
0000
,
0010
1000
0001
0010
0100
0010
0001
0000
,
2000
0000
0000
0000
0010
0000
3010
0000
0000
0100
0001
0100
0001
0000
0000
0000
,
0002
0000
0000
0000
0010
0000
0013
0000
0000
0100
1000
0100
1000
0000
0000
0000
,
2000
0000
0000
0000
0001
0000
3001
0000
0000
0001
0100
0010
0100
0000
0000
0000
,
0002
0000
0000
0000
1000
0000
1003
0000
0000
1000
0100
0010
0100
0000
0000
0000
,
0010
0000
0001
0000
0010
0000
1000
0000
0010
0001
0010
0001
0100
0000
0000
0000
,
0010
0000
1000
0000
0010
0000
0001
0000
0010
1000
0010
1000
0100
0000
0000
0000
,
0001
0000
0100
0000
1000
0000
0100
0000
0010
0001
0010
0001
1000
0000
0000
0000
,
0002
0000
0000
0000
1000
1000
0013
0000
,
0011
0000
0001
0100
0000
0001
0010
0000
0100
0000
1000
0000
0010
0000
0000
0000
,
1010
0000
1000
0100
0000
1000
0010
0000
0100
0000
0001
0000
0010
0000
0000
0000
,
0011
0000
0001
1000
0000
0001
0010
0000
0100
0000
1000
0000
0001
0000
0000
0000
,
1010
0000
1000
0001
0000
1000
0010
0000
0100
0000
0001
0000
1000
0000
0000
0000
,
1100
0000
0001
0100
0000
0010
1000
0000
0001
0000
0010
0000
0100
0000
0000
0000
,
0011
0000
1000
0010
0000
0100
0001
0000
1000
0000
0100
0000
0010
0000
0000
0000
,
0011
0000
0001
1000
0000
0010
0100
0000
0001
0000
1000
0000
0100
0000
0000
0000
,
0220
0000
0000
0330
,
0011
0000
0000
1001
0000
0000
0011
0000
0000
0000
0010
0000
0100
0000
1000
0000
,
1100
0000
0000
1001
0000
0000
1100
0000
0000
0000
1000
0000
0100
0010
0100
0000
,
0110
0000
0000
1001
0000
0000
0110
0000
0000
0000
0001
0000
1000
0000
0001
0000
,
0010
0000
0000
0010
0000
0000
0100
0000
0000
0100
0000
0000
1000
0000
0001
0000
,
1000
0010
0010
0001
0010
1000
0010
0000
,
0100
1000
0001
0100
0010
0100
0001
0000
,
1000
0100
0100
0001
0100
1000
0100
0000
,
0010
1000
0001
0010
0100
0010
0001
0000
,
1000
0010
0001
0010
0100
0001
1000
0000
,
0100
0010
0001
1000
0010
0100
0001
0000
,
1000
0100
0001
0100
0010
0001
1000
0000
,
0010
0100
0001
1000
0100
0010
0001
0000
,
1000
0010
0000
1000
0100
0000
1000
0010
0000
0100
0001
0000
0000
0000
0000
0000
,
0001
0010
0000
0001
0100
0000
0001
0010
0000
0100
1000
0000
0000
0000
0000
0000
,
0001
0100
0000
1000
0100
0000
0001
0100
0000
0010
1000
0000
0000
0000
0000
0000
,
1000
0100
0000
0001
0100
0000
1000
0100
0000
0000
0010
0000
0001
0000
1000
0000
,
0010
0000
0100
0000
0010
0000
1000
0000
0001
0000
0000
1001
0000
0000
0001
0000
,
0010
0000
0100
0000
0010
0000
0001
0000
1000
0000
0000
1001
0000
0000
1000
0000
,
0100
0000
0010
0000
0100
0000
1000
0000
0001
0000
0000
1001
0000
0000
0001
0000
,
0100
0010
0100
1000
0100
0010
0100
0001
,
1000
0000
0100
0000
0001
0000
0100
0000
0010
0000
0000
0011
0000
0000
0001
0000
,
1000
0000
0010
0000
0001
0000
0010
0000
0100
0000
0000
0101
0000
0000
0001
0000
,
1000
0100
0010
0100
0001
0100
0010
0100
,
1000
1000
0001
0001
0100
0010
0100
0010
,
0220
0000
0000
0000
,
0330
0000
0000
0000
;

//--------------- dance-single - ----------------
#NOTEDATA:;
#STEPSTYPE:dance-single;
#DESCRIPTION:;
#DIFFICULTY:Challenge;
#METER:14;
#RADARVALUES:0.769221,0.784838,0.35897,0.073426,0.746494,660,616,44,9,0,0,0,0,0,0.769221,0.784838,0.35897,0.073426,0.746494,660,616,44,9,0,0,0,0,0;
#DISPLAYBPM:150.000;
#CHARTNAME:;
#CHARTSTYLE:;
#CREDIT:Nature and Akita;
#NOTES:
0000
0000
0000
0000
,
0000
0000
0000
0000
,
0000
0000
0000
0000
,
0000
0000
0000
0000
,
0000
0000
0000
0000
,
1000
0010
1000
0000
0001
0000
1000
0000
0010
0000
0100
0000
0001
0000
1000
0000
,
0001
0010
0001
0000
1000
0000
0001
0000
0010
0100
0010
0100
1000
0001
1000
0001
,
1000
0100
1000
0000
0001
0000
1000
0000
0100
0000
0010
0000
0001
0000
1000
0000
,
0002
0000
1000
0000
1000
1000
0013
0000
,
0011
0000
0000
0001
0100
0000
0010
1000
0100
0000
0010
0000
0010
0000
0001
0000
,
1001
0000
0000
1000
0100
0000
0010
0001
0100
0000
0010
0000
0010
0000
1000
0000
,
1001
0000
0000
0001
0100
0000
0010
1000
0100
0000
0010
0000
0010
0000
0001
0000
,
0011
0000
0000
0001
1000
0000
0000
0010
0100
0000
0100
0000
0110
0000
0000
0000
,
1010
0000
0000
1000
0100
0000
0001
0100
1000
0000
0100
0000
0100
0000
0010
0000
,
0011
0000
0000
0001
0100
0000
1000
0100
0001
0000
0100
0000
0100
0000
0010
0000
,
1010
0000
0000
0001
0010
0000
1000
0010
0001
0000
0010
0000
0010
0000
0100
0000
,
0110
0000
0000
1000
0001
0000
0000
0100
0010
0000
0010
0000
0110
0000
0000
0000
,
1010
0000
1000
0100
0000
0010
0100
0010
0100
0000
1000
0100
0000
0010
0001
0000
,
0011
0000
0001
0100
0000
0010
0100
0010
0100
0000
0001
0100
0000
0010
1000
0000
,
1010
0000
1000
0001
0000
0010
0100
0010
0100
0000
1000
0001
0000
0001
1000
0000
,
0100
0001
0100
1000
0100
0010
0001
0010
,
0110
0000
1000
0001
0000
0010
0001
0010
0001
0000
0010
0100
0000
1000
0001
0000
,
0011
0000
0001
1000
0000
0010
1000
0010
1000
0000
0010
0100
0000
0001
1000
0000
,
1100
0000
1000
0001
0000
0100
0001
0100
0001
0000
0100
0010
0000
1000
0001
0000
,
0010
1000
0010
0001
0010
0100
1000
0001
,
1000
0000
0100
0001
0000
0100
0010
0100
0010
0000
0001
0010
0000
1000
0010
0000
,
0001
0000
0100
1000
0000
0100
0010
0100
0010
0000
1000
0010
0000
0001
0010
0000
,
1000
0000
0100
0010
0000
0001
0010
0001
0010
0000
0100
1000
0000
0001
0100
0000
,
1000
0100
0001
0100
1000
0100
0010
1000
,
0001
0000
0010
1000
0000
0010
0100
0010
0100
0000
1000
0100
0000
0001
0100
0000
,
1000
0000
0010
0001
0000
0010
0100
0010
0100
0000
0001
0100
0000
1000
0100
0000
,
0001
0000
0010
0100
0000
1000
0100
1000
0100
0000
0010
0001
0000
1000
0010
0000
,
0001
0010
1000
0010
0001
0010
0100
0001
,
2000
0000
0000
0000
0100
0000
3100
0000
0000
0100
0010
0100
0010
0000
0000
0000
,
0002
0000
0000
0000
0100
0000
0103
0000
0000
0100
0010
0100
0010
0000
0000
0000
,
2000
0000
0000
0000
0001
0000
3001
0000
0000
0001
0010
0100
0010
0000
0000
0000
,
0002
0000
0000
0000
1000
0000
1003
0000
0000
1000
0010
0100
0010
0000
0000
0000
,
1001
0000
0000
0001
0010
0000
0100
0000
1000
0010
0100
0001
0100
0000
0000
0000
,
0010
0000
0000
1000
0001
0000
0010
0000
0100
1000
0100
0010
0001
0000
1000
0100
,
1000
0000
0010
0000
0100
0000
0001
0010
0001
0000
0100
0000
0010
0000
1000
0001
,
2000
0000
0000
0000
0001
0000
3001
0000
0000
1000
0100
1000
0001
0000
0000
0000
,
1001
0000
0000
1010
0000
0000
0110
0000
0001
0000
0100
0010
1000
0000
0100
0000
,
0110
0000
0000
0011
0000
0000
1001
0000
0001
0000
0100
0010
1000
0000
0001
0000
,
1100
0000
0000
1001
0000
0000
0101
0000
0001
0000
1000
0001
0010
0000
0100
0000
,
0110
0000
0000
1100
0000
0000
1001
0000
0001
0000
0010
0000
0100
1000
0100
1000
,
0010
0000
0100
0010
0000
0100
0001
0000
1000
0000
0100
0010
0100
0000
1000
0000
,
0001
0000
1000
0010
0000
0100
0001
0000
0010
0000
0001
1000
0001
0000
1000
0000
,
0100
0000
0010
0001
0000
0100
0010
0000
1000
0000
0010
0100
0010
0000
0100
0000
,
0001
0000
0000
1000
0000
0000
1001
0000
0000
0000
0001
0000
0010
0000
0100
0000
,
1000
0001
0000
1000
0010
0000
0100
0001
0000
0000
0100
0000
1000
0000
0100
0000
,
0001
1000
0000
0001
0010
0000
0100
1000
0000
0000
0100
0000
0010
0001
0010
0000
,
0001
1000
0000
0001
0100
0000
0010
1000
0000
0000
0010
0000
0001
0000
0010
0000
,
1010
0000
0000
1001
0000
0000
1010
0000
0000
0000
1000
0000
0010
0000
0100
0000
,
0001
0000
1000
0100
M0M0
0100
0001
0000
0100
0000
1000
0000
0100
0000
0010
0000
,
1000
0000
0001
0100
M0M0
0100
1000
0000
0100
0000
0001
0000
0100
0000
0010
0000
,
0001
0000
1000
0010
0M0M
0010
0001
0000
0010
0000
1000
0000
0010
0000
0100
0000
,
1000
0000
0001
0010
0M0M
0010
1000
0000
0010
0000
0001
0000
0010
0000
0100
0000
,
0001
0000
1000
0100
0000
0001
0100
0000
1000
0000
0100
0000
0010
0000
0100
0000
,
1000
0000
0001
0100
0000
1000
0100
0000
0001
0000
0100
0000
0010
0000
0100
0000
,
0001
0000
1000
0010
0000
0001
0010
0000
1000
0000
0010
0000
0100
0000
0010
0000
,
1000
0010
0000
0100
0010
0100
0000
0010
0100
0000
0001
0000
1000
0001
1000
0000
,
0001
0010
0000
0001
1000
0000
0001
0010
0000
0000
0011
0000
1001
0000
0000
0000
,
1000
0010
0000
1000
0001
0000
1000
0010
0000
1010
0000
0000
0000
0000
0000
0000
,
0001
0100
0000
1000
0100
0000
0001
0100
0000
0110
0000
0000
0000
0000
1000
0000
,
1000
0100
0000
0001
0100
0000
1000
0100
0000
0000
0010
0000
0001
0000
1000
0000
,
0010
0100
0010
0000
1000
0000
0001
0000
1100
0000
0000
1001
0000
0000
0001
0000
,
0100
0010
0100
0000
0001
0000
1000
0000
1100
0000
0000
1010
0000
0000
0100
0000
,
0001
0010
0001
0000
1000
0000
0010
0000
0110
0000
0000
1001
0000
0000
0001
0000
,
0010
1000
0010
0100
1000
0001
0100
0010
,
1000
0100
1000
0000
0010
0000
0100
0000
0001
0100
0000
0010
0100
0000
0010
1000
,
0010
0100
0001
0000
1000
0000
0100
0000
0010
0001
0000
0010
0200
0000
0300
0000
,
1000
0010
1000
0000
0001
0000
0100
0000
0001
0000
0010
0100
1000
0000
0001
0000
,
0100
0000
0001
0010
0001
0000
1000
0100
1000
0000
0010
0000
1000
0001
1000
0000
,
2002
0000
0000
0000
,
3003
0000
0000
0000
;

//--------------- dance-double - ----------------
#NOTEDATA:;
#STEPSTYPE:dance-double;
#DESCRIPTION:;
#DIFFICULTY:Easy;
#METER:5;
#RADARVALUES:0,0,0,0,0;
#CREDIT:forcednature;
#NOTES:
00000000
00000000
00000000
00000000
,
00000000
00000000
00000000
00000000
,
00000000
00000000
00000000
00000000
,
00000000
00000000
00000000
00000000
,
00000000
00000000
00000000
00000000
,
00001000
00001000
00010000
00010000
,
00000100
00010000
00001000
01000000
,
00100000
10000000
01000000
00100000
,
00020000
00000000
00000000
00030000
,
01000000
00010000
01000000
00001000
,
00010000
00000010
00010000
00001000
,
00010000
00000100
00001000
00000001
,
00000100
00000010
00001000
00000000
,
00000100
00010000
00001000
00100000
,
00001000
00010000
00001000
01000000
,
00010000
10000000
00100000
01000000
,
00010000
00100000
01000000
00000000
,
10000000
10000000
10010000
00000000
,
00010000
00010000
01000000
00000000
,
00001000
00001000
00011000
00000000
,
00000100
00000100
00000010
00000000
,
00001001
00001000
00000001
00000000
,
00000110
00000010
00000100
00000000
,
00011000
00010000
00001000
00000000
,
00100000
00100000
00100000
00100000
,
01100000
00000000
10000000
00010000
,
01000000
00100000
10000000
00010000
,
01000000
00000000
00001000
00010000
,
00000100
00001000
00000001
00000010
,
00000110
00000000
00000001
00001000
,
00000010
00001000
00000100
00010000
,
00001000
00000000
00100000
00010000
,
01000000
01000000
00100000
00100000
,
02100000
00000000
03000000
00000000
,
00020000
00000000
00030000
00000000
,
00200000
00000000
00300000
00000000
,
00002000
00000000
00003000
00000000
,
00010000
00000100
00010000
00000100
,
00001000
00000001
00001000
00000001
,
00000100
00000010
00000100
00000010
,
00000200
00000000
00000000
00000000
00000000
00000000
00000000
00000000
00000000
00000000
00000000
00000300
00000000
00000000
00000000
00000000
,
00000001
00000000
00001000
00000001
00001000
00000000
00000010
00000000
,
00001000
00000001
00000100
00000000
,
00000010
00000000
00010000
00001000
00010000
00000000
00000100
00000000
,
00010000
00001000
00100000
00000000
,
00010000
00000000
01000000
00100000
01000000
00000000
00010000
00000000
,
10000000
01000000
00100000
00000000
,
00010000
00000000
10000000
00100000
10000000
00000000
00100000
00000000
,
02200000
00000000
03300000
00000000
,
10000000
00000000
00010000
00000000
00000000
10000000
00010000
00000000
,
00100000
00000000
00001000
00000000
00000000
00100000
00001000
00000000
,
00010000
00000000
00000100
00000000
00000000
00010000
00000100
00000000
,
00010000
00000000
00000000
00001000
00000000
00000000
00010000
00000000
00000000
00001000
00000000
00000000
00010000
00000000
00000000
00000000
,
00000100
00001000
00000100
00001000
,
00000010
00000100
00000001
00000010
,
00000100
00001000
00000100
00010000
,
00001000
00100000
00010000
10000000
,
00100000
01000000
00010000
10000000
,
01000000
00100000
00010000
01000000
,
00010000
10000000
00100000
01000000
,
00100000
00100000
01100000
00000000
,
00010000
00000000
00000000
10000000
00000000
00000000
00010000
00000000
00000000
10000000
00000000
00000000
00000000
00000000
00000000
00000000
,
00100000
00000000
00000000
01000000
00000000
00000000
00100000
00000000
00000000
01000000
00000000
00000000
00000000
00000000
00000000
00000000
,
00001000
00000000
00000000
00010000
00000000
00000000
00001000
00000000
00000000
00010000
00000000
00000000
00000000
00000000
00000000
00000000
,
00000010
00000000
00000000
00000100
00000000
00000000
00000010
00000000
00000000
00000000
00000100
00000000
00000010
00000000
00000000
00000000
,
00001000
00000001
00001000
00000000
00000100
00000000
00000010
00000000
,
00000001
00001000
00000001
00000000
00000100
00000000
00000010
00000000
,
00001000
00000001
00001000
00000000
00000100
00000000
00000010
00000000
,
00000100
00000100
00000100
00000100
,
00010000
00001000
00010000
00000000
00001000
00000000
00100000
00000000
,
00010000
10000000
00010000
00000000
01000000
00000000
00100000
00000000
,
10000000
00010000
10000000
00000000
00100000
00000000
01000000
00000000
,
00010000
10000000
00010000
00000000
00100000
00000000
01000000
00000000
,
20020000
00000000
00000000
00000000
,
30030000
00000000
00000000
00000000
;

//--------------- dance-double - ----------------
#NOTEDATA:;
#STEPSTYPE:dance-double;
#DESCRIPTION:;
#DIFFICULTY:Medium;
#METER:9;
#RADARVALUES:0,0,0,0,0;
#CREDIT:forcednature;
#NOTES:
00000000
00000000
00000000
00000000
,
00000000
00000000
00000000
00000000
,
00000000
00000000
00000000
00000000
,
00000000
00000000
00000000
00000000
,
00000000
00000000
00000000
00000000
,
00001000
00010000
00000000
00000100
00000000
00001000
00000010
00001000
,
00000000
00000001
00000000
00000010
00000100
00001000
00000100
00000000
,
00011000
00110000
01000000
10000000
,
00020000
00000000
01000000
00000000
01000000
01030000
00010000
00000000
,
00100000
00010000
01000000
00010000
00100000
00000000
00001000
00000000
,
00010000
00000100
00001000
00000100
00010000
00000000
00000010
00000000
,
00001000
00000100
00000010
00000001
00000100
00000000
00000001
00000000
,
00001000
00000010
00001000
00000100
00001000
00000000
00000010
00000000
,
00011000
00000000
00100000
00000000
00001000
00010000
00001000
00000000
,
01100000
00000000
00010000
00000000
10000000
01000000
10000000
00000000
,
00110000
00000000
00001000
00000000
01000000
00100000
01000000
00000000
,
00011000
00000000
00000100
00000000
00001000
00000001
00001000
00000000
,
00000010
00000000
00001000
00000000
00000001
00000000
00000100
00000000
00000010
00000000
00000000
00001000
00000000
00000000
00000000
00000000
,
00000100
00000000
00010000
00000000
00001000
00000000
00100000
00000000
00001000
00000000
00000000
00010000
00000000
00000000
00000000
00000000
,
00001000
00000000
01000000
00000000
00010000
00000000
00100000
00000000
01000000
00000000
00000000
00100000
00000000
00000000
00000000
00000000
,
00010000
00000000
01000000
00000000
00100000
00000000
10000000
00000000
00010000
00000000
00000000
10000000
00000000
00000000
00000000
00000000
,
01100000
00000000
00010000
00000000
00100000
00001000
00010000
00000000
,
00000100
00000000
00000000
00001000
00000000
00000000
00000010
00000000
00000000
00000000
00000100
00000000
00000001
00000000
00000000
00000000
,
00000010
00000100
00001000
00000001
00000010
00000000
00000110
00000000
,
00000001
00000100
00000010
00001000
00000100
00000000
00000110
00000000
,
00002001
00000000
00003001
00000000
00001000
00000001
00001000
00000000
,
00000010
00000100
00001000
00010000
,
00021000
00000000
00031000
00000000
00100000
00010000
00100000
00000000
,
01000000
10000000
00100000
01000000
,
10020000
00000000
10030000
00000000
00010000
00100000
00010000
00000000
,
01000000
00001000
00010000
00000100
,
00002001
00000000
00003001
00000000
00000010
00000100
00000010
00000000
,
00000100
00000000
00010000
00000000
00001000
01000000
00001000
00000000
,
00012000
00000000
00100000
00100000
00000000
00103000
00001000
00000000
,
02000000
00000000
00010000
00010000
00000000
03010000
01000000
00000000
,
00020000
00000000
00100000
00100000
00000000
00130000
00010000
00000000
,
00002000
00000000
00000010
00000010
00000000
00003010
00001000
00000000
,
00011000
00000000
00010100
00000000
00000100
00001000
00000010
00000000
,
00000110
00000000
00000101
00000000
00000001
00001000
00000010
00000000
,
00001010
00000000
00011000
00000000
00100000
00010000
01000000
00000000
,
00200000
00000000
01000000
00000000
02300000
00000000
00000000
00000000
03000000
00000000
00000000
10010000
00000000
00000000
00000000
00000000
,
00010000
00000000
00000000
00010000
00000000
00000000
00010000
00000000
00000000
00000000
00100000
00000000
00001000
00000000
00000000
00000000
,
00000100
00000000
00000000
00000100
00000000
00000000
00000100
00000000
00000000
00000000
00000010
00000000
00001000
00000000
00000000
00000000
,
00000001
00000000
00000000
00000001
00000000
00000000
00000001
00000000
00000000
00000000
00000010
00000000
00000100
00000000
00000000
00000000
,
00010000
00000000
00000000
00010000
00000000
00000000
00010000
00000000
00000000
00000000
00001000
00000000
00100000
00000000
00000000
00000000
,
10010000
00000000
00000000
00010000
00000000
00000000
00010000
00000000
00000000
00000000
10000000
00000000
01000000
00000000
00000000
00000000
,
00100000
00000000
00000000
00100000
00000000
00000000
00100000
00000000
00000000
00000000
00001000
00000000
00010000
00000000
00000000
00000000
,
00000010
00000000
00000000
00000010
00000000
00000000
00000010
00000000
00000000
00000000
00000100
00000000
00000001
00000000
00001000
00000000
,
00002002
00000000
00000000
00003003
,
00000001
00000000
00000000
00000002
00000000
00000000
00002000
00000000
00003003
00000000
00001000
00000000
00000100
00000000
00000000
00000000
,
00010000
00000000
00000000
00020000
00000000
00000000
00002000
00000000
00033000
00000000
00001000
00000000
00100000
00000000
00000000
00000000
,
01000000
00000000
00000000
02000000
00000000
00000000
20000000
00000000
33000000
00000000
00100000
00000000
01000000
00000000
00000000
00000000
,
00002000
00000000
00000000
00000000
00000000
00000000
00023000
00000000
00000000
00000000
00000000
00000000
00030200
00000000
00000000
00000000
00000000
00000000
00000320
00000000
00000000
00000000
00000000
00000000
00002030
00000000
00000000
00000000
00000000
00003000
00000000
00000000
,
00010000
00000000
00001000
00100000
00010000
00000000
01000000
00000000
,
00100000
10000000
00010000
01000000
00100000
00000000
10000000
00000000
,
01000000
00000000
00100000
00001000
00010000
00000000
00000100
00000000
,
00001000
00000001
00000100
00000010
00001000
00000000
00000100
00000000
,
00000010
00000000
00000001
00000100
00000010
00000000
00010000
00000000
,
00001000
00100000
00010000
01000000
00001000
00000000
00100000
00000000
,
01000000
00000000
10000000
00010000
01000000
00000000
00100000
00000000
,
10010000
00000000
01100000
00000000
10000000
00010000
10000000
00000000
,
00100000
00000000
00000000
01000000
00000000
00000000
00100000
00000000
00000000
10010000
00000000
00000000
00000000
00000000
00000000
00000000
,
00001000
00000000
00000000
00010000
00000000
00000000
00001000
00000000
00000000
00000110
00000000
00000000
00000000
00000000
00000000
00000000
,
00000001
00000000
00000000
00001000
00000000
00000000
00000001
00000000
00000000
00001010
00000000
00000000
00000000
00000000
00000100
00000000
,
00010000
00000000
00000000
00000100
00000000
00000000
00010000
00000000
00000000
00000000
00001000
00000000
00100000
00000000
00000000
00000000
,
00010000
00000000
10000000
00000000
00100000
00000000
01000000
00000000
00020000
00000000
00000000
10030000
00000000
00000000
00000000
00000000
,
00010000
00000000
00100000
00000000
00001000
00000000
00010000
00000000
00000200
00000000
00000000
00001300
00000000
00000000
00000000
00000000
,
00000010
00000000
00000100
00000000
00000001
00000000
00001000
00000000
00000200
00000000
00000000
00000310
00000000
00000000
00000000
00000000
,
00000001
00000000
00000100
00000000
00000001
00000000
00001000
00000000
00000020
00000000
00000000
00001030
00000000
00000000
00000000
00000000
,
00000010
00000000
00010000
00000000
00001000
00000000
01000000
00000000
00002000
00000000
00000000
00013000
00000000
00000000
00000000
00000000
,
00100000
00000000
01000000
00000000
00010000
00000000
10000000
00000000
02000000
00000000
00000000
03100000
00000000
00000000
00000000
00000000
,
00001000
00000000
00010000
00000000
00001000
00000000
00000100
00000000
00000020
00000000
00000000
00000130
00000000
00000000
00000001
00000000
,
00001000
00000010
00001000
00000100
00000010
00000001
00000010
00000000
,
00002002
00000000
00000000
00000000
,
00003003
00000000
00000000
00000000
;

//--------------- dance-double - ----------------
#NOTEDATA:;
#STEPSTYPE:dance-double;
#DESCRIPTION:;
#DIFFICULTY:Hard;
#METER:13;
#RADARVALUES:0,0,0,0,0;
#CREDIT:forcednature;
#NOTES:
00000000
00000000
00000000
00000000
,
00000000
00000000
00000000
00000000
,
00000000
00000000
00000000
00000000
,
00000000
00000000
00000000
00000000
,
00000000
00000000
00000000
00000000
,
00010000
00000000
00001000
00000000
00010000
00000000
00000100
00000000
00010000
00000000
00001000
00000000
00100000
00010000
00100000
00000000
,
01000000
00000000
10000000
00000000
00010000
00000000
00100000
00000000
00001000
00010000
00001000
00000000
00011000
00000000
00000000
00000000
,
00000010
00000000
00001000
00000000
00000001
00000000
00000100
00000000
00001000
00000000
00010000
00000000
00100000
10000000
00100000
00000000
,
02000000
00000000
00010000
00000000
00010000
00010000
03100000
00000000
,
10010000
00000000
00000000
10000000
01000000
00000000
00100000
00000000
00010000
00000000
00001000
00000000
00000100
00000000
00000000
00000000
,
00001001
00000000
00000000
00000001
00000100
00000000
00000010
00000000
00001000
00000000
00010000
00000000
01000000
00000000
00000000
00000000
,
10010000
00000000
00000000
10000000
01000000
00000000
00010000
00000000
00001000
00000000
00000100
00000000
00000001
00000000
00000000
00000000
,
00000101
00000000
00001010
00000000
00010000
00001000
00011000
00000000
,
10010000
00000000
00000000
10000000
00010000
00000000
00100000
00000000
00001000
00000000
00000100
00000000
00001000
00000000
00000000
00000000
,
00011000
00000000
00000000
00001000
00010000
00000000
00000010
00000000
00010000
00000000
01000000
00000000
00100000
00000000
00000000
00000000
,
00011000
00000000
00000000
00000100
00001000
00000000
00000001
00000000
00000100
00000000
00001000
00000000
00010000
00000000
00000000
00000000
,
00001100
00000000
00000011
00000000
00001000
00000100
00011000
00000000
,
10000000
00000000
00010000
00000000
01000000
00000000
00001000
00010000
00001000
00000000
00000100
00000000
00000010
00000000
00000000
00000000
,
00001000
00000000
00000100
00000000
00010000
00000000
00001000
00010000
00001000
00000000
00100000
00000000
01000000
00000000
10000000
00000000
,
00010000
00000000
01000000
00000000
00001000
00000000
00010000
00000100
00010000
00000000
00001000
00000000
00000010
00000000
00000000
00000000
,
00000001
00000000
00000100
00000000
00000001
00000100
00000000
00000000
00010000
00000000
01000000
00000000
00010000
01000000
00000000
00000000
,
10010000
00000000
10000000
00000000
00100000
00000000
00010000
00001000
00010000
00000000
00000100
00000000
00001000
00000000
00000000
00000000
,
00000001
00000000
00000100
00000000
00000010
00000000
00001000
00000100
00001000
00000000
00000010
00000000
00010000
00000000
00001000
00000000
,
00100000
00000000
01000000
00000000
10000000
00000000
00100000
01000000
00100000
00000000
00010000
00000000
00001000
00000000
00000000
00000000
,
00000010
00000000
00000001
00000000
00000010
00000000
00001000
00010000
00001000
00000000
00100000
00000000
00010000
00000000
01000000
00000000
,
10000000
01000000
00010000
00100000
00001000
00010000
00000010
00000000
,
00001000
00000000
00000100
00000000
00000001
00000000
00000100
00000000
00000010
00000000
00001000
00000000
00010000
00001000
00010000
00001000
,
00010000
00100000
01000000
00010000
10000000
01000000
00010000
00000000
,
00001000
00000000
00000010
00000000
00000001
00000000
00000100
00000000
00001000
00000000
00010000
00000000
00100000
01000000
00100000
01000000
,
00100000
01000000
00010000
01000000
00001000
00010000
00000100
00000000
,
00000010
00000000
00001000
00000000
00010000
00000000
00100000
00000000
00010000
00000000
00001000
00000000
00000010
00000001
00000010
00000001
,
00000100
00000010
00010000
00001000
00100000
01000000
10000000
00000000
,
00010000
10000000
00010000
00100000
00001000
00000100
00000010
00000000
,
00002000
00000000
00000000
00000000
00000100
00000000
00003100
00000000
00000000
00010000
00001000
00010000
00001000
00000000
00000000
00000000
,
02000000
00000000
00000000
00000000
00100000
00000000
03100000
00000000
00000000
10000000
00010000
10000000
00010000
00000000
00000000
00000000
,
00200000
00000000
00000000
00000000
00001000
00000000
00301000
00000000
00000000
00001000
00010000
00000100
00001000
00000000
00000000
00000000
,
00000020
00000000
00000000
00000000
00000100
00000000
00000130
00000000
00000000
00000001
00000010
00000100
00001000
00000000
00000000
00000000
,
00000001
00000000
00000010
00000000
00000100
00000000
00000010
00000000
00001000
00010000
00001000
00010000
00000100
00000000
00000000
00000000
,
00010000
00000000
00001000
00000000
00100000
00000000
00010000
00000000
01000000
00100000
01000000
00100000
10000000
00000000
00000000
00000000
,
00010000
00000000
01000000
00000000
10000000
00000000
01000000
00000000
00100000
00010000
00100000
00010000
00001000
00000000
00000000
00000000
,
00000200
00000000
00000000
00000000
00000001
00000001
00000310
00000000
,
00001001
00000000
00001000
00000100
00000000
00000010
00000001
00000000
00000100
00000000
00001000
00000000
00010000
00000000
00000000
00000000
,
00011000
00000000
00001000
00100000
00000000
00001000
01000000
00000000
00100000
00000000
10000000
00000000
00010000
00000000
00000000
00000000
,
10010000
00000000
10000000
01000000
00000000
00100000
00010000
00000000
01000000
00000000
00001000
00000000
00010000
00000000
00000000
00000000
,
00011000
00000000
00001000
00010000
00000000
00000100
00001000
00000000
00000001
00000000
00000100
00000000
00000010
00000000
00000000
00000000
,
00001001
00000000
00000001
00000010
00000000
00000100
00010000
00000000
00001000
00000000
00100000
00000000
01000000
00000000
00000000
00000000
,
10010000
00000000
10000000
00100000
00000000
01000000
00001000
00000000
00010000
00000000
01000000
00000000
00100000
00000000
00000000
00000000
,
00011000
00000000
00010000
00000100
00000000
01000000
00001000
00000000
00010000
00000000
00000100
00000000
00000010
00000000
00000000
00000000
,
00002002
00000000
00000000
00003003
,
00001001
00000000
00000000
00000110
00000000
00000000
00011000
00000000
00000000
00000000
00001000
00000000
00100000
00000000
01000000
00000000
,
01100000
00000000
00000000
10010000
00000000
00000000
11000000
00000000
00000000
00000000
10000000
00000000
01000000
00100000
01000000
00000000
,
00110000
00000000
00000000
00011000
00000000
00000000
00001100
00000000
00000000
00000000
00000001
00000000
00000100
00000000
00000010
00000000
,
00001000
00000000
00000000
00000100
00000000
00000000
00010000
00000000
00000000
01000000
00000000
00000000
10000000
00000000
00010000
00000000
,
10000000
00100000
00100000
00010000
01000000
00001000
00010000
00000000
,
00000100
00001000
00000001
00000010
00000100
00010000
00001000
00000000
,
00100000
00010000
00010000
00001000
00010000
00100000
01000000
00000000
,
00100000
10000000
00010000
00100000
00001000
00010000
00000010
00000000
,
00000100
00001000
00000100
00000001
00001000
00000100
00010000
00000000
,
00001000
00100000
01000000
00001000
01000000
00100000
00010000
00000000
,
01000000
10000000
01000000
00010000
00100000
00001000
00000010
00000000
,
00000001
00000100
00000001
00000010
00001000
00010000
00001000
00000000
,
00110000
00000000
00000000
00100000
01000000
00000000
11000000
00000000
00000000
10000000
00010000
00000000
00000000
00000000
00000000
00000000
,
01010000
00000000
00000000
00001000
00010000
00000000
00001100
00000000
00000000
00010000
00001000
00000000
00000000
00000000
00000000
00000000
,
01100000
00000000
00000000
00010000
00001000
00000000
00000110
00000000
00000000
00001000
00010000
00000000
00000000
00000000
00000000
00000000
,
11000000
00000000
00000000
00100000
00001000
00000000
00011000
00000000
00000000
00000000
00000110
00000000
00001000
00000000
00000000
00000000
,
00000001
00000000
00000100
00000000
00001000
00000000
00000100
00000000
00000010
00000000
00000000
00001001
00000000
00000000
00001000
00000000
,
00000100
00000000
00010000
00000000
00001000
00000000
00100000
00000000
01000000
00000000
00000000
10010000
00000000
00000000
10000000
00000000
,
00100000
00000000
00010000
00000000
00100000
00000000
01000000
00000000
00001000
00000000
00000000
00011000
00000000
00000000
00010000
00000000
,
00000100
00001000
00000001
00000100
00001000
00010000
01000000
10000000
,
00100000
00000000
01000000
00000000
00001000
00000000
00010000
00000000
00000100
00000000
00000000
00001001
00000000
00000000
00000001
00000000
,
00000010
00000000
00001000
00000000
00010000
00000000
00100000
00000000
10000000
00000000
00000000
01100000
00000000
00000000
00010000
00000000
,
10000000
01000000
00010000
00001000
01000000
00010000
00001000
00000010
,
00000100
00000100
00000001
00000001
00001000
00000010
00010000
01000000
,
02200000
00000000
00000000
00000000
,
03300000
00000000
00000000
00000000
;

//--------------- dance-double - ----------------
#NOTEDATA:;
#STEPSTYPE:dance-double;
#DESCRIPTION:;
#DIFFICULTY:Challenge;
#METER:14;
#RADARVALUES:0,0,0,0,0;
#CREDIT:forcednature;
#NOTES:
00000000
00000000
00000000
00000000
,
00000000
00000000
00000000
00000000
,
00000000
00000000
00000000
00000000
,
00000000
00000000
00000000
00000000
,
00000000
00000000
00000000
00000000
,
00010000
00001000
00010000
00000000
00000100
00000000
00000010
00000000
00000001
00000000
00000100
00000000
00000010
00000000
00010000
00000000
,
00001000
00100000
00001000
00000000
00010000
00000000
01000000
00000000
10000000
00010000
10000000
00010000
00100000
01000000
00100000
01000000
,
10000000
00010000
10000000
00000000
00100000
00000000
00010000
00000000
00001000
00000000
00000010
00000000
00000001
00000000
00000100
00000000
,
00000020
00000000
00000100
00000000
00000100
00000100
00001030
00000000
,
00001001
00000000
00000000
00000001
00000010
00000000
00000100
00001000
00000010
00000000
00000100
00000000
00000100
00000000
00000001
00000000
,
00001001
00000000
00000000
00001000
00000100
00000000
00010000
00001000
01000000
00000000
00100000
00000000
00100000
00000000
10000000
00000000
,
10010000
00000000
00000000
00010000
00100000
00000000
01000000
10000000
00100000
00000000
01000000
00000000
01000000
00000000
00010000
00000000
,
10010000
00000000
00000000
10000000
00010000
00000000
00000000
00100000
00001000
00000000
00001000
00000000
00011000
00000000
00000000
00000000
,
00000101
00000000
00000000
00000001
00000010
00000000
00001000
00000010
00000001
00000000
00000100
00000000
00000100
00000000
00000010
00000000
,
00001010
00000000
00000000
00001000
00000100
00000000
00010000
00001000
00010000
00000000
00100000
00000000
00100000
00000000
01000000
00000000
,
10100000
00000000
00000000
00010000
00100000
00000000
10000000
00100000
00010000
00000000
01000000
00000000
01000000
00000000
00001000
00000000
,
00011000
00000000
00000000
00010000
00000100
00000000
00000000
00000010
00000001
00000000
00000001
00000000
00000110
00000000
00000000
00000000
,
00001001
00000000
00001000
00000100
00000000
00010000
00001000
00010000
00001000
00000000
01000000
00010000
00000000
10000000
00100000
00000000
,
01100000
00000000
00010000
10000000
00000000
00010000
00100000
00010000
00100000
00000000
00001000
00010000
00000000
00000010
00001000
00000000
,
00001100
00000000
00001000
00000001
00000000
00001000
00000100
00001000
00000100
00000000
00010000
00001000
00000000
00010000
00001000
00000000
,
00100000
00010000
00100000
10000000
00100000
00010000
01000000
00100000
,
10100000
00000000
10000000
00010000
00000000
00100000
00001000
00100000
00001000
00000000
00010000
00001000
00000000
00010000
00000100
00000000
,
00000110
00000000
00000010
00000001
00000000
00000100
00000010
00000100
00000010
00000000
00001000
00000100
00000000
00010000
00001000
00000000
,
00011000
00000000
00001000
00100000
00000000
00010000
01000000
00010000
01000000
00000000
00100000
10000000
00000000
01000000
00100000
00000000
,
00001000
00010000
00001000
00000100
00001000
00100000
00010000
10000000
,
01000000
00000000
00100000
00001000
00000000
00010000
00001000
00010000
00001000
00000000
00010000
00000100
00000000
00001000
00000001
00000000
,
00000100
00000000
00001000
00010000
00000000
01000000
00100000
01000000
00100000
00000000
00010000
10000000
00000000
00010000
01000000
00000000
,
00001000
00000000
00010000
00000100
00000000
00001000
00000001
00001000
00000001
00000000
00000100
00000010
00000000
00001000
00000001
00000000
,
00000100
00001000
00010000
01000000
10000000
00100000
00010000
00001000
,
00000010
00000000
00000001
00001000
00000000
00000100
00000010
00000100
00000010
00000000
00000001
00000100
00000000
00001000
00000100
00000000
,
00000010
00000000
00010000
00001000
00000000
00100000
01000000
00100000
01000000
00000000
10000000
00100000
00000000
00010000
00100000
00000000
,
01000000
00000000
00001000
00010000
00000000
00000100
00001000
00000100
00001000
00000000
00000001
00000010
00000000
00000001
00000100
00000000
,
00001000
00000100
00010000
01000000
00010000
00100000
00001000
00000010
,
00000200
00000000
00000000
00000000
00010000
00000000
00010300
00000000
00000000
00010000
00001000
00010000
00001000
00000000
00000000
00000000
,
00200000
00000000
00000000
00000000
01000000
00000000
01300000
00000000
00000000
00100000
00010000
00100000
00010000
00000000
00000000
00000000
,
20000000
00000000
00000000
00000000
00010000
00000000
30010000
00000000
00000000
00010000
01000000
00100000
01000000
00000000
00000000
00000000
,
00002000
00000000
00000000
00000000
00000100
00000000
00003100
00000000
00000000
00000100
00000010
00001000
00000010
00000000
00000000
00000000
,
00001001
00000000
00000000
00000001
00000100
00000000
00000010
00000000
00001000
00000100
00010000
00001000
00100000
00000000
00000000
00000000
,
00010000
00000000
00000000
01000000
00100000
00000000
10000000
00000000
00010000
01000000
00001000
00010000
00000010
00000000
00001000
00000010
,
00001000
00000000
00000100
00000000
00000010
00000000
00000001
00000100
00000001
00000000
00001000
00000000
00000100
00000000
00010000
00001000
,
00020000
00000000
00000000
00000000
00100000
00000000
00130000
00000000
00000000
00010000
00001000
00010000
00000100
00000000
00000000
00000000
,
00011000
00000000
00000000
00101000
00000000
00000000
00110000
00000000
00010000
00000000
00100000
01000000
10000000
00000000
00100000
00000000
,
01100000
00000000
00000000
01001000
00000000
00000000
00011000
00000000
00010000
00000000
00000100
00001000
00000001
00000000
00000100
00000000
,
00000110
00000000
00000000
00001010
00000000
00000000
00001001
00000000
00000001
00000000
00000010
00000100
00001000
00000000
00000010
00000000
,
00010010
00000000
00000000
00011000
00000000
00000000
00101000
00000000
00100000
00000000
00010000
00000000
01000000
00100000
01000000
00100000
,
10000000
00000000
01000000
00100000
00000000
01000000
10000000
00000000
00100000
00000000
01000000
00010000
01000000
00000000
00001000
00000000
,
00010000
00000000
00000100
00001000
00000000
00000001
00000010
00000000
00000001
00000000
00000100
00000010
00000100
00000000
00001000
00000000
,
00010000
00000000
01000000
00100000
00000000
00010000
00100000
00000000
00001000
00000000
01000000
00100000
01000000
00000000
00010000
00000000
,
10000000
00000000
00000000
00010000
00000000
00000000
10010000
00000000
00000000
00000000
00010000
00000000
00100000
00000000
00001000
00000000
,
00010000
00000100
00000000
00010000
00001000
00000000
00100000
00001000
00000000
00000000
00010000
00000000
01000000
00000000
00010000
00000000
,
00001000
00010000
00000000
00000010
00010000
00000000
00001000
01000000
00000000
00000000
00001000
00000000
00000010
00000100
00000010
00000000
,
00000001
00000100
00000000
00001000
00010000
00000000
01000000
10000000
00000000
00000000
00100000
00000000
01000000
00000000
00010000
00000000
,
00110000
00000000
00000000
00011000
00000000
00000000
00001010
00000000
00000000
00001000
00000000
00000000
00000100
00000000
00010000
00000000
,
00001000
00000000
00100000
00010000
00M0M000
00010000
00000010
00000000
00001000
00000000
00000100
00000000
00000010
00000000
00000001
00000000
,
00000010
00000000
00000100
00001000
000M0M00
00001000
01000000
00000000
00010000
00000000
10000000
00000000
01000000
00000000
00100000
00000000
,
00001000
00000000
00010000
00001000
000M0M00
00001000
00000100
00000000
00010000
00000000
01000000
00000000
10000000
00000000
00010000
00000000
,
10000000
00000000
00100000
01000000
M0M00000
01000000
10000000
00000000
00010000
00000000
00100000
00000000
00001000
00000000
00010000
00000000
,
00000100
00000000
00001000
00000001
00000000
00000100
00000010
00000000
00010000
00000000
00001000
00000000
00000010
00000000
00000001
00000000
,
00000010
00000000
00000100
00001000
00000000
00000100
00010000
00000000
00001000
00000000
00010000
00000000
00100000
00000000
01000000
00000000
,
00001000
00000000
00010000
00000100
00000000
00001000
00000010
00000000
00010000
00000000
00000100
00000000
00000010
00000000
00000001
00000000
,
00001000
00000100
00000000
00010000
00001000
00010000
00000000
00000100
00001000
00000000
00000001
00000000
00000010
00000100
00000010
00000000
,
00000001
00000100
00000000
00000001
00000010
00000000
00000001
00000100
00000000
00000000
00000101
00000000
00001001
00000000
00000000
00000000
,
00010000
00001000
00000000
00010000
01000000
00000000
00010000
00001000
00000000
00011000
00000000
00000000
00000000
00000000
00000000
00000000
,
00000100
00010000
00000000
00000010
00010000
00000000
00000100
00010000
00000000
00011000
00000000
00000000
00000000
00000000
00100000
00000000
,
00100000
01000000
00000000
10000000
01000000
00000000
00010000
01000000
00000000
00000000
00100000
00000000
00001000
00000000
00010000
00000000
,
00100000
01000000
00100000
00000000
10000000
00000000
00010000
00000000
00110000
00000000
00000000
00101000
00000000
00000000
00001000
00000000
,
00010000
00000100
00010000
00000000
00000010
00000000
00000100
00000000
00000110
00000000
00000000
00001001
00000000
00000000
00000001
00000000
,
00000010
00000100
00000010
00000000
00001000
00000000
00010000
00000000
01100000
00000000
00000000
10010000
00000000
00000000
00010000
00000000
,
10000000
01000000
00100000
00010000
00001000
00000100
00000010
00000001
,
00001000
00000010
00001000
00000000
00000100
00000000
00010000
00000000
00001000
00100000
00000000
00010000
01000000
00000000
00100000
10000000
,
00010000
01000000
00001000
00000000
00010000
00000000
00000100
00000000
00000010
00000100
00000000
00001000
00000002
00000000
00000003
00000000
,
00000100
00000010
00000100
00000000
00001000
00000000
00010000
00000000
01000000
00000000
10000000
00100000
01000000
00000000
00001000
00000000
,
00010000
00000000
00000100
00010000
00000100
00000000
01000000
00001000
01000000
00000000
00100000
00000000
00010000
00001000
00010000
00000000
,
00022000
00000000
00000000
00000000
,
00033000
00000000
00000000
00000000
;
