#VERSION:0.83;
#TITLE:24시간이 모자라;
#SUBTITLE:;
#ARTIST:Sunmi;
#TITLETRANSLIT:24 Hours;
#SUBTITLETRANSLIT:;
#ARTISTTRANSLIT:Sunmi;
#GENRE:;
#ORIGIN:;
#CREDIT:;
#BANNER:24 Hours.png;
#BACKGROUND:24 Hours-bg.png;
#PREVIEWVID:;
#JACKET:24 Hours-jacket.png;
#CDIMAGE:;
#DISCIMAGE:;
#LYRICSPATH:;
#CDTITLE:cdtitle.png;
#MUSIC:24 Hours.ogg;
#OFFSET:0.000000;
#SAMPLESTART:106.190002;
#SAMPLELENGTH:15.238000;
#SELECTABLE:YES;
#BPMS:0.000=126.000;
#STOPS:;
#DELAYS:;
#WARPS:;
#TIMESIGNATURES:0.000=4=4;
#TICKCOUNTS:0.000=4;
#COMBOS:0.000=1;
#SPEEDS:0.000=1.000=0.000=0;
#SCROLLS:0.000=1.000;
#FAKES:;
#LABELS:0.000=Song Start;
#BGCHANGES:-0.000=24 Hours.avi=1.000=0=0=0=StretchNoLoop==CrossFade_Fastest==,
290.000=24 Hours-bg.png=1.000=1=0=1===CrossFade==,
99999=-nosongbg-=1.000=0=0=0 // don't automatically add -songbackground-
;
#KEYSOUNDS:;
#ATTACKS:
;

//---------------dance-single - vincentw----------------
#NOTEDATA:;
#CHARTNAME:;
#STEPSTYPE:dance-single;
#DESCRIPTION:vincentw;
#CHARTSTYLE:;
#DIFFICULTY:Beginner;
#METER:2;
#RADARVALUES:0.123288,0.181234,0.035959,0.129453,0.000000,120.000000,115.000000,5.000000,18.000000,0.000000,0.000000,0.000000,0.000000,0.000000,0.123288,0.181234,0.035959,0.129453,0.000000,120.000000,115.000000,5.000000,18.000000,0.000000,0.000000,0.000000,0.000000,0.000000;
#CREDIT:;
#NOTES:
0000
0000
0000
0000
,
0000
0000
0000
0000
,
0000
0000
0000
0000
,
0000
0000
0000
0000
,
0000
0000
0000
0000
,
1001
0000
0000
0000
,
1000
0000
0000
0000
,
0001
0000
0001
0000
,
1000
0000
1000
0000
,
0020
0000
0000
0030
,
0200
0000
0000
0300
,
0001
0000
0001
0000
,
1000
0000
1000
0000
,
1001
0000
0000
0000
,
0010
0010
0010
0000
,
0100
0000
0000
0000
,
1000
0000
1000
0000
,
0001
0000
0000
0000
,
0100
0100
0100
0000
,
0010
0000
0000
0000
,
0001
0000
0001
0000
,
1000
0000
0100
0000
,
1000
0000
0100
0000
,
0010
0000
0000
0000
,
0010
0000
0000
0000
,
0001
0000
0100
0000
,
0001
0000
0100
0000
,
0010
0000
0000
0000
,
0010
0000
0000
0000
,
0110
0000
0000
0100
,
0100
0000
0000
0001
,
0001
0000
1000
0000
,
0001
0000
0001
0000
,
1000
0000
0000
0010
,
0010
0000
0000
0100
,
0100
0000
0010
0000
,
0100
0000
0100
0000
,
0110
0000
0000
0000
,
0000
0000
0000
0000
,
1000
0000
1000
0000
,
0020
0000
0030
0000
,
0100
0000
0100
0000
,
0002
0000
0003
0000
,
2000
0000
0000
0000
0000
3000
0000
0000
,
0002
0000
0000
0000
0000
0003
0000
0000
,
0010
0000
0001
0000
,
0010
0000
0000
0100
,
0200
0000
0300
0000
,
2000
0000
3000
0001
,
0002
0000
0003
0000
,
0200
0000
0300
0010
,
0020
0000
0030
0000
,
2000
0000
3000
0100
,
0200
0000
0300
0000
,
1000
0000
0001
0000
,
2000
0000
0000
3000
,
0001
0001
0001
0000
,
0200
0000
0300
0000
,
0010
0000
1000
0000
,
0010
0000
0010
0000
,
1000
1000
1000
0000
,
0200
0000
0300
0000
,
0010
0000
0001
0000
,
0010
0000
0010
0000
,
0110
0000
0100
0000
,
1000
1000
1000
0000
,
0001
0000
0001
0000
,
0200
0300
0100
0000
,
0010
0000
0010
0000
,
1000
1000
1000
0000
,
0001
0000
0001
0000
,
2000
3000
1000
0000
,
0001
0000
0000
0000
;

//---------------dance-single - vincentw----------------
#NOTEDATA:;
#CHARTNAME:;
#STEPSTYPE:dance-single;
#DESCRIPTION:vincentw;
#CHARTSTYLE:;
#DIFFICULTY:Easy;
#METER:4;
#RADARVALUES:0.199316,0.258905,0.151028,0.186987,0.000000,194.000000,173.000000,21.000000,26.000000,0.000000,0.000000,0.000000,0.000000,0.000000,0.199316,0.258905,0.151028,0.186987,0.000000,194.000000,173.000000,21.000000,26.000000,0.000000,0.000000,0.000000,0.000000,0.000000;
#CREDIT:;
#ATTACKS:TIME=0.000:LEN=1.900:MODS=200% Confusion:TIME=1.900:LEN=7.620:MODS=*0.251 0% Confusion;
#NOTES:
0000
0000
0000
0000
,
0000
0000
0000
0000
,
0000
0000
0000
0000
,
0000
0000
0000
0000
,
0000
0000
0000
0000
,
1001
0000
1000
0000
,
0002
0000
0003
0000
,
1000
1000
0010
0000
,
0010
0010
1000
0000
,
0200
0000
0320
0000
,
0032
0000
0003
0000
,
0001
0001
0010
0000
,
0100
0100
1000
0000
,
1100
0000
0001
0000
,
1000
0001
0100
0000
,
0101
0000
1000
0000
,
0002
0003
0020
0030
,
0011
0000
1000
0000
,
0001
1000
0010
0000
,
1010
0000
0001
0000
,
2000
3000
0002
0003
,
1001
1000
1000
0000
,
0010
0010
0010
0000
,
0200
0000
0301
0000
,
0002
1000
1003
0000
,
0001
0001
0001
0000
,
0010
0010
0010
0000
,
0200
0000
1300
0000
,
2000
0001
3001
0000
,
1001
0000
1000
0010
,
0100
0000
0100
0010
,
1000
0000
0001
0000
,
1000
0001
1000
0000
,
0001
0000
0001
0010
,
0100
0000
0100
0010
,
0001
0000
1000
0000
,
0001
1000
0100
0000
,
2200
0000
0000
0000
,
3300
0000
0000
0000
,
0001
0010
0100
1000
,
0002
0000
0003
0000
,
1000
0010
0100
0001
,
2000
0000
3000
0000
,
0001
0100
0010
0000
,
1000
0100
0010
0000
,
0001
0100
1000
0100
,
0002
0000
0003
0000
,
1002
0000
0010
0000
,
1000
0010
1003
0000
,
2001
0000
0010
0000
,
0001
0010
3001
0000
,
0102
0000
1000
0000
,
0100
1000
0103
0000
,
2100
0000
0001
0000
,
0100
0001
3010
1000
,
0200
0000
0000
0300
,
1010
0010
1000
1000
,
0002
0000
0003
1000
,
0100
0010
0001
1000
,
0010
0100
0001
1000
,
1000
0001
0001
0100
,
0200
0000
0300
0001
,
0100
0010
1000
0001
,
0010
0100
1000
0100
,
1100
0000
0011
0000
,
1000
0001
1000
0000
,
1010
0000
0101
0000
,
2000
3000
0002
0003
,
0110
0000
1001
0000
,
1000
0100
1000
0000
,
1100
0000
1001
0000
,
0001
0100
1000
0010
,
0001
0000
0000
0000
;

//---------------dance-single - vincentw----------------
#NOTEDATA:;
#CHARTNAME:;
#STEPSTYPE:dance-single;
#DESCRIPTION:vincentw;
#CHARTSTYLE:;
#DIFFICULTY:Medium;
#METER:7;
#RADARVALUES:0.317467,0.362467,0.194179,0.107877,0.125857,309.000000,282.000000,27.000000,15.000000,0.000000,0.000000,0.000000,0.000000,0.000000,0.317467,0.362467,0.194179,0.107877,0.125857,309.000000,282.000000,27.000000,15.000000,0.000000,0.000000,0.000000,0.000000,0.000000;
#CREDIT:;
#ATTACKS:TIME=0.000:LEN=1.900:MODS=200% Confusion:TIME=1.900:LEN=7.620:MODS=*0.251 0% Confusion;
#NOTES:
0000
0000
0000
0000
,
0000
0000
0000
0000
,
0000
0000
0000
0000
,
0000
0000
0000
0000
,
0000
0000
0000
0000
,
0012
0010
1000
1000
,
0100
0100
0103
0001
,
1000
0010
1000
0001
,
0010
0100
0010
0001
,
2000
0010
0010
0001
,
0001
0100
3100
1000
,
0100
0010
0001
1000
,
0010
0100
0001
1000
,
1010
0000
0101
0000
,
1002
0100
1003
0100
,
0011
0000
1100
0000
,
0001
0000
0001
0000
0000
0000
1000
0000
1000
0000
0000
0000
,
0110
0100
1010
0010
,
2001
0100
3001
0100
,
1010
0010
1001
1000
,
0001
0000
0001
0000
0000
0000
0010
0000
0010
0000
0000
0000
,
0001
0000
0000
0010
0000
0000
0100
0010
0000
0001
0000
0000
,
1000
0000
0000
0010
0000
0000
0100
0010
0000
1000
0000
0000
,
0001
0000
0000
0100
0000
0000
0001
0000
0001
1000
0000
0000
,
0010
1010
0101
0000
,
1000
0000
0000
0010
0000
0000
0100
0010
0000
1000
0000
0000
,
0001
0000
0000
0010
0000
0000
0100
0010
0000
0001
0000
0000
,
1000
0000
0000
0100
0000
0000
1000
0000
1000
0001
0000
0000
,
0010
0011
1100
0000
,
1001
0000
0000
0001
0000
0000
0100
0000
0100
0001
0000
0002
,
0000
0000
0000
1003
0000
0000
0100
0000
0100
1000
0000
0000
,
0010
1010
0100
0101
,
0001
0010
1000
0100
,
0001
0000
0000
1000
0000
0000
0010
0000
0010
0100
0000
0200
,
0000
0000
0000
0301
0000
0000
1000
0000
1000
0100
0000
0000
,
1000
0110
0001
0110
,
1000
0100
0001
0010
,
2000
0000
0000
0000
,
3000
0000
0000
0000
,
0101
0000
0000
0100
0000
0001
0000
0000
,
1000
0000
0000
0100
0000
1000
0000
0100
,
0100
0000
0000
0010
0000
0100
0000
0000
,
1000
0000
0000
0001
0000
1000
0001
0000
,
1010
0000
0000
0010
0000
0100
0010
0000
,
1000
0000
0000
0001
0000
1000
0001
0000
,
0010
0000
0000
0100
0000
0010
0100
0000
,
0001
0100
1000
0010
,
0001
0000
0000
0010
0001
0000
0010
0000
,
0100
0010
0000
1000
0001
0000
0010
0000
,
1000
0000
0000
0010
1000
0000
0010
0000
,
0100
0010
0001
0010
0200
0000
0000
0000
,
0301
0000
0000
0100
0001
0000
0100
0000
,
0010
0100
0000
1000
0001
0000
0100
0000
,
1000
0000
0000
0100
1000
0000
0100
0000
,
0002
0023
2030
3200
,
0302
0000
0000
0003
,
1000
0000
1000
0010
0000
0010
0100
0000
0000
0001
0000
0000
,
0010
0000
0000
0101
0000
0000
1010
0000
0000
0001
0000
0001
,
1000
0000
0000
1000
0000
1000
0100
0000
0000
0100
0000
0100
,
0010
0000
0000
0010
0000
0010
0001
0000
0000
1000
0000
0000
,
0010
0000
0010
0100
0000
0100
0001
0000
0000
1000
0000
0000
,
0100
0000
0000
0011
0000
0000
1100
0000
0000
0001
0000
0001
,
0100
0000
0000
0010
0000
0010
1000
0000
0000
1000
0000
1000
,
0100
0000
0000
0010
0000
0010
0001
0000
0000
0001
0000
0000
,
1001
0000
0000
1000
0000
0001
0100
0000
0000
0002
0000
0000
,
1000
0000
0000
0100
0000
0000
1003
0000
0000
0001
0000
1000
,
0001
0000
0000
0010
0000
0001
0010
0000
0000
0100
0000
0000
,
0010
0000
0010
0000
0000
0001
0001
0000
0000
0100
0000
0000
,
0010
0000
0000
0100
0000
0001
1000
0000
0000
0020
0000
0000
,
1000
0100
1030
0100
,
0010
0000
0000
0001
0000
0010
0100
0000
0000
1000
0000
0000
,
0100
0001
0010
1000
,
0001
0000
0000
0000
;

//---------------dance-single - vincentw----------------
#NOTEDATA:;
#CHARTNAME:;
#STEPSTYPE:dance-single;
#DESCRIPTION:vincentw;
#CHARTSTYLE:;
#DIFFICULTY:Hard;
#METER:10;
#RADARVALUES:0.414043,0.415207,0.316440,0.194179,0.262501,403.000000,359.000000,44.000000,27.000000,5.000000,4.000000,0.000000,0.000000,0.000000,0.414043,0.415207,0.316440,0.194179,0.262501,403.000000,359.000000,44.000000,27.000000,5.000000,4.000000,0.000000,0.000000,0.000000;
#CREDIT:;
#NOTES:
// measure 0
0000
0000
0000
0000
,  // measure 1
0000
0000
0000
0000
,  // measure 2
0000
0000
0000
0000
,  // measure 3
0000
0000
0000
0000
,  // measure 4
0000
0000
0000
0000
,  // measure 5
2010
0010
0001
0001
,  // measure 6
0100
0000
0000
0001
0000
0000
3010
0000
0000
1000
0000
1000
,  // measure 7
0010
0000
0010
1000
0000
0001
0001
0000
0000
1000
0000
0010
,  // measure 8
2000
0000
0000
0001
0000
3001
0200
0000
0000
0310
0000
1000
,  // measure 9
0002
0010
1000
1000
,  // measure 10
0100
0000
0000
1000
0000
0000
0013
0000
0000
0001
0000
0001
,  // measure 11
0100
0000
0100
0001
0000
2000
0200
0000
3000
M000
0000
0300
,  // measure 12
1000
0000
1000
0100
0000
0010
0001
0000
0000
1000
0000
0000
,  // measure 13
0101
0000
0000
0001
0000
1000
0010
0000
0000
0100
0000
0000
,  // measure 14
1001
0000
0000
0110
0000
0000
1001
0000
0000
0001
0000
0100
,  // measure 15
0010
0000
0000
1000
0000
0100
0010
0000
0000
2200
0000
0000
,  // measure 16
0011
0000
0000
0000
0000
0000
3311
0000
0000
1000
0000
1000
,  // measure 17
0010
0000
0000
0100
0000
0100
0010
0000
0000
1000
0000
0000
,  // measure 18
0101
0000
0000
1100
0000
0000
0101
0000
0000
0001
0000
1000
,  // measure 19
0010
0000
0000
1000
0000
0001
0010
0000
0000
0011
0000
0000
,  // measure 20
0001
0000
0001
0100
0000
0100
2000
0000
0000
3020
0000
0000
,  // measure 21
0031
0000
0001
0010
0000
0100
0000
1000
0000
1100
0000
0000
,  // measure 22
1000
0000
1000
0010
0000
0100
0000
0001
0000
0101
0000
0000
,  // measure 23
1000
0000
0000
1001
0000
0001
0010
0000
0100
1000
0000
0000
,  // measure 24
0001
0110
1001
1000
,  // measure 25
0001
0000
0001
0100
0000
0010
0000
1000
0000
1010
0000
0000
,  // measure 26
1000
0000
1000
0100
0000
0010
0000
0001
0000
0011
0000
0000
,  // measure 27
1000
0000
0000
0110
0000
0001
1000
0000
0010
0100
0000
0000
,  // measure 28
0001
1010
0011
0001
,  // measure 29
1200
0000
0000
1000
0000
0000
0010
0000
0310
0100
0000
0200
,  // measure 30
0001
0000
0000
0001
0000
0000
0010
0000
0310
0100
0000
0000
,  // measure 31
0010
0000
0000
0101
0000
0000
0010
0000
0000
1100
0000
1000
,  // measure 32
0100
0000
1000
0001
0000
0100
0001
0000
0000
1000
0000
0000
,  // measure 33
0021
0000
0000
0001
0000
0000
0100
0000
0130
0010
0000
0020
,  // measure 34
1000
0000
0000
1000
0000
0000
0100
0000
0130
0010
0000
0000
,  // measure 35
0100
0000
0000
1010
0000
0000
0100
0000
0000
0011
0000
0001
,  // measure 36
0010
0000
0001
1000
0000
0010
1000
0000
0000
0110
0000
0000
,  // measure 37
2000
0000
0000
0001
0000
0001
0000
0000
,  // measure 38
3000
0000
0000
0001
0000
0001
0000
0000
,  // measure 39
1000
0100
0010
0001
0010
0100
1000
0000
,  // measure 40
0001
0001
0000
1000
0000
0010
0100
0000
,  // measure 41
0001
0100
0010
1000
0010
0100
0001
0000
,  // measure 42
1000
0100
0010
0001
0000
0001
0000
1000
,  // measure 43
0010
0001
0100
0001
0010
1000
0000
0001
,  // measure 44
0010
1000
0100
1000
0010
0001
0000
1000
,  // measure 45
0100
0010
0100
1000
0000
0001
0100
0010
,  // measure 46
0100
0001
0000
0010
0000
0001
1000
0000
,  // measure 47
1001
0000
0001
0100
0010
0000
1000
0000
,  // measure 48
0100
0001
0000
0100
1000
0000
0001
0100
,  // measure 49
0010
0000
1000
0100
0010
0000
0001
0000
,  // measure 50
1000
0010
0001
0100
2000
0000
3010
0000
,  // measure 51
1010
0000
1000
0001
0100
0001
1000
0000
,  // measure 52
0001
0010
0000
1000
0010
0000
0001
1000
,  // measure 53
0100
0000
0100
0010
0001
1000
0020
0000
,  // measure 54
0032
0203
2300
3020
,  // measure 55
0200
0000
0000
0330
,  // measure 56
1020
1000
0100
0100
,  // measure 57
0001
0000
0000
0100
0000
0000
1030
0000
0000
0001
0000
1000
,  // measure 58
0010
0000
1000
0001
0000
1000
0100
0000
0000
1000
0000
0001
,  // measure 59
0010
0000
0001
1000
0000
0001
0100
0000
0000
0001
0000
0000
,  // measure 60
0021
0001
0100
0100
,  // measure 61
1000
0000
0000
0100
0000
0000
0031
0000
0000
1000
0000
0010
,  // measure 62
0100
0000
0010
1000
0000
0001
0010
0000
0000
0001
0000
0010
,  // measure 63
0100
0010
0100
1000
0000
1000
0001
0000
0000
1000
0000
0000
,  // measure 64
1001
0000
0000
1000
0000
0010
0200
0000
0000
0301
0000
0000
,  // measure 65
1001
0000
0000
MMMM
0000
0000
1001
0000
0000
0001
0000
1000
,  // measure 66
0010
0000
0000
0010
0000
1000
0001
0000
0000
0202
0000
0000
,  // measure 67
1010
0000
0000
0000
0000
0000
1313
0000
0000
0001
0000
0100
,  // measure 68
0010
0000
0000
1000
0000
0001
0010
0000
0000
0011
0000
0000
,  // measure 69
0101
0000
0000
1100
0000
0000
1010
0000
0000
0010
0000
1000
,  // measure 70
0100
0000
0000
1000
0000
0001
0100
0000
0000
0101
0000
0000
,  // measure 71
0001
0000
0010
0100
0000
0001
1000
0000
0100
0010
0000
1000
,  // measure 72
0001
0000
0001
0000
0000
0000
0000
0000
0000
0000
0000
0000
;
