#TITLE:Energizer;
#SUBTITLE:;
#ARTIST:iF;
#TITLETRANSLIT:;
#SUBTITLETRANSLIT:;
#ARTISTTRANSLIT:;
#GENRE:;
#CREDIT:from D3NEX MAXIMUM, I only own the steps;
#MUSIC:energizer.mp3;
#BANNER:energizer_banner.png;
#BACKGROUND:energizer_bg.png;
#CDTITLE:;
#SAMPLESTART:0.000;
#SAMPLELENGTH:0.000;
#SELECTABLE:YES;
#OFFSET:-0.064;
#BPMS:0.000=148.000;
#STOPS:;
#BGCHANGES:;
#FGCHANGES:;

//--------------- dance-single - about-blank ----------------
#NOTES:
     dance-single:
     about-blank:
     Beginner:
     5:
     0,0,0,0,0:
0000
0000
0000
0000
,
0000
0000
0000
0000
,
0000
0000
0000
0000
,
0000
0000
0000
0000
,
0000
0000
0000
0000
,
0000
0000
0000
0000
,
0000
0000
0000
0000
,
0000
0000
0000
0000
,
0000
0000
0000
0000
,
0001
0000
0000
0000
,
0100
0000
0000
0000
,
1000
0000
0000
0000
,
0010
0000
0000
0000
,
0001
1000
0000
1000
,
0001
1000
0000
0010
,
0100
0001
1000
0001
,
1001
0000
0000
0000
,
1000
0010
0100
0001
,
1000
0010
0100
0001
,
1000
0010
0100
0001
,
0100
0010
1000
0000
,
0001
0010
0100
1000
,
0001
0010
0100
1000
,
0001
0010
0100
1000
,
0100
0010
0001
0000
,
1000
0001
0100
0010
,
1000
0001
0100
0010
,
1000
0001
0100
0010
,
1000
0001
1000
0000
,
0001
1000
0010
0100
,
0001
1000
0010
0100
,
0001
1000
0010
0100
,
0001
0100
0010
0000
,
1000
0010
0000
1001
,
0001
0010
0000
1001
,
1000
0100
0000
1001
,
0110
0110
1001
1001
,
0001
0010
0100
1000
,
0001
0100
0010
1000
,
1000
0010
0100
0001
,
1000
0100
0010
0001
,
0001
1000
0010
0100
,
0001
1000
0010
0100
,
0001
1000
0100
0010
,
0001
1000
0001
1000
,
0010
0100
0010
0100
,
0001
0010
0001
0010
,
0100
1000
0100
1000
,
0001
1000
0001
1000
,
0100
0010
0001
1000
,
0010
0100
0001
1000
,
0001
0100
1000
0100
,
0010
0000
0000
0000
,
0100
1000
0010
0100
,
0001
0010
0100
1000
,
0100
1000
0010
0100
,
0001
0010
0100
1000
,
0100
1000
0010
0100
,
0001
0010
0100
1000
,
1000
0100
0010
0001
,
0100
0010
1000
0001
,
1001
0000
0000
0000
;

//--------------- dance-single - about-blank ----------------
#NOTES:
     dance-single:
     about-blank:
     Easy:
     9:
     0,0,0,0,0:
0000
0000
0000
0000
,
0000
0000
0000
0000
,
0000
0000
0000
0000
,
0000
0000
0000
0000
,
0000
0000
0000
0000
,
0000
0000
0000
0000
,
0000
0000
0000
0000
,
0000
0000
0000
0000
,
0000
0000
0000
0000
,
0001
1000
0010
0000
,
1000
0001
0010
0000
,
0100
1000
0010
0000
,
0100
0001
0010
0010
,
0100
1000
0001
0000
,
0100
0001
1000
0000
,
0010
1000
0100
0010
,
1001
0000
0000
0000
,
0001
1000
0010
0010
,
0100
0001
1000
1000
,
0010
0000
0100
0000
0001
0010
0001
0000
,
1000
0000
0010
0000
1000
0100
1000
0000
,
0001
0000
0100
0000
0010
1000
0010
0000
,
1000
0000
0100
0000
0010
0001
0010
0000
,
0001
0000
1000
0000
0010
0100
0001
1000
,
0100
0000
0010
0100
0000
0010
0100
0000
,
0010
0000
0001
0000
1000
0010
1000
0000
,
0010
0000
1000
0000
0001
0010
0001
0000
,
0010
0000
0001
0000
1000
0010
1000
0000
,
0010
0000
1000
0000
0001
0010
0001
0000
,
0100
0000
0001
0000
1000
0100
0010
0000
,
0100
0000
1000
0000
0001
0100
0010
0000
,
1000
0100
0010
0000
0001
0100
0010
0000
,
1000
0001
1000
0001
1000
0001
1000
0000
,
0010
0000
0010
0000
0100
0001
0100
0000
,
0010
0000
0010
0000
0100
0001
0100
0000
,
0001
0000
0001
0000
1000
0100
1000
0000
,
0010
0100
0001
1000
0100
0010
0001
0000
,
1000
0100
1000
0000
0001
0010
0001
0000
,
1000
0100
1000
0000
0001
0010
0001
0000
,
1000
0010
1000
0001
0000
0100
0001
0000
,
1000
0010
1000
0000
0001
0100
0010
1000
,
0001
0010
0001
0000
1000
0100
1000
0000
,
0010
1000
0010
0000
0100
0001
0100
0000
,
0001
0010
0001
0000
1000
0100
1000
0000
,
0010
1000
0010
1000
0001
0100
0001
0100
,
0010
0000
1000
0100
0010
0001
1000
0000
,
0010
0000
0100
0001
0100
0010
1000
0000
,
0001
0010
0100
1000
0010
0100
0001
0000
,
1000
0100
0010
0001
0100
0010
1000
0000
,
0001
1000
0001
0000
1000
0001
1000
0000
,
0010
0100
0010
0000
0100
0010
0100
0000
,
0001
0100
1000
0100
0001
0000
1000
0100
,
0001
0100
1000
0010
0100
0001
1000
0000
,
1001
0110
0001
1000
,
0110
1001
0001
1000
,
1001
0110
0001
1000
,
0110
1001
1000
0001
,
0110
1001
1000
0001
,
0011
1100
1000
0001
,
1010
0101
0001
1000
,
0010
0000
0100
0000
0010
0100
0010
0100
,
0001
0000
0000
0000
;

//--------------- dance-single - about-blank ----------------
#NOTES:
     dance-single:
     about-blank:
     Medium:
     11:
     0,0,0,0,0:
0000
0000
0000
0000
,
0000
0000
0000
0000
,
0000
0000
0000
0000
,
0000
0000
0000
0000
,
0000
0000
0000
0000
,
0000
0000
0000
0000
,
0000
0000
0000
0000
,
0000
0000
0000
0000
,
0000
0000
0000
0000
,
1000
0000
0010
0000
1000
0100
0010
0000
,
0001
0000
1000
0001
0000
0100
0001
0000
,
0010
0000
0001
0000
0100
0010
1000
0000
,
0010
0000
1000
0100
0000
1000
0010
1000
,
0001
0100
0001
0100
0010
1000
0010
1000
,
0001
0010
0001
0010
0100
1000
0100
1000
,
0001
1000
0001
1000
0001
1000
0001
1000
,
1001
0000
0000
0000
,
0001
0000
0010
0000
0100
1000
0001
0000
,
1000
0000
0010
0000
0100
0001
1000
0000
,
0001
0000
0010
0000
0100
1000
0001
0000
,
0100
0010
0100
0010
1000
0100
0010
0001
,
1000
0000
0010
1000
0100
0010
0001
0000
,
0001
0000
0010
0001
0100
0010
1000
0000
,
1000
0000
0010
1000
0100
0010
0001
0000
,
0100
0001
0100
0010
1000
0010
0100
0001
,
1000
0100
1000
0000
0010
0010
0100
0000
,
0001
0010
0001
0000
0100
0100
0010
1000
,
0001
0100
0001
0000
0100
0100
0010
0000
,
1000
0100
1000
0000
0010
0010
0100
0001
,
1000
0001
0100
0000
0010
0010
0100
0001
,
1000
0010
1000
0000
0001
0001
0100
0010
,
1000
0000
0100
1000
0001
0000
0100
0001
,
1000
0010
0100
0001
1000
0100
0010
0001
,
1000
0000
0010
1000
0100
1000
0001
0000
,
0001
0000
0010
0001
0100
0001
1000
0000
,
0010
0000
0100
0001
1000
0100
0010
0001
,
1000
0000
0010
0000
0100
0000
0001
0000
1000
0000
0001
0000
1000
0001
1000
0000
,
0010
0000
0000
0010
1000
0000
0000
1000
0001
0000
0000
0001
0100
0000
0000
0100
,
0010
0000
0000
1001
0000
0000
1100
0000
,
0010
0000
0000
0010
0001
0000
0000
0001
1000
0000
0000
1000
0100
0000
0000
0100
,
1000
0000
0000
0000
0000
0000
1010
0000
0000
0000
0100
0000
0000
0001
0000
0000
,
1000
0000
0000
1000
0100
0000
0000
0100
0010
0000
0000
0010
0001
0000
0000
0001
,
0100
0000
0000
0110
0000
0000
1001
0000
,
0001
0000
0000
0001
0100
0000
0000
0100
0010
0000
0000
0010
1000
0000
0000
0000
,
0000
0000
0001
0000
0000
1000
0000
0100
0000
1000
0000
0000
0010
0000
0100
0000
,
0001
0000
0000
0001
1000
0000
0000
1000
0010
0000
0000
0010
0100
0000
0000
0001
,
1000
0000
0000
1100
0000
0000
0011
0000
,
0001
0000
0000
0001
1000
0000
0000
1000
0010
0000
0000
0010
0100
0000
0000
0001
,
0010
0000
0000
0101
0000
0001
0010
0100
,
1000
0000
0000
1000
0010
0000
0000
0010
0100
0000
0000
0100
0001
0000
0000
0001
,
1000
0000
0000
1000
0100
0000
0000
0100
0010
0000
0000
0010
0001
0000
0000
0001
,
1000
0000
0000
1000
0010
0000
0000
0010
0100
0000
0000
0100
0001
0000
2000
0000
,
0002
0000
0000
3003
,
1100
0000
0101
0000
0001
1000
0001
0000
,
1100
0000
0101
0000
1000
0001
1000
0000
,
0101
0000
1100
0000
0001
1000
0001
0000
,
1100
0000
0101
0000
1000
0001
1000
0000
,
0110
0000
1001
0000
0010
1000
0100
0000
,
0110
0000
1001
0000
0010
0001
0100
0000
,
0010
1000
0001
0000
1000
0100
0010
0000
,
0001
0000
0100
0000
0010
0000
1000
0000
0001
0000
1000
0000
0100
0010
0100
0000
,
2000
0000
0000
0000
,
3000
0000
0000
0000
;

//--------------- dance-single - about-blank ----------------
#NOTES:
     dance-single:
     about-blank:
     Hard:
     12:
     0,0,0,0,0:
0000
0000
0000
0000
,
0000
0000
0000
0000
,
0000
0000
0000
0000
,
0000
0000
0000
0000
,
0000
0000
0000
0000
,
1001
0000
0000
0000
,
1000
0000
0000
0010
0000
0000
0100
0000
,
0001
0000
0000
0000
0000
0000
0000
0000
0000
0000
0000
0000
0000
0000
0001
0010
,
0001
1000
0000
0010
0000
0100
0000
0001
,
1000
0000
1100
0000
0100
1000
0001
0000
,
0101
0000
0100
0010
0000
1000
0001
0000
,
0010
0000
0011
0000
0010
0100
1000
0000
,
1010
0000
0010
1000
0000
0001
0100
0010
,
1001
0000
0001
0000
1000
0100
0010
0000
,
1001
0000
0001
0100
0000
0010
1000
0000
,
1100
0000
0100
0010
0001
0100
0010
1000
,
2002
0000
0000
3003
,
0001
0010
0001
0100
0010
1000
0100
0000
,
1000
0100
1000
0010
0100
0001
0010
0000
,
0001
0010
0001
0100
0010
1000
0100
0000
,
0100
1000
0010
0100
0001
0010
0001
0000
,
0100
0001
0100
0010
1000
0100
0010
0000
,
0100
1000
0100
0010
0001
0100
0010
0000
,
0100
0010
1000
0001
1000
0100
0010
0000
,
1100
0000
0000
0101
0000
0000
1001
0000
,
1000
0100
0010
0001
1000
0100
0010
0001
,
1000
0010
0100
0001
1000
0010
0100
0001
,
1000
0010
1000
0001
1000
0010
1000
0001
,
1000
0100
0001
0100
1000
0010
0100
0000
,
0001
0010
1000
0010
0001
0010
1000
0010
,
0001
0100
0010
1000
0001
0100
0010
1000
,
0001
0010
1000
0010
0100
1000
0010
0100
,
1001
0110
1001
0110
,
1000
0000
0000
0000
1100
0000
0000
0000
1000
0100
1000
0000
0001
0000
0000
0000
,
0010
0000
0000
0000
0011
0000
0000
0000
0010
0001
0010
0000
0100
0000
0000
0000
,
2000
0000
0002
3003
,
1000
0000
0001
0000
0100
0010
0100
0010
1000
0000
0100
0000
0010
0000
0001
0000
,
1000
0000
0000
0000
1010
0000
0000
0000
0010
1000
0001
0000
1000
0000
0000
0000
,
0100
0000
0000
0000
1100
0000
0000
0000
0100
0010
0001
0000
0010
0000
0000
0000
,
0001
0000
0000
0000
0011
0000
0000
0000
0001
0100
0010
0000
0100
0000
0000
0000
,
0001
0000
0000
0000
0101
0000
0000
0000
0100
0001
1000
0000
0010
0000
1000
0000
,
0100
0000
0000
0000
1100
0000
0000
0000
1000
0001
0100
0000
0010
0000
0000
0000
,
1000
0000
0000
0000
1010
0000
0000
0000
1000
0100
0010
0000
0100
0000
0000
0000
,
0010
0000
0000
0000
0110
0000
0000
0000
0100
0010
0001
0000
0100
0000
0002
0000
,
0000
0000
1003
0000
0000
0001
0000
1000
0000
1001
0000
0000
0100
0000
0010
0000
,
1000
0100
1000
0000
0100
1000
0100
0000
0010
0000
0001
0000
1000
0000
0000
0000
,
0001
0100
0001
0000
0100
0001
0100
0000
0010
0000
1000
0000
0001
0000
0000
0000
,
0100
0010
0100
0000
0010
0100
0010
0000
1000
0000
0100
0000
0010
0000
0000
0000
,
0001
1000
0001
0000
1000
0001
1000
0000
0001
0000
0010
0000
0100
0000
1000
0000
,
0010
1000
0010
0000
1000
0010
1000
0000
0010
0000
0100
0000
0001
0000
0000
0000
,
0010
0001
0010
0000
0001
0010
0001
0000
0010
0000
0100
0000
1000
0000
0000
0000
,
0010
1000
0010
0000
1000
0010
1000
0000
0001
0100
0001
0000
0100
0001
0100
0000
,
0002
0000
0000
0000
2000
3003
1001
0000
,
1000
0000
0000
0010
0000
0000
0100
0000
0001
0000
1000
0000
0100
0000
0000
0000
,
0010
0000
0000
0001
0000
0000
0010
0000
0100
0000
1000
0000
0001
0000
0000
0000
,
1000
0000
0000
0010
0000
0000
1000
0000
0001
0000
0100
0000
0001
0000
0000
0000
,
0001
0000
0000
0010
0000
0000
0001
0000
1000
0000
0100
0000
1000
0000
0010
0000
,
0110
0000
0000
0100
0000
0000
0010
0000
1000
0000
0001
0000
1000
0000
0000
0000
,
0011
0000
0000
0010
0000
0000
0001
0000
0100
0000
0010
0000
1000
0000
0000
0000
,
0010
1000
0001
1000
0100
0010
0001
1000
,
0001
1000
0001
0000
1000
0001
1000
0000
0001
1000
0001
0000
1000
0001
2000
0000
,
0002
0000
0000
0000
,
3003
0000
0000
0000
;

//--------------- dance-single - about-blank ----------------
#NOTES:
     dance-single:
     about-blank:
     Challenge:
     16:
     0,0,0,0,0:
0000
0000
0000
0000
,
0000
0000
0000
0000
,
0000
0000
0000
0000
,
0000
0000
0000
0000
,
0000
0000
0000
0000
,
1001
0000
0000
0000
,
0100
0000
0000
0010
0000
0000
1000
0000
,
0001
0000
0000
0000
0000
0000
0000
0000
0000
0000
0000
0000
0000
0000
0010
0001
,
1000
0000
0001
0000
0100
0000
0010
0000
0000
0000
1000
0000
0000
0000
0001
1000
,
0001
0000
0100
0000
0010
1000
0000
1000
0001
0000
1000
0000
0100
0010
0100
0010
,
0001
0000
1000
0000
0001
0010
0000
0010
0100
0000
1000
0000
0001
0100
0001
0100
,
0010
0000
1000
0000
0010
0100
0000
0100
0001
0000
1000
0000
0001
0010
0001
0010
,
0100
0000
1000
0000
0001
1000
0000
0100
0010
0000
0001
0000
0100
0010
1000
0010
,
0100
0000
0001
0000
1000
0100
0000
0001
0100
0000
1000
0000
0010
0100
0010
0100
,
0001
0000
1000
0000
0001
0100
0000
1000
0100
0000
0001
0000
0010
0100
0010
0100
,
1000
0010
1000
0000
0001
0010
0001
0000
1000
0010
0100
0000
0001
0010
0100
0000
,
1000
0010
0100
0001
0100
0010
1000
0001
0100
0000
0010
0000
1000
0000
0001
0000
,
1001
1000
0010
0100
0001
0100
0010
1000
,
0000
0001
0010
0100
1000
0010
0100
0001
,
0000
0010
0100
1000
0010
0100
0001
1000
,
0000
0001
0100
0010
1000
0100
0010
0001
,
0011
0001
0010
0001
0100
0010
1000
0100
,
1100
0100
1000
0010
0100
0001
0010
0100
,
0110
0010
0001
1000
0001
0100
0010
1000
,
1010
0010
0100
0101
0001
0100
0010
1000
,
1001
0000
0000
0001
0100
0000
0010
0000
1000
0000
0010
0000
0200
0000
0300
0000
,
0110
0000
0000
0010
1000
0000
0100
0000
0010
0000
0001
0000
2000
0000
3000
0000
,
0011
0000
0000
0010
0100
0000
1000
0000
0010
0000
0100
0000
0002
0000
0003
0000
,
1100
0000
0000
0100
1000
0000
0001
0000
0100
0000
0010
0000
1000
0000
0100
0000
,
0011
0000
0010
0001
0010
0000
0100
0000
1000
0000
0010
0000
0200
0000
0300
0000
,
0101
0000
0001
0100
0001
0000
0100
0000
0010
0000
1000
0000
0001
0000
0100
0000
,
0110
0000
0010
1000
0010
0000
1000
0000
1001
0000
0001
1000
0001
0000
0100
0000
,
0101
0010
1000
1100
0010
0001
0100
0010
,
2000
0000
0100
0000
0000
0001
3100
0000
,
0002
0000
0100
0000
0000
1000
0103
0000
,
2000
0000
0010
0000
0000
0001
3010
0000
,
0001
0000
0000
0100
0000
0000
0010
0000
0000
1000
0000
0000
0001
0000
1000
0000
0001
0000
1000
0000
0000
0100
0000
0000
0010
0000
0000
0001
0000
0000
1000
0000
0000
0010
0000
0000
1000
0000
0000
0000
0000
0000
0001
0000
0000
0000
0000
0000
,
1000
0010
1000
0010
1000
0001
1000
0001
0010
0001
0010
0001
1000
0001
1000
0010
,
1000
0010
1000
0010
1000
0001
1000
0001
0100
0001
1000
0001
0100
0001
0010
0001
,
0010
0100
1000
0100
1000
0001
1000
0001
0100
0001
0100
0001
0100
0010
0100
0010
,
0100
0001
0100
0001
1000
0001
1000
0001
0100
0001
1000
0001
0100
0001
0100
0001
,
1000
0100
1000
0100
0010
0001
0010
0001
1000
0010
1000
0010
0100
0001
0100
0001
,
0010
0100
1000
0001
0010
0100
1000
0001
0100
0010
1000
0001
0100
0010
1000
0001
,
0010
0100
1000
0001
0100
0010
1000
0001
0010
0100
1000
0010
0100
0001
0010
0100
,
1000
0100
0010
0001
0100
0010
1000
0100
0010
0001
0100
0010
1000
0100
0010
0001
,
2000
0000
0000
0000
3001
0010
0001
0010
0001
1000
0001
1000
0010
0100
0010
0100
,
0002
0000
0103
0110
1000
0001
1100
0000
,
0020
0000
0000
0000
0031
1000
0001
1000
0100
1000
0001
0100
0001
1000
0100
0010
,
0002
0000
0103
0010
1000
0001
1000
0100
,
2000
0000
0000
0000
3010
0100
0010
0100
0001
0100
0001
0100
0001
1000
0100
0010
,
0002
0000
0000
0000
0103
0010
0100
0010
1000
0100
1000
0100
0010
0001
0010
0001
,
1000
0010
0100
0001
0100
0010
1000
0001
0010
0100
1000
0001
0100
0010
1000
0001
,
2000
0000
0000
3000
,
1001
0000
0110
0000
1000
0100
0001
0000
,
0010
0000
0110
0000
0001
0100
1000
0100
,
0010
0000
1010
0000
1000
0100
0010
0000
,
0001
0000
1001
0000
0001
0100
0010
1000
,
0001
0000
0000
0101
0000
0000
0001
0000
0100
0000
0010
0000
1000
0000
0000
0000
,
0010
0000
0000
1010
0000
0000
0010
0000
1000
0000
0100
0000
0010
0000
0001
0000
,
1000
0000
0000
1001
0000
0000
0001
0000
0100
0000
0010
0000
1000
0000
0001
0000
,
1000
0010
1000
0001
0010
0100
0010
0001
1000
0010
0100
0001
0010
0100
1000
0002
,
2000
0000
0000
0000
,
3003
0000
0000
0000
;

//--------------- dance-double - about-blank ----------------
#NOTES:
     dance-double:
     about-blank:
     Easy:
     8:
     0,0,0,0,0:
00000000
00000000
00000000
00000000
,
00000000
00000000
00000000
00000000
,
00000000
00000000
00000000
00000000
,
00000000
00000000
00000000
00000000
,
00000000
00000000
00000000
00000000
,
00000000
00000000
00000000
00000000
,
00000000
00000000
00000000
00000000
,
00000000
00000000
00000000
00000000
,
00000000
00000000
00000000
00000000
,
00010000
01000000
00100000
00000000
,
10000000
01000000
00100000
00000000
,
00100000
00010000
01000000
00000000
,
00010000
00100000
00001000
00000000
,
00010000
00000100
00001000
00000000
,
00000100
00001000
00000100
00000000
,
00000010
00000001
00000100
00000010
,
00001001
00000000
00000000
00000000
,
00000001
00000000
00000100
00000000
00000001
00001000
00000001
00000000
,
00001000
00000000
00000100
00000000
00010000
00001000
00010000
00000000
,
00001000
00000000
00100000
00000000
00010000
01000000
00010000
00000000
,
10000000
00000000
00100000
10000000
00100000
00000000
01000000
00000000
,
00010000
00000000
10000000
00000000
01000000
00100000
01000000
00000000
,
10000000
00000000
00010000
00000000
01000000
00010000
01000000
00000000
,
00001000
00000000
00010000
00000000
00000010
00001000
00000010
00000000
,
00000100
00000000
00000001
00001000
00000001
00000000
00000100
00000000
,
00000001
00000010
00000001
00000000
00000010
00000100
00000010
00000000
,
00000100
00001000
00010000
00100000
,
00010000
01000000
00010000
00000000
10000000
00100000
10000000
00000000
,
01000000
00010000
00001000
00000010
,
00000001
00001000
00000001
00000000
00001000
00000100
00001000
00000000
,
00000100
00001000
00010000
00100000
,
00010000
10000000
00010000
00000000
10000000
00100000
10000000
00000000
,
00100000
01000000
00010000
00100000
,
00001000
00000000
00010000
00000000
00001000
00010000
00001000
00000000
,
00100000
00000000
00010000
00000000
00100000
00010000
00100000
00000000
,
00010000
00000000
01000000
00000000
00100000
01000000
00100000
00000000
,
10000000
00010000
10010000
00000000
,
10000000
01000000
10000000
00000000
00100000
10000000
00100000
00000000
,
01000000
00010000
01000000
00000000
00010000
00100000
00010000
00000000
,
00100000
00001000
00100000
00000000
00001000
00010000
00001000
00000000
,
00010000
00000100
00001000
00000000
00000001
00000000
00000100
00000000
,
00000001
00000010
00000001
00000000
00000100
00000001
00000100
00000000
,
00000010
00001000
00000010
00000000
00010000
00000100
00010000
00000000
,
00001000
00100000
00001000
00000000
01000000
00010000
01000000
00000000
,
10010000
00000000
00000000
00000000
,
10000000
01000000
00010000
00000000
01000000
00000000
00100000
00000000
,
00100000
00001000
00010000
00000000
00001000
00000000
00010000
00000000
,
00000100
00001000
00000001
00000000
00000100
00000000
00000010
00000000
,
00001000
00000100
00000010
00000000
00000100
00000000
00001000
00000000
,
00000100
00010000
00001000
00000000
00100000
00000000
00010000
00000000
,
01000000
00100000
10000000
00000000
00100000
00000000
01000000
00000000
,
00010000
00100000
01000000
00000000
10010000
00000000
01100000
00000000
,
10010000
00000000
00000000
00000000
,
10000000
00000000
00100000
00000000
01000000
00010000
01000000
00000000
,
00010000
00000000
00100000
00000000
00010000
00100000
00010000
00000000
,
01000000
00000000
00100000
00000000
01000000
00100000
01000000
00000000
,
00010000
00100000
00001000
00010000
,
00000100
00000000
00001000
00000000
00000100
00000010
00000001
00000000
,
00000100
00000000
00000001
00000000
00001000
00000010
00000100
00000000
,
00000010
00001000
00000100
00010000
,
00001000
00010000
00001000
00000000
00100000
00010000
01000000
00100000
,
10010000
00000000
00000000
00000000
;

//--------------- dance-double - about-blank ----------------
#NOTES:
     dance-double:
     about-blank:
     Medium:
     11:
     0,0,0,0,0:
00000000
00000000
00000000
00000000
,
00000000
00000000
00000000
00000000
,
00000000
00000000
00000000
00000000
,
00000000
00000000
00000000
00000000
,
00000000
00000000
00000000
00000000
,
10010000
00000000
00000000
00000000
,
10000000
00000000
00000000
01000000
00000000
00000000
00010000
00000000
,
00001000
00000000
00000000
00000000
,
00011000
00001100
00000000
00000110
,
00001001
00000000
00001000
00000000
00000001
00001000
00000100
00000000
,
00000100
00000000
00010000
00001000
00100000
00010000
01000000
00000000
,
00100000
00000000
10000000
00000000
00010000
00100000
01000000
00000000
,
00100000
00000000
00010000
00100000
00001000
00010000
00001000
00000000
,
00011000
00000000
00001000
00000000
00000100
00000010
00001000
00000000
,
00011000
00000000
00010000
00000000
01000000
00100000
00010000
00000000
,
00011000
00100000
00011000
00000100
,
00022000
00000000
00000000
00000000
00000000
00000000
00000000
00000000
00000000
00000000
00000000
00000000
00000000
00000000
00000000
00000000
00000000
00000000
00000000
00000000
00000000
00000000
00000000
00000000
00000000
00000000
00000000
00000000
00000000
00000000
00000000
00000000
00000000
00000000
00000000
00000000
00000000
00000000
00000000
00000000
00000000
00000000
00000000
00000000
00000000
00000000
00000000
00000000
00000000
00000000
00000000
00000000
00000000
00000000
00000000
00000000
00000000
00000000
00000000
00000000
00000000
00000000
00000000
00000000
00000000
00000000
00000000
00000000
00000000
00000000
00000000
00000000
00000000
00000000
00000000
00000000
00000000
00000000
00000000
00000000
00000000
00000000
00000000
00000000
00000000
00000000
00000000
00000000
00000000
00000000
00000000
00000000
00000000
00000000
00000000
00000000
00000000
00000000
00000000
00000000
00000000
00000000
00000000
00000000
00000000
00000000
00000000
00000000
00000000
00000000
00000000
00000000
00000000
00000000
00000000
00000000
00000000
00000000
00000000
00000000
00000000
00000000
00000000
00000000
00000000
00000000
00000000
00000000
00000000
00000000
00000000
00000000
00000000
00000000
00000000
00000000
00000000
00000000
00000000
00000000
00000000
00000000
00000000
00000000
00000000
00000000
00000000
00000000
00000000
00000000
00000000
00033000
00000000
00000000
00000000
00000000
00000000
00000000
00000000
00000000
00000000
00000000
00000000
00000000
00000000
00000000
00000000
00000000
00000000
00000000
00000000
00000000
00000000
00000000
00000000
00000000
00000000
00000000
00000000
00000000
00000000
00000000
00000000
00000000
00000000
00000000
00000000
00000000
00000000
00000000
00000000
00000000
,
00001000
00010000
00001000
00000000
00100000
00010000
00100000
00000000
,
00010000
01000000
00010000
00000000
10000000
01000000
10000000
00000000
,
00100000
01000000
00100000
00000000
01000000
00010000
01000000
00000000
,
00010000
10000000
00010000
00000000
01000000
00001000
01000000
00000000
,
00001000
00010000
00001000
00000000
00010000
00000100
00010000
00000000
,
00000010
00001000
00000010
00000000
00000100
00000001
00000100
00000000
,
00000001
00001000
00000001
00000000
00001000
00000010
00001000
00000000
,
00000100
00010000
00000100
00000000
00010000
00001000
00010000
00000000
,
00001000
00000000
00010000
00000000
01000000
01000000
00100000
00000000
,
00010000
00000000
10000000
00100000
01000000
00010000
01000000
00000000
,
00010000
00000000
01000000
00000000
00100000
00100000
10000000
00000000
,
01000000
00000000
00100000
00010000
01000000
00001000
00010000
00000000
,
00011000
00000000
00000100
00000000
00001000
00001000
00000001
00000000
,
00000011
00000000
00000001
00000010
00000100
00001000
00000001
00000000
,
00001100
00000010
00001001
00000010
,
00000001
00000100
00000010
00001000
00000100
00001000
00000010
00010000
,
00001000
00000000
00011000
00000000
00001000
00001000
00100000
00000000
,
00010000
00000000
00110000
00000000
00100000
00100000
01000000
00000000
,
10000000
00000000
10100000
00000000
00100000
00100000
01000000
00010000
,
10000000
00100000
10000000
00100000
10000000
00100000
01000000
00000000
,
00100000
00000000
00000000
00100000
01000000
00000000
00000000
01000000
00010000
00000000
00000000
00010000
00100000
00000000
00000000
00100000
,
00001000
00000000
00000000
00001000
00010000
00000000
00000000
00010000
00000100
00000000
00000000
00000100
00001000
00000000
00000000
00001000
,
00000010
00000000
00000000
00000010
00000100
00000000
00000000
00000100
00000001
00000000
00000000
00000001
00000010
00000000
00000000
00000010
,
00000100
00000000
00000000
00000100
00001000
00000000
00000000
00001000
00000010
00000000
00000000
00000010
00010000
00000000
00000000
00000000
,
00001000
00000000
00000000
00001000
00010000
00000000
00000000
00010000
00001000
00000000
00000000
00001000
00100000
00000000
00000000
00100000
,
00010000
00000000
00000000
00010000
01000000
00000000
00000000
01000000
00100000
00000000
00000000
00100000
10000000
00000000
00000000
10000000
,
01000000
00000000
00000000
01000000
00100000
00000000
00000000
00100000
01000000
00000000
00000000
01000000
10000000
00000000
00000000
00000000
,
00000000
00000000
00000000
00000000
,
00100000
00000000
00000000
00100000
01000000
00000000
00000000
01000000
00010000
00000000
00000000
00010000
00100000
00000000
00000000
00100000
,
00001000
00000000
00000000
00001000
00010000
00000000
00000000
00010000
00000100
00000000
00000000
00000100
00001000
00000000
00000000
00001000
,
00000010
00000000
00000000
00000010
00000100
00000000
00000000
00000100
00000001
00000000
00000000
00000001
00000010
00000000
00000000
00000010
,
00000001
00000000
00000000
00000001
00000100
00000000
00000000
00000100
00000010
00000000
00000000
00000010
00001000
00000000
00000001
00000000
,
00001000
00000000
00000000
00001000
00000100
00000000
00000000
00000100
00001000
00000000
00000000
00001000
00000100
00000000
00000000
00000100
,
00010000
00000000
00000000
00010000
00001000
00000000
00000000
00001000
00010000
00000000
00000000
00010000
00001000
00000000
00000000
00001000
,
00100000
00000000
00000000
00100000
00010000
00000000
00000000
00010000
00100000
00000000
00000000
00100000
00010000
00000000
00000000
00010000
,
01000000
00100000
10000000
00100000
01000000
00010000
10000000
00000000
,
10000000
00000000
11000000
00000000
01000000
10000000
00010000
00000000
,
01000000
00000000
01010000
00000000
00010000
00100000
00001000
00000000
,
00010000
00000000
00011000
00000000
00010000
00000010
00001000
00000000
,
00000010
00000000
00000110
00000000
00000100
00000001
00001000
00000001
,
00000100
00000000
00000110
00000000
00000010
00000001
00001000
00000000
,
00000100
00000000
00010100
00000000
00000100
00010000
00001000
00000000
,
00100000
00010000
00100000
00000000
00010000
01000000
00010000
00000000
,
10000000
01000000
10000000
01000000
00100000
00010000
00100000
00010000
,
20000000
00000000
00000000
00000000
,
30000000
00000000
00000000
00000000
;

//--------------- dance-double - about-blank ----------------
#NOTES:
     dance-double:
     about-blank:
     Hard:
     13:
     0,0,0,0,0:
00000000
00000000
00000000
00000000
,
00000000
00000000
00000000
00000000
,
00000000
00000000
00000000
00000000
,
00000000
00000000
00000000
00000000
,
00000000
00000000
00000000
00000000
,
00110000
00000000
00000000
00000000
,
00010000
00000000
00000000
01000000
00000000
00000000
00100000
00000000
,
10000000
00000000
00000000
00000000
00000000
00000000
00000000
00000000
00000000
00000000
00000000
00000000
00000000
00000000
00010000
10000000
,
00010000
00000000
01000000
00000000
00001000
00000000
00100000
00000000
00000000
00000000
00001000
00000000
00000000
00000000
00010000
00001000
,
00010000
00000000
00011000
00000000
00010000
00001000
00000100
00000000
,
00000010
00000000
00001010
00000000
00001000
00000001
00000010
00000000
,
00000100
00000000
00001100
00000000
00000100
00010000
00001000
00000000
,
00100000
00000000
00110000
00000000
00010000
10000000
00100000
01000000
,
00010000
00000000
01010000
00000000
01000000
00100000
10000000
00100000
,
01000000
00000000
10010000
00000000
10000000
01000000
00100000
00010000
,
01000000
00000000
00010000
00000000
00100000
00000000
00001000
00000000
00010000
00001000
00010000
00001000
00010000
00001000
00010000
00001000
,
00000000
00000000
00000000
00020000
,
00030010
00001000
00000001
00001000
00000100
00010000
00001000
00000000
,
01000000
00010000
10000000
01000000
00100000
00010000
01000000
00000000
,
00001000
00010000
00000010
00001000
00000001
00000010
00001000
00000000
,
00001000
00010000
01000000
10000000
00100000
01000000
00010000
00000000
,
00100000
00010000
00100000
00010000
01000000
00010000
01000000
00010000
,
00100000
00001000
00100000
00001000
00010000
00000100
00010000
00000100
,
00001000
00000010
00000100
00000001
00000010
00000100
00001000
00000001
,
00001001
00000000
00000000
00011000
00000000
00000000
00000000
00000000
,
10010000
00000000
01100000
00000000
10000000
01000000
00010000
00000000
,
01010000
00000000
00101000
00000000
00100000
00001000
00010000
00000000
,
00011000
00000000
00001100
00000000
00001000
00000010
00000100
00000000
,
00000110
00000000
00000101
00000000
00000001
00000010
00000100
00000000
,
00001001
00000000
00000110
00000000
00000001
00000100
00001000
00000000
,
00010100
00000000
00011000
00000000
00001000
00010000
00100000
10000000
,
01000000
01100000
10010000
01010000
,
00010000
00000000
00100000
00000000
00001000
00000000
00010000
00000000
00001000
00010000
00001000
00010000
00001000
00010000
00001000
00000000
,
00010000
00000010
00001000
00000010
00000100
00000001
00000100
00000010
,
00001000
00000100
00010000
00001000
01000000
00010000
00100000
01000000
,
10000000
00100000
01000000
00010000
10000000
01000000
00100000
00010000
,
01000000
00000000
00010000
00000000
00100000
00010000
00100000
00010000
01000000
00000000
00001000
00000000
00011000
00000000
00000000
00000000
,
00001000
00000000
00000100
00000000
00000010
00000100
00000010
00000000
00000100
00000000
00001000
00000000
00010000
00000000
00000000
00000000
,
00010000
00000000
01000000
00000000
00100000
01000000
00100000
00000000
01000000
00000000
00001000
00000000
00010000
00000000
00000000
00000000
,
00001000
00000000
00000100
00000000
00000010
00000100
00000010
00000000
00000100
00000000
00001000
00000000
00010000
00000000
00000000
00000000
,
00010000
00000000
01000000
00000000
00100000
01000000
00100000
00000000
01000000
00000000
00001000
00000000
00010000
00000000
00000100
00000000
,
00001000
00000000
00000010
00000000
00001000
00000100
00001000
00000000
00000100
00000000
00010000
00000000
00001000
00000000
00000000
00000000
,
00001000
00000000
00100000
00000000
00010000
00100000
00010000
00000000
00100000
00000000
00001000
00000000
00010000
00000000
00000000
00000000
,
00010000
00000000
00000010
00000000
00001000
00000010
00001000
00000000
00000010
00000000
00010000
00000000
00001000
00000000
00000000
00000000
,
00010000
00000000
00001000
00000000
00010000
00001000
00000000
00010000
00000000
00001000
00000000
00010000
00001000
00000000
00100000
00000000
,
00010000
00000000
01000000
00000000
00100000
10000000
00100000
00000000
10000000
00000000
01000000
00000000
00010000
00000000
00000000
00000000
,
10010000
00000000
00000000
00000000
01010000
00000000
00000000
00000000
00010000
01000000
00010000
00000000
01000000
00000000
00000000
00000000
,
00010000
00000000
00100000
00000000
00001000
00010000
00001000
00000000
00010000
00000000
00000100
00000000
00001000
00000000
00000000
00000000
,
00001100
00000000
00000101
00000000
00000001
00000010
00000100
00001000
,
00000010
00001000
00000010
00000000
00001000
00000010
00001000
00000000
00000100
00000000
00010000
00000000
00001000
00000000
00000000
00000000
,
00100000
00001000
00100000
00000000
00001000
00100000
00001000
00000000
01000000
00000000
00010000
00000000
10000000
00000000
00000000
00000000
,
00100000
10000000
00100000
00000000
01000000
00010000
01000000
00000000
00010000
01000000
00010000
00000000
00100000
00001000
00100000
00001000
,
00020000
00000000
00002000
00033000
,
00010000
00000000
00000000
01000000
00000000
00000000
10000000
00000000
00100000
00000000
00010000
00000000
00001000
00000000
00000000
00000000
,
00010000
00000000
00000000
00001000
00000000
00000000
00000100
00000000
00000001
00000000
00000010
00000000
00001000
00000000
00001000
00000000
,
00010000
00000000
00000000
01000000
00000000
00000000
10000000
00000000
00100000
00000000
00010000
00000000
00001000
00000000
00000000
00000000
,
00010000
00000000
00000000
00001000
00000000
00000000
00000100
00000000
00000001
00000000
00000010
00000000
00001000
00000000
00010000
00000000
,
00011000
00000000
00000000
00010000
00000000
00000000
01000000
00000000
10000000
00000000
00100000
00000000
00010000
00000000
00000000
00000000
,
00011000
00000000
00000000
00001000
00000000
00000000
00000100
00000000
00000001
00000000
00000010
00000000
00001000
00000000
00000000
00000000
,
00011000
00000000
00010000
01000000
01010000
00000000
00010000
00100000
,
00110000
00000000
00010000
00000000
00100000
00000000
00001000
00000000
00010000
00000000
00000010
00000000
00001000
00000100
00001000
00000100
,
00002000
00000000
00000000
00000000
,
00003000
00000000
00000000
00000000
;

//--------------- dance-double - about-blank ----------------
#NOTES:
     dance-double:
     about-blank:
     Challenge:
     16:
     0,0,0,0,0:
00000000
00000000
00000000
00000000
,
00000000
00000000
00000000
00000000
,
00000000
00000000
00000000
00000000
,
00000000
00000000
00000000
00000000
,
00000000
00000000
00000000
00000000
,
10010000
00000000
00000000
00000000
,
00010000
00000000
00000000
00100000
00000000
00000000
00010000
00000000
,
01000000
00000000
00000000
00000000
00000000
00000000
00000000
00000000
00000000
00000000
00000000
00000000
00000000
00000000
00010000
00100000
,
00001000
00000000
00000100
00000000
00000001
00000000
00001000
00000000
00000000
00000000
00000100
00000000
00000000
00000000
00001000
00000100
,
00000010
00000000
00000010
00000000
00000001
00000100
00000000
00000100
00001000
00000000
00010000
00000000
00001000
00010000
00001000
00010000
,
00100000
00000000
00100000
00000000
10000000
01000000
00000000
01000000
00010000
00000000
00001000
00000000
00010000
00001000
00010000
00001000
,
00000010
00000000
00000010
00000000
00000001
00000010
00000000
00000010
00001000
00000000
00010000
00000000
00001000
00010000
00001000
00010000
,
00100000
00000000
00100000
00000000
10000000
01000000
00000000
01000000
00010000
00000000
00001000
00000000
00010000
00001000
00010000
00001000
,
00000010
00000000
00000100
00000000
00001000
00000100
00000000
00000100
00010000
00000000
00001000
00000000
00010000
00001000
00010000
00001000
,
00100000
00000000
01000000
00000000
10000000
00100000
00000000
00100000
01000000
00000000
00010000
00000000
00100000
00001000
00100000
00001000
,
00010000
00000000
00000100
00000000
00001000
00000010
00001000
00000010
00000100
00000001
00000100
00000001
00000010
00000100
00000010
00000100
,
00000000
00000000
00000000
00000000
,
00001000
00000100
00011000
00001000
00100000
00010000
01010000
00100000
,
10000000
01000000
11000000
00100000
01000000
00010000
00110000
00001000
,
00010000
00000100
00001100
00100000
00010000
00010000
01010000
00100000
,
10000000
00100000
01100000
00010000
00100000
00001000
00011000
00001000
,
00000100
00000010
00001010
00000100
00000010
00001000
00001001
00000001
,
00001000
00000100
00010100
00010000
00001000
00100000
01100000
00100000
,
00010000
00100000
10100000
00100000
01000000
00010000
00011000
00000010
,
00001000
00000100
00000010
00000001
00001000
00000001
00000010
00000100
,
00001100
00000000
00000000
00000101
00000000
00000000
00000001
00000000
00001000
00000000
00000100
00000000
00001000
00000000
00000000
00000000
,
00001100
00000000
00000000
00011000
00000000
00000000
00010000
00000000
00001000
00000000
00010000
00000000
00100000
00000000
10000000
00000000
,
10100000
00000000
00000000
10010000
00000000
00000000
10000000
00000000
01000000
00000000
00100000
00000000
00010000
00000000
00000000
00000000
,
00110000
00000000
00000000
01100000
00000000
00000000
01000000
00000000
00100000
00000000
00010000
00000000
01000000
00000000
00001000
00000000
,
00011000
00000000
00000000
00001100
00000000
00000000
00000100
00000000
00000010
00000001
00000010
00000001
00001000
00000000
00000000
00000000
,
00000101
00000000
00000000
00001010
00000000
00000000
00001000
00000000
00000010
00001000
00000010
00001000
00000100
00000000
00010000
00000000
,
00011000
00000000
00100000
00010000
00110000
00000000
10000000
00100000
,
10100000
00000000
00100000
00000000
10000000
01000000
00100000
00010000
01000000
00100000
10000000
01000000
00100000
00010000
01000000
00100000
,
10000000
01000000
00100000
00010000
00001000
00000100
00000010
00000001
,
00000001
00000010
00000100
00001000
00010000
00100000
01000000
10000000
,
10000000
00100000
01000000
00010000
00001000
00000010
00000100
00000001
,
00001000
00000001
00001000
00000010
00000100
00000001
00001000
00000100
00000010
00000100
00001000
00000010
00010000
00000100
00001000
00000000
,
00000001
00000000
00001000
00000000
00000001
00000100
00000001
00000100
00000001
00000000
00000010
00000000
00001000
00010000
00001000
00010000
,
00001000
00000000
00010000
00000000
00100000
10000000
00100000
10000000
00100000
00000000
01000000
00000000
00010000
10000000
00010000
10000000
,
00010000
00000000
00100000
00000000
00001000
00010000
00001000
00010000
00001000
00000000
00000100
00000000
00000001
00000010
00000001
00000010
,
00000001
00000000
00000100
00000000
00000010
00001000
00000010
00001000
00000010
00000000
00010000
00000000
00001000
00100000
00001000
00000000
,
00010000
00000100
00010000
00000100
00001000
00000010
00001000
00000010
00001000
00000001
00001000
00000001
00000100
00000001
00000100
00000001
,
00001000
00000010
00001000
00000010
00010000
00001000
01000000
00010000
01000000
00100000
10000000
00100000
10000000
01000000
00100000
00010000
,
00100000
00001000
00010000
00001000
00010000
00000100
00001000
00000001
00000010
00000001
00000010
00000100
00001000
00000100
00001000
00000100
,
00010000
00001000
00010000
00001000
00100000
00010000
10000000
01000000
00010000
01000000
10000000
00010000
00100000
01000000
10000000
00010000
,
10000000
00000000
00100000
00000000
10000000
01000000
00100000
00010000
10000000
01000000
10000000
01000000
10000000
00010000
00100000
00010000
,
00200000
00300000
00001000
00100000
00010000
00000000
00110000
00000000
,
00001000
00010000
00000100
00001000
00000100
00001000
00000100
00000010
00000001
00000010
00000001
00000010
00000001
00001000
00000100
00001000
,
00000010
00000000
00001000
00000100
00001000
00010000
00100000
00010000
,
10000000
00100000
10000000
00100000
01000000
00010000
01000000
00000000
00010000
00100000
00010000
00100000
00001000
00010000
00001000
00000000
,
00010000
00000100
00010000
00000010
00001000
00000010
00000100
00000000
00000001
00000010
00000100
00000010
00000001
00000100
00000010
00000000
,
00001000
00000100
00001000
00000100
00010000
00001000
00010000
00001000
00100000
00010000
00100000
01000000
10000000
00100000
01000000
00010000
,
00100000
01000000
00010000
01000000
00100000
00001000
00010000
00000010
00001000
00000100
00001000
00000001
00000100
00000010
00001000
00000010
,
00000100
00000000
00000000
00001100
00000000
00000000
00000100
00000000
00010000
00000000
00001000
00000000
00100000
00000000
00000000
00000000
,
00010000
00000000
00000000
01010000
00000000
00000000
00010000
00000000
10000000
00000000
01000000
00000000
00100000
00000000
00100000
00000000
,
00010000
00000000
00000000
10010000
00000000
00000000
10000000
00000000
00010000
00000000
01000000
00000000
00010000
00000000
00000000
00000000
,
00100000
00000000
00000000
00101000
00000000
00000000
00001000
00000000
00100000
00000000
00001000
00000000
00010000
00000000
00000010
00000000
,
00000100
00000000
00000000
00001001
00000000
00000000
00000001
00000000
00001000
00000000
00000010
00000000
00000100
00000000
00000000
00000000
,
00010000
00000000
00000000
00011000
00000000
00000000
00010000
00000000
00001000
00000000
00100000
00000000
01000000
00000000
10000000
00000000
,
00100000
01000000
00010000
10000000
00100000
01000000
00010000
00100000
,
00010000
00100000
01000000
00100000
00010000
01000000
00010000
00100000
00001000
00100000
00001000
00010000
00000010
00001000
00000100
00000010
,
00000200
00000000
00000000
00000000
,
00000300
00000000
00000000
00000000
;
