#TITLE:Z-I-v Summer Contest 2019 Medley;
#SUBTITLE:;
#ARTIST:Z-I-v Step Team;
#TITLETRANSLIT:;
#SUBTITLETRANSLIT:;
#ARTISTTRANSLIT:;
#GENRE:;
#CREDIT:;
#BANNER:Z-I-v Summer Contest 2019 Medley.png;
#BACKGROUND:Z-I-v Summer Contest 2019 Medley-bg.png;
#LYRICSPATH:;
#CDTITLE:cdtitle.png;
#MUSIC:Z-I-v Summer Contest 2019 Medley.ogg;
#OFFSET:-0.020000;
#SAMPLESTART:101.286003;
#SAMPLELENGTH:15.000000;
#SELECTABLE:YES;
#DISPLAYBPM:132.100006:180.399994;
#BPMS:0.000000=132.100006
,132.000000=66.050003
,132.500000=132.100006
,133.000000=264.200012
,134.000000=66.050003
,134.250000=132.100006
,134.500000=264.200012
,135.000000=66.050003
,135.250000=132.100006
,135.500000=264.200012
,136.000000=132.100006
,171.000000=180.250000
,300.000000=180.399994
,364.000000=90.199997
,365.000000=360.799988
,367.000000=180.399994
,399.000000=132.500000
;
#STOPS:171.000000=1.938000,
365.000000=0.083000,
365.500000=0.042000,
365.750000=0.042000,
366.000000=0.083000,
366.500000=0.083000
;
#BGCHANGES:;
#KEYSOUNDS:;
#ATTACKS:;

//---------------dance-single - X-Scale 17----------------
#NOTES:
     dance-single:
     9646_ESP:
     Hard:
     12:
     0.769060,0.920728,0.484993,0.363744,0.560773,888.000000,808.000000,80.000000,60.000000,0.000000,0.000000,0.769060,0.920728,0.484993,0.363744,0.560773,888.000000,808.000000,80.000000,60.000000,0.000000,0.000000:
0000
0000
0000
0000
,
1100
0000
0001
0000
1000
0010
0000
0001
0010
0000
0000
0000
0101
0000
1000
0100
,
0010
0000
0001
0000
0010
0000
1000
0010
0001
0000
0000
0000
0011
0000
1000
0100
,
1000
0010
0001
1000
0100
0001
0010
1000
,
0001
0000
0100
1000
0010
0000
0000
0000
0001
0000
0000
0000
0110
0000
0100
0001
,
1000
0001
1000
0001
1000
0010
0000
0010
0110
0000
0000
0000
0001
0000
1000
0100
,
0001
0000
0100
0000
0010
0000
1000
0010
0001
0000
0000
0000
1010
0000
0001
0010
,
0001
0000
0010
0000
0100
0000
1000
0001
1000
0000
0010
0000
0100
0000
0001
0000
,
0010
0000
0000
0000
0010
0000
0000
0000
0010
0000
0100
0000
0010
0100
0010
0100
,
0110
0000
0000
0001
1000
0000
0100
0000
1000
0000
0001
0010
0100
0000
1000
0000
,
1001
0000
0000
0001
0100
0000
0001
0000
1000
0000
0010
0000
0001
0000
0100
0000
,
1000
0100
1100
0000
0010
0001
0011
0000
,
1000
0000
0010
0000
1010
0000
0001
0100
0001
0000
0100
0000
0010
0000
1000
0000
,
0002
0003
0101
0001
1000
0100
0010
0100
,
2000
3000
1100
1000
0001
0100
0010
0010
,
0110
0000
0000
0000
0100
0000
0001
0010
0200
0000
0000
0320
0000
0000
0031
0000
,
0011
0000
0000
0000
1100
0000
0100
1000
0020
0000
0000
0230
0000
0000
0310
0000
,
2002
0000
3003
0000
0001
0100
0010
0000
1000
0100
1000
0100
0010
0000
0001
0000
,
0011
0000
0100
1000
0100
0000
1000
0000
1001
0000
0001
0100
0000
1000
0100
0000
,
0110
0000
0100
0001
1000
0000
0010
0000
0110
0000
0100
0001
0000
0010
0001
0000
,
1001
0000
1000
0010
0100
0020
0000
0030
1000
0000
1000
0100
0022
0000
0033
0000
,
2200
0000
3300
0000
0100
1000
0001
0000
1000
0010
1000
0010
0001
0000
0010
0000
,
1010
0000
0100
0001
0100
0000
0010
0000
1010
0000
0100
1000
0000
0100
0010
0000
,
1001
0000
1000
0100
1000
0000
0001
0000
0010
0100
0010
0100
1000
0010
0100
0001
,
0010
0000
0100
0100
0000
0010
0010
0000
2002
0000
3003
0000
0220
0000
0330
0000
,
1100
0000
0100
0000
0101
0000
0100
0000
0110
0000
1000
0100
0000
1000
0001
1000
,
0000
0001
0100
0000
0010
1000
0010
0100
0001
0000
0010
0100
0000
0100
0010
0000
,
0011
0000
0001
0000
1001
0000
0001
0000
0101
0000
0001
1000
0000
1000
0100
1000
,
0000
1000
0001
0000
0010
0100
1000
0001
1000
0000
0010
0100
0000
0100
0010
0000
,
0011
0000
0010
0000
1010
0000
0010
0000
0110
0000
0001
0010
0000
0001
1000
0001
,
0000
1000
0010
0000
0100
0001
0100
0010
1000
0000
0100
0010
0000
0010
0100
0000
,
1100
0000
1000
0000
1001
0000
1000
0000
1010
0000
1000
0001
0000
0001
0010
0001
,
0000
0001
1000
0000
0020
0000
0000
0000
0001
0000
0000
0000
1030
0000
0000
0000
,
2002
3003
0100
0100
,
1010
0000
0000
0001
0000
0100
0001
0000
0000
1000
0000
0000
0001
0000
0000
0010
0000
0000
0100
0000
0100
0010
0000
0000
,
0001
0000
0000
1000
0000
0100
1000
0000
0000
0010
0000
0100
0010
0000
0000
0100
0000
0000
0110
0000
0000
0000
0000
0000
,
1000
0000
0000
0010
0000
1000
0100
0000
0000
0001
0000
0100
1000
0000
0000
0001
0000
0000
1001
0000
0000
0000
0000
0000
,
0110
0000
0000
0000
0000
0000
1010
0000
0000
1000
0000
0100
0010
0000
0001
0010
0000
0100
0010
0000
0000
0001
0000
0000
,
1000
0000
0000
0001
0000
0100
0001
0000
0000
0010
0000
0100
0010
0000
0000
0001
0000
0000
1000
0000
1000
0100
0000
0000
,
1000
0001
0100
1000
0001
0010
1000
0100
,
0001
1000
0010
0001
0100
0010
1000
0100
,
0002
0000
0203
0000
,
2300
0000
3020
0000
,
1030
0000
0001
1000
0000
0001
1000
0000
0100
0010
0001
0010
0100
0000
0000
0000
,
1100
0000
0000
0000
0001
1000
0001
1000
0010
0100
0001
0010
0100
0010
0001
1000
,
0001
0100
0010
0100
0001
0000
1000
0000
0100
0010
0001
1000
0001
0000
0000
0000
,
1001
0000
0001
1000
0001
0000
0100
0000
0010
0000
1000
0100
0010
0000
0001
0000
,
1000
0000
0100
0010
0000
0100
0010
0000
0001
0100
0010
1000
0001
0000
0000
0000
,
1001
0002
2003
3002
,
1003
0100
1000
0100
1000
0000
0001
1000
0001
0100
0010
1000
0001
0000
1000
0000
,
0001
0010
0100
1000
0001
0010
0100
1000
0001
0100
0010
1000
0001
0010
0100
0000
,
0110
0110
0010
0001
0011
0011
0001
0100
,
0110
0110
0010
1000
1010
1010
1000
0001
,
1000
0100
1000
0000
0100
0000
0010
0000
0001
0100
0001
0000
0100
0000
0010
0000
,
1000
0100
1000
0000
0001
0010
0001
0000
0010
0100
0010
0100
1000
0100
0010
0001
,
1000
0100
1000
0010
0100
0001
1000
0100
,
0010
0000
0000
0010
0001
0000
0000
0001
1000
0000
0010
0000
0100
0000
0001
0000
,
1000
0001
1000
0000
0100
0000
0010
0000
0100
0010
0100
0000
1000
0000
0001
0000
,
1000
0100
0010
0001
1000
0100
0010
0001
1000
0010
0100
0001
0010
0100
1000
0000
,
2001
0000
3001
1000
0010
0100
0010
1000
,
0002
0010
0023
0100
0230
1000
2300
0001
,
3001
0100
1000
0100
0001
0100
1000
0100
,
0010
0001
0010
1000
0010
0001
0010
1000
,
0001
0000
0010
0100
0010
0000
0001
0000
0100
0000
0010
0000
1000
0000
0001
0000
,
0200
0010
0310
0100
0001
0010
0100
1000
,
0020
0000
0130
0001
0100
0000
0010
0000
1000
0000
0001
0000
0100
0000
0010
0000
,
2000
0000
3000
1000
0100
0000
1000
0000
0001
0000
0010
0000
0100
1000
0001
0000
,
1001
0201
0000
0000
0000
0000
0000
0000
,
0010
0000
0000
1000
0000
0000
0301
0000
,
1100
0120
0000
0000
0000
0000
0000
0000
,
1000
0000
0000
0000
0000
0000
0000
0000
0031
0010
0001
0000
1000
0100
1000
0000
,
1001
1020
0000
0000
0000
0000
0000
0000
,
0100
0000
0000
0001
0000
0000
1030
0000
,
0011
0000
0210
0000
0000
0000
0000
0000
1300
0100
1000
0000
0001
0010
0001
0000
,
0110
0000
2100
0000
0000
0000
3001
0100
0001
0000
1000
0001
1000
0100
0010
0001
,
1000
0000
1000
0010
0000
0010
0001
0000
0001
0100
0000
0100
,
1000
0000
0000
1100
0000
0000
0001
0000
2000
0010
0000
0000
,
3001
0000
0000
0011
0000
0000
1000
0000
0002
0100
0000
0000
,
1003
0000
0000
1100
0000
0000
0001
0000
2000
0010
0000
0000
,
3001
0000
0001
0100
0000
0100
1000
0000
1000
0010
0000
0010
,
0001
0000
0000
0011
0000
0000
1000
0000
0020
0001
0000
0000
,
0130
0000
0000
1010
0000
0000
0001
0000
0020
1000
0000
0000
,
0130
0000
1000
0001
0000
1000
0010
0000
0100
0001
0010
0100
,
2000
0000
0100
0000
,
3001
0000
0100
0010
1000
0100
0010
0100
,
2000
0000
3001
1000
0010
0100
0000
0100
,
0002
0000
0000
0000
1003
0000
0001
0000
1000
0100
1000
0000
0001
1000
0001
0000
,
1000
0000
0100
0010
0001
1000
0000
1000
,
0020
0000
0130
1000
0100
0010
0100
0001
,
0020
0000
0130
0010
1000
0010
0100
1000
,
0002
0000
0000
0000
0103
0000
0010
0000
0001
0000
0010
0000
0100
0010
0100
0010
,
2000
0000
3000
0120
,
1030
0100
0010
0001
0021
0000
0230
1300
,
0200
0301
0200
0310
0200
1300
0001
0010
,
0001
0010
0001
0100
0001
0100
0010
1000
,
0100
0010
0100
1000
0001
0001
1000
0100
,
1000
0000
0001
0000
1000
0000
0010
0000
0100
0000
0001
0000
0010
0100
1000
0100
,
0010
0100
1000
0100
0010
0001
0100
0010
1000
0100
0010
0001
0011
0000
0011
0000
,
0100
1000
1100
1100
0010
0001
0001
1000
,
0001
0000
0100
0000
0010
0000
1000
0000
0001
0010
0100
2000
0002
0000
0000
0000
,
0000
0000
0000
0000
,
0000
3003
0000
0000
;

//---------------dance-single - X-Scale 16----------------
#NOTES:
     dance-single:
     9646_CSP:
     Challenge:
     11:
     0.714498,1.012801,0.327370,0.563804,0.400119,825.000000,771.000000,54.000000,93.000000,0.000000,0.000000,0.714498,1.012801,0.327370,0.563804,0.400119,825.000000,771.000000,54.000000,93.000000,0.000000,0.000000:
0000
0000
0000
0000
,
1001
0000
1000
0100
0001
0000
0011
0000
,
1000
0010
0001
0100
1000
0000
1100
0000
,
0010
0100
0001
0000
0010
0100
0010
0000
,
0001
1000
0010
0000
0100
0000
0110
0000
,
1001
0000
0001
0010
1000
0000
1100
0000
,
0001
0100
1000
0010
0001
0000
0011
0000
,
0100
0010
1000
0000
0100
0010
0100
0000
,
1000
0000
1000
0000
1000
0010
1000
0010
,
1001
0000
0001
0100
0010
1000
0100
0100
,
1000
0000
0010
0100
0001
0010
0001
0001
,
1000
1000
0001
0000
1000
1000
0100
0000
,
0010
0001
1000
0000
0001
0001
0100
0001
,
0010
0010
0001
1000
1000
0001
0010
0001
,
1000
1000
0010
0100
0001
0010
0001
0001
,
0010
0000
0000
0000
0022
0033
0001
1000
0100
2000
0000
3020
0000
0130
0020
0030
,
1010
0000
0000
0000
0202
0303
1000
0100
1000
0020
0000
0032
0000
0013
2000
3000
,
2002
0000
3003
0000
0001
0001
0100
0000
0001
0001
1000
0100
0020
0000
2030
0000
,
3020
0000
0130
0100
0010
0001
0100
0000
2000
0000
3100
0020
1030
0100
0002
0103
,
0020
0000
0031
0100
0010
0000
0110
0000
2000
3010
0100
0020
0031
0010
0200
0301
,
0020
0100
0130
0000
0010
0001
1000
0000
2010
0000
3100
0010
0022
0000
0033
0000
,
2002
0000
3003
0000
1000
1000
0100
0000
0010
0010
0001
0100
0020
0000
0032
0000
,
0023
0030
0110
0000
0010
0010
1000
0100
0002
0000
0103
0020
0031
0100
2000
3100
,
0020
0000
0130
0010
1000
1000
0100
0000
0002
0103
1000
0020
0031
0010
2000
3100
,
0020
0030
0110
0000
0010
0001
0100
0010
2002
0000
3003
0000
0220
0000
0330
0000
,
1100
0000
0100
0000
0110
0000
1000
0000
1001
0000
0001
0100
0000
0100
0001
1000
,
0000
1000
0010
0000
0100
0010
0100
0010
1000
0000
1000
0010
0000
1000
0001
0000
,
0101
0000
0100
0000
0110
0000
0001
0000
1001
0000
1000
0100
0000
0100
1000
0001
,
0000
0001
0010
0000
0100
1000
0100
1000
0001
0000
1000
0001
0000
0010
0100
0000
,
1100
0000
1000
0000
1010
0000
0001
0000
0001
0000
1000
0010
0000
0010
0100
0001
,
0000
0001
0100
0000
0010
1000
0010
1000
0001
0000
1000
0100
0000
0100
0010
0000
,
0011
0000
0001
0000
0101
0000
1000
0000
1000
0000
0001
0100
0000
0100
0010
1000
,
0000
1000
0001
0000
0020
0000
0000
0000
0000
0000
0000
0000
0000
0000
0000
0000
,
0200
0030
0000
0000
0010
0000
0010
0000
,
1300
0000
0000
0100
0000
0010
0100
0000
0000
1000
0000
0000
0001
0000
0000
0010
0000
0000
0100
0000
1000
0001
0000
0000
,
0001
0000
0000
0100
0000
0010
0100
0000
0000
0001
0000
0000
0010
0000
0000
1000
0000
0000
0010
0000
0001
1000
0000
0000
,
0001
0000
0000
0100
0000
0001
0100
0000
0000
0010
0000
1000
0010
0000
0000
0100
0000
0000
1001
0000
0000
0000
0000
0000
,
0110
0000
0000
0000
0000
1000
0001
0000
0000
0000
0000
0001
0010
0000
0000
0001
0000
0000
1000
0000
0100
1000
0000
0000
,
0001
0000
0000
0010
0000
0100
0000
0000
0100
0010
0000
0000
0001
0000
0000
1000
0000
0000
0010
0000
1000
0100
0000
0000
,
1000
0000
0000
0001
0000
0100
0001
0000
0000
0010
0000
0000
0001
0000
0000
1000
0000
0000
0010
0000
1000
0010
0000
0000
,
1000
0000
0001
0000
0110
0000
1000
0001
1000
0001
1000
0000
0220
0000
0330
0000
,
2000
0000
3200
0000
,
0320
0000
0032
0003
,
1000
0000
1000
0000
1000
0001
0010
0100
,
1000
0000
0001
0000
1000
0010
0100
0010
,
1000
0000
0000
0001
0000
0000
0001
0000
0100
0000
0001
0000
0010
0000
0000
0000
,
0001
0000
0100
0010
0000
0000
0000
0000
0100
0000
0001
0000
0010
0000
0001
0000
,
1000
0100
0010
0100
1000
0001
0100
1000
,
0100
0102
1000
0013
,
1000
0010
0100
0001
0100
0010
1000
0100
,
0010
0001
0010
0100
1000
0001
1000
0010
,
2000
0000
3001
0010
0001
1000
0010
1000
,
0010
0000
0000
0010
0100
0000
0000
0100
0001
0000
1000
0000
0100
0000
0010
0000
,
0001
0000
0100
0001
0100
0000
0010
0000
1000
0000
0100
1000
0100
0000
0010
0000
,
0001
0010
0001
0000
1000
0010
1000
0000
0010
0100
0010
0100
0010
0100
0010
0100
,
0002
0000
1003
0010
1000
0001
0010
0001
,
0010
0000
0000
0010
0100
0000
0000
0100
1000
0000
0010
0000
0100
0000
0001
0000
,
1001
0000
1000
0100
0110
0000
0001
0100
,
0000
0000
0110
0000
0000
0000
1000
0000
0001
1000
0100
0010
0001
0000
0100
0000
,
0002
0000
0103
0001
0100
0010
1000
0100
,
2000
0010
3002
0203
,
0320
0001
0100
1000
,
2030
0000
0100
0000
3001
1000
0100
0010
,
0002
0000
0000
0000
0013
0000
0001
0010
0100
0000
1000
0000
0100
0000
0010
0000
,
0001
1000
0100
1000
0001
1000
0010
0100
,
0002
0010
1000
0100
,
1000
0000
0000
0000
0103
0000
0001
1000
0001
0010
0100
0000
0010
0000
0001
0000
,
1001
2001
0000
3001
1000
0100
1000
0001
,
1000
0010
0100
0010
1000
0100
1000
0010
,
1001
0000
1002
0000
0013
0001
0020
0000
0000
0000
0130
0000
0010
0000
0001
0000
,
1000
0000
0010
1000
0001
0010
0001
1000
0010
0100
0001
1000
0100
0010
0100
0000
,
1001
0000
2001
0000
3010
1000
0020
0000
0000
0000
0130
0000
0001
0000
0010
0000
,
0100
0010
0100
1000
0001
0010
0001
1000
0001
0100
0010
0100
0001
1000
0100
0000
,
1001
0000
1002
0000
0013
0001
1000
0001
0100
0001
1000
0001
0010
0001
1000
0001
,
0100
0010
1000
0010
0100
0001
1000
0001
0010
0100
1000
0010
0100
0001
1000
0100
,
1000
0010
1000
0010
0100
0001
1000
0100
,
0010
0000
0001
0000
1000
0010
0000
0001
,
0010
0000
1000
0000
0100
0001
0000
0100
,
1000
0000
0010
0000
0100
0001
0000
1000
,
0100
0010
0100
0010
0001
1000
0010
0100
,
0001
1000
0100
0000
0010
0000
0001
0000
,
1000
0000
0010
0100
0000
0001
0000
1000
,
0100
0010
0002
0003
,
1000
0001
0010
0001
1000
0100
0010
0001
,
1000
0100
2000
3020
0230
0302
0023
0230
,
1300
0010
1000
0001
1000
0100
0010
0100
,
1000
0001
2000
3020
0230
0302
0203
0320
,
1030
0001
0010
0001
1000
0001
0010
0100
,
1000
0010
2000
3200
0320
0032
0023
0230
,
1300
0001
0010
0001
0100
0010
1000
0100
,
1000
0001
0010
0001
0100
0010
1000
0100
,
0020
0000
0030
1200
,
0310
0001
0100
0010
2010
0000
0001
0000
,
0010
0000
3100
0010
0001
0010
0200
0000
,
0310
1000
0010
0100
1000
0001
0100
0010
,
0001
1000
0100
0010
1000
0000
0001
0100
,
0001
0100
0010
1000
0010
1000
0100
0001
,
1000
0010
0001
1000
0010
0001
0011
0010
,
1000
0001
1001
0001
0010
0100
0000
0000
,
0110
1010
0011
2200
,
0000
0000
0000
0000
,
0000
3300
0000
0000
;

//---------------dance-single - X-Scale 12----------------
#NOTES:
     dance-single:
     9646_DSP:
     Medium:
     8:
     0.523965,0.583128,0.406181,0.278871,0.015156,605.000000,538.000000,67.000000,46.000000,0.000000,0.000000,0.523965,0.583128,0.406181,0.278871,0.015156,605.000000,538.000000,67.000000,46.000000,0.000000,0.000000:
0000
0000
0000
0000
,
1100
0000
1000
0100
0001
0000
0011
0000
,
1000
0010
0001
0100
1000
0000
1100
0000
,
0001
1000
0010
0001
0010
1000
0001
0010
,
1000
0010
0001
0000
0010
0000
1010
0000
,
0100
0100
0100
0000
0110
0000
1001
0000
,
0001
0100
1000
0010
0001
0000
0011
0000
,
1000
0001
0100
1000
0100
0001
0010
0100
,
0010
0000
0010
0000
0010
0100
0010
0100
,
0110
0000
0001
1000
0100
1000
0010
0100
,
0110
0000
1000
0001
0100
0001
0010
0100
,
0010
1100
0010
0101
,
0010
0100
1000
0100
0010
0001
0010
0100
,
1000
0000
0101
0000
0001
0010
0100
0010
,
0001
0000
1100
0000
1000
0001
0100
0010
,
0010
0000
0101
0000
1000
0100
0010
0100
,
0100
0000
1100
0000
1000
0001
0100
0000
,
0110
0000
0011
0000
1100
0000
0010
1000
,
1000
0000
1100
0000
0010
0000
0010
0100
,
1100
0000
0001
0000
0010
0000
0010
0100
,
0101
0000
0002
0000
0023
0000
0230
0300
,
0110
0000
0001
0000
1000
0100
1000
0001
,
1001
0000
0010
0000
0100
0000
0100
0010
,
1010
0002
0203
0320
,
1030
1000
0100
0010
0001
0000
0110
0000
,
1001
0110
1100
0101
,
1000
0100
0001
0000
0001
0100
1000
0000
,
1100
0001
0110
0001
,
1000
0010
0001
0000
0001
0010
1000
0000
,
1001
1100
1010
0101
,
0010
1000
0100
0000
0100
1000
0010
0000
,
1010
0100
1001
0010
,
0100
0020
0000
0030
,
1001
0000
0010
0010
,
0110
0000
0001
1000
0010
0100
0001
1000
,
0100
0000
1100
0000
1000
0001
0100
0000
,
0010
0000
0010
0100
0001
0010
0100
0010
,
0011
0000
1100
0000
1000
0010
0100
0000
,
1010
0000
0101
0000
0001
0010
0100
0000
,
1000
0100
0010
0100
1000
0010
0100
0001
,
0010
0000
0010
0000
0100
1000
0001
0010
,
0200
0000
0302
0000
,
2003
0000
3020
0000
,
0031
0100
0001
0000
1000
0100
1000
0000
,
1001
0000
0010
0000
0100
0001
1000
0000
,
0100
0010
0001
0000
0100
0010
1000
0000
,
0100
0010
0001
0010
0100
1000
0100
1000
,
0001
0010
0001
0000
1000
0010
1000
0000
,
1001
0020
0230
0320
,
0031
0100
0010
0000
1000
0100
0010
0000
,
0100
1000
0100
1000
0010
0100
0010
0000
,
1001
0010
0100
0000
1001
0100
0010
0000
,
0011
0001
0100
0000
1010
1000
0100
0000
,
1000
0100
1000
0100
0010
0001
0010
0001
,
1000
0100
1000
0010
0100
0001
0100
0001
,
0020
0000
0130
1000
0100
0010
0100
1000
,
0001
0000
1001
0000
1000
0001
0100
0010
,
1000
0100
1000
0001
0100
0010
1000
0100
,
0010
0001
0010
0100
0010
0001
0100
0010
,
2000
0000
3100
0001
0100
1000
0001
0010
,
2000
3020
0032
0023
,
0130
1000
0001
1000
0100
1000
0010
0100
,
0020
0001
0100
1000
,
1030
0100
0020
0000
0032
0000
2003
0000
,
3020
0000
0130
0001
0100
0010
1000
0100
,
0010
0100
1000
0001
0010
0100
0010
0001
,
1000
0010
0100
0001
0010
0100
1000
0001
,
0001
2000
0000
0000
0000
0000
0000
0000
,
0100
0000
0000
0010
0000
0000
3001
0000
,
0010
0200
0000
0000
0000
0000
0000
0000
,
0320
0000
0000
0000
0031
0001
0100
0010
,
1000
0002
0000
0000
0000
0000
0000
0000
,
0010
0000
0000
0100
0000
0000
1003
0000
,
0100
0020
0000
0000
0130
0010
0010
0001
,
0100
0020
0000
0000
0130
0010
1000
0001
,
1001
0000
0110
0000
0001
0010
1000
0010
,
0001
0000
0000
0011
0000
0000
0001
0000
0100
0010
0000
0000
,
1000
0000
0000
1100
0000
0000
0001
0000
0100
1000
0000
0000
,
0100
0000
0000
0101
0000
0000
1000
0000
0010
0001
0000
0000
,
0010
0100
0001
0000
0010
0100
0001
0100
,
0010
0000
0000
0110
0000
0000
0001
0000
1000
0010
0000
0000
,
0100
0000
0000
1010
0000
0000
0001
0000
0010
0100
0000
0000
,
1000
0100
0000
0010
0000
0002
0000
0000
,
1003
0000
2001
0000
,
3001
0000
0100
0010
1000
0100
0010
0100
,
0010
0000
0001
0100
0010
0100
0000
0010
,
2000
0000
3001
0100
0000
0000
0001
0000
,
1001
0000
0100
0001
0000
0100
0000
1000
,
0200
0000
0310
0001
0000
0000
0010
0000
,
0200
0000
1300
0100
0000
0000
0010
0000
,
0002
0000
0103
0010
0000
0000
1000
0000
,
2002
0000
3003
1001
,
0001
0010
1000
0000
0201
0000
2300
0000
,
3020
0000
0230
0000
0320
0000
1030
0100
,
0010
0000
0001
0010
0100
0000
1000
0010
,
0100
0001
0100
0010
1000
0000
0100
0010
,
0001
0010
0100
0010
0001
0010
0100
1000
,
0010
0100
0001
0010
0100
1000
1100
1000
,
0001
0100
0110
0010
1000
0001
0000
0000
,
0010
0100
1001
0220
,
0000
0000
0000
0000
,
0000
0330
0000
0000
;

//---------------dance-single - X-Scale 5----------------
#NOTES:
     dance-single:
     9646_BEG:
     Beginner:
     3:
     0.199193,0.285085,0.218247,0.139435,0.000000,230.000000,194.000000,36.000000,23.000000,0.000000,0.000000,0.199193,0.285085,0.218247,0.139435,0.000000,230.000000,194.000000,36.000000,23.000000,0.000000,0.000000:
0000
0000
0000
0000
,
0110
0000
0001
0000
,
0010
0010
0010
0000
,
0001
0000
0100
0000
,
1000
0000
0000
0000
,
0010
0010
0010
0000
,
0100
0100
0100
0000
,
1000
0000
0010
0000
,
0001
0001
0001
0000
,
1001
0000
0001
0000
,
1000
0000
1000
0000
,
0002
0003
2000
3000
,
0001
0001
0001
0000
,
0110
0000
0010
0000
,
0100
0000
0100
0000
,
1001
0000
0000
0000
,
0110
0000
0000
0000
,
1001
0000
1001
0000
,
0010
0000
0100
0100
,
0100
0000
0001
0001
,
0001
0000
0010
0000
,
0110
0000
0110
0000
,
0001
0000
1000
1000
,
1000
0000
0010
0010
,
0010
0000
0100
0000
,
1001
0000
0110
0000
,
0100
0100
0100
0000
,
0110
0000
1001
0000
,
0001
0001
0001
0000
,
1001
0000
0110
0000
,
0010
0010
0010
0000
,
0110
0000
1001
0000
,
1000
2000
0000
3000
,
1001
0000
0000
0000
,
1001
0000
0001
0000
,
0100
0100
0100
0000
,
0010
0000
1000
1000
,
1000
0000
1000
0000
,
0100
0000
0001
0001
,
0001
0000
0001
0000
,
0010
0000
1000
0000
,
0200
0000
0000
0000
,
0000
0000
0000
0300
,
0010
0000
0010
0010
,
0010
0000
0000
0000
,
0100
0000
0010
0000
,
0100
0100
0100
0000
,
1000
0000
0010
0000
,
0001
0001
0001
0000
,
1000
0000
0100
0000
,
0001
0000
0001
0000
,
1001
0000
1001
0000
,
0110
0000
0110
0000
,
0001
0000
1000
0000
,
0001
0001
0001
0000
,
0110
0000
0110
0000
,
1001
0000
1001
0000
,
0010
0000
0100
0000
,
0020
0030
0200
0300
,
0100
0000
0100
0000
,
0010
0000
0010
0000
,
0001
0000
0001
0000
,
0002
0000
0003
0000
,
0100
0000
0100
0000
,
0010
0000
0010
0000
,
1000
0000
1000
0000
,
1000
0000
0001
0000
,
2002
0000
0000
0000
,
3003
0000
0000
0000
,
0220
0000
0000
0000
,
0330
0000
0000
0000
,
2002
0000
0000
0000
,
3003
0000
0000
0000
,
0220
0000
0000
0000
,
0330
0000
0000
0000
,
1000
0000
0100
0000
,
0010
0000
0000
0000
,
0010
0000
0000
0000
,
0010
0000
0000
0000
,
0001
0000
0100
0000
,
0010
0000
0000
0000
,
0110
0000
0000
0000
,
0010
0000
0001
0000
,
2000
0000
0000
0000
,
3000
0000
0100
0000
,
0002
0000
0000
0000
,
0003
0000
1000
0000
,
0020
0000
0000
0000
,
0030
0000
0001
0000
,
0200
0000
0300
0000
,
0020
0000
0030
0000
,
0200
0300
0000
1001
,
0000
0100
0000
0010
,
0010
0010
0000
0001
,
0000
0010
0000
0100
,
0100
0100
0000
1000
,
1000
1000
0000
0001
,
0001
0001
0001
1001
,
0000
0110
0010
0000
,
0000
0100
0000
2002
,
0000
0000
0000
0000
,
0000
3003
0000
0000
,
0000
0000
0000
1000
,
0000
0001
0000
1000
,
1000
1000
1000
0000
;

//---------------dance-single - X-Scale 8----------------
#NOTES:
     dance-single:
     9646_BSP:
     Easy:
     5:
     0.334298,0.429673,0.394056,0.284933,0.000000,386.000000,321.000000,65.000000,47.000000,0.000000,0.000000,0.334298,0.429673,0.394056,0.284933,0.000000,386.000000,321.000000,65.000000,47.000000,0.000000,0.000000:
// measure 0
0000
0000
0000
0000
,  // measure 1
0110
0100
1001
0000
,  // measure 2
0010
0010
0010
0000
,  // measure 3
0100
0001
0010
1000
,  // measure 4
0100
0100
0000
0100
,  // measure 5
0010
0010
0110
0000
,  // measure 6
0001
0001
0001
0000
,  // measure 7
1000
0100
0001
0010
,  // measure 8
1000
1000
1000
1000
,  // measure 9
1001
0101
0001
1000
,  // measure 10
1100
1001
0100
0001
,  // measure 11
1000
1100
0001
0101
,  // measure 12
0010
1010
0010
0011
,  // measure 13
0110
1000
0001
0001
,  // measure 14
0010
0100
1000
1000
,  // measure 15
1100
0000
0010
0001
,  // measure 16
0101
0000
0010
1000
,  // measure 17
0101
0001
0001
0010
,  // measure 18
1100
0000
1010
0001
,  // measure 19
0110
0000
1001
0010
,  // measure 20
0101
0010
1200
0301
,  // measure 21
1001
0100
0100
0010
,  // measure 22
0011
0000
1010
0100
,  // measure 23
1001
2000
3200
0302
,  // measure 24
0013
0010
0200
0310
,  // measure 25
1001
0100
1001
0100
,  // measure 26
0010
0010
0010
0100
,  // measure 27
1010
0100
1010
0001
,  // measure 28
1000
1000
1000
0001
,  // measure 29
0101
0010
0101
1000
,  // measure 30
0001
0001
0001
1000
,  // measure 31
1001
0010
1001
0010
,  // measure 32
0100
0200
0000
0300
,  // measure 33
1001
0000
0010
0010
,  // measure 34
0110
0010
0001
1000
,  // measure 35
0100
0001
0010
1000
,  // measure 36
0010
0010
0100
0001
,  // measure 37
1100
0000
1000
0001
,  // measure 38
1000
1000
1000
0010
,  // measure 39
0100
0100
0001
0001
,  // measure 40
0010
0100
1000
1000
,  // measure 41
0002
0000
0023
0000
,  // measure 42
0230
0000
2300
0000
,  // measure 43
3001
0001
0001
0100
,  // measure 44
1001
0000
0001
0010
,  // measure 45
0100
0100
0100
1000
,  // measure 46
0110
0000
0001
0001
,  // measure 47
1000
1000
1000
0010
,  // measure 48
1001
2000
3200
0320
,  // measure 49
0031
0001
0001
0010
,  // measure 50
0001
0100
0010
1000
,  // measure 51
1001
0000
0101
0000
,  // measure 52
1100
0000
0011
0000
,  // measure 53
0001
0001
1000
1000
,  // measure 54
0010
0001
0100
1000
,  // measure 55
1010
0100
0001
1000
,  // measure 56
0010
0011
0100
1100
,  // measure 57
0001
0100
0010
0100
,  // measure 58
0002
0023
2030
3002
,  // measure 59
0203
0000
1300
1000
,  // measure 60
0001
0101
0010
1010
,  // measure 61
0001
0010
1000
0100
,  // measure 62
0001
0001
0010
0010
,  // measure 63
0100
1000
0010
0100
,  // measure 64
0020
0000
1030
1000
,  // measure 65
0001
0010
1000
0001
,  // measure 66
1000
0010
0001
0100
,  // measure 67
0220
0000
0000
0300
,  // measure 68
0001
0000
1000
0030
,  // measure 69
2002
0000
0000
0003
,  // measure 70
0100
0000
0010
3010
,  // measure 71
0220
0000
0000
0030
,  // measure 72
2000
3000
0002
0303
,  // measure 73
2002
3000
0020
0033
,  // measure 74
2100
0000
0002
3003
,  // measure 75
1001
0001
1000
0010
,  // measure 76
0100
0010
0000
0010
,  // measure 77
0100
0001
0000
0001
,  // measure 78
1000
0100
0000
0100
,  // measure 79
1000
1000
0001
0100
,  // measure 80
0010
0100
0000
0010
,  // measure 81
1000
1000
0000
1000
,  // measure 82
0001
0000
0020
0000
,  // measure 83
0130
0000
0120
0000
,  // measure 84
0031
0000
1000
0100
,  // measure 85
1100
1000
0001
0000
,  // measure 86
0202
0000
0303
0000
,  // measure 87
0010
0010
0100
0000
,  // measure 88
2200
0000
3300
0000
,  // measure 89
2020
0000
3030
0000
,  // measure 90
0022
0000
0033
0000
,  // measure 91
0200
0000
0300
1001
,  // measure 92
1000
0100
0021
0000
,  // measure 93
1000
0000
1000
0031
,  // measure 94
0001
1000
1000
0010
,  // measure 95
0001
0020
0030
1000
,  // measure 96
1000
0100
0100
0001
,  // measure 97
0010
1000
0100
0101
,  // measure 98
0000
0011
1000
0000
,  // measure 99
0001
0100
1000
2002
,  // measure 100
0000
0000
0000
0000
,  // measure 101
0000
3003
0000
0000
;
