#VERSION:0.83;
#TITLE:glacia;
#SUBTITLE:;
#ARTIST:DJ TOTTO;
#TITLETRANSLIT:;
#SUBTITLETRANSLIT:;
#ARTISTTRANSLIT:;
#GENRE:Artcore;
#ORIGIN:;
#CREDIT:;
#BANNER:[Your Name] - glacia.png;
#BACKGROUND:[Your Name] - glacia-bg.png;
#PREVIEWVID:;
#JACKET:[Your Name] - glacia-jacket.png;
#CDIMAGE:;
#DISCIMAGE:;
#LYRICSPATH:;
#CDTITLE:cdtitle.png;
#MUSIC:[Your Name] - glacia.ogg;
#OFFSET:0.638241;
#SAMPLESTART:23.877953;
#SAMPLELENGTH:10.322580;
#SELECTABLE:YES;
#DISPLAYBPM:93.000000:186.000000;
#BPMS:0.000=186.000,
68.000=93.000,
71.500=372.000,
72.000=186.000,
136.000=93.000,
152.000=186.000,
184.000=93.000,
200.000=186.000,
304.000=93.000;
#STOPS:71.875=0.242;
#DELAYS:;
#WARPS:;
#TIMESIGNATURES:0.000=4=4;
#TICKCOUNTS:0.000=4;
#COMBOS:0.000=1;
#SPEEDS:0.000=1.000=0.000=0;
#SCROLLS:0.000=1.000;
#FAKES:;
#LABELS:0.000=Song Start;
#BGCHANGES:;
#KEYSOUNDS:;
#ATTACKS:
;

//---------------dance-single - ----------------
#NOTEDATA:;
#CHARTNAME:11-16;
#STEPSTYPE:dance-single;
#DESCRIPTION:;
#CHARTSTYLE:;
#DIFFICULTY:Challenge;
#METER:11;
#RADARVALUES:0.839685,1.270540,0.442964,0.494075,0.805002,690.000000,638.000000,52.000000,58.000000,4.000000,0.000000,0.000000,0.000000,0.000000,0.839685,1.270540,0.442964,0.494075,0.805002,690.000000,638.000000,52.000000,58.000000,4.000000,0.000000,0.000000,0.000000,0.000000;
#CREDIT:;
#OFFSET:0.638241;
#BPMS:0.000000=186.000000
,68.000000=93.000000
,71.500000=372.000000
,72.000000=186.000000
,136.000000=93.000000
,152.000000=186.000000
,184.000000=93.000000
,200.000000=186.000000
,304.000000=93.000000
;
#STOPS:71.875000=0.241936
;
#DELAYS:;
#WARPS:;
#TIMESIGNATURES:0.000000=4=4
;
#TICKCOUNTS:0.000000=4
;
#COMBOS:0.000000=1
;
#SPEEDS:0.000000=1.000000=0.000000=0
;
#SCROLLS:0.000000=1.000000
;
#FAKES:;
#LABELS:0.000000=Song Start
;
#DISPLAYBPM:93.000000:186.000000;
#NOTES:
// measure 0
0000
0000
0000
0000
,  // measure 1
0000
0000
0000
0000
,  // measure 2
0000
0000
0000
0000
,  // measure 3
0000
0000
0000
0000
,  // measure 4
0000
0000
0000
0000
,  // measure 5
0000
0000
0000
0000
,  // measure 6
0000
0000
0000
0000
,  // measure 7
0000
0000
0000
0000
,  // measure 8
0000
0000
0000
0110
,  // measure 9
1001
0000
1000
0100
1000
0000
0100
0000
0010
0000
0001
0000
0000
0000
0011
0000
,  // measure 10
0000
0000
1010
0000
0000
0000
0001
0010
0001
0000
1000
0000
0001
0000
0100
0000
,  // measure 11
0000
0000
0001
0100
0001
0000
0100
0000
0010
0000
1000
0000
0000
0000
1010
0000
,  // measure 12
0000
0000
0011
0000
0000
0000
1000
0010
1000
0000
0001
0000
1000
0000
0100
0000
,  // measure 13
0000
0000
0010
0100
0010
0000
0001
0000
1000
0000
0010
0000
0000
0000
0101
0000
,  // measure 14
0000
0000
1100
0000
0000
0000
0001
0100
0001
0000
1000
0000
0100
0000
1000
0000
,  // measure 15
0000
0000
0001
1000
0001
0000
1000
0000
0001
0000
0100
0000
0010
0000
1000
0000
,  // measure 16
0000
0000
0110
0000
0000
0000
1000
0001
0010
0001
0010
0000
0100
0000
1000
0000
,  // measure 17
0002
0000
0203
0000
0300
0000
0020
0000
0030
0000
0200
0000
0320
0000
2030
0000
3000
0000
0001
0010
0100
0010
0100
0010
0001
1000
0001
0100
0020
0000
0000
0030
,  // measure 18
1000
0000
0010
1000
0100
1000
0100
0000
0010
0000
0001
0000
0100
0000
1000
0000
,  // measure 19
0000
0000
1000
0000
0100
0000
0010
0100
0001
0000
1000
0000
0100
0000
0100
0000
,  // measure 20
0010
0000
0100
1000
0100
1000
0010
0000
0100
0000
0001
0000
0010
0000
1000
0000
,  // measure 21
0000
0000
1000
0000
0010
0000
0001
0100
0010
0000
0100
0001
0100
0001
1000
0000
,  // measure 22
0001
0000
0010
0100
0010
0001
0010
0000
0100
0010
0001
1000
0010
0000
0100
0010
,  // measure 23
0100
0001
0100
0000
0010
0000
1000
0001
0010
0000
0100
0010
0100
0000
1000
0000
,  // measure 24
0000
0000
1000
0000
0010
0100
0010
1000
0001
0000
0011
0000
0000
0000
1010
0000
,  // measure 25
0000
0000
0011
0000
1000
0010
1000
0010
0100
0001
1000
0000
0100
0000
0010
0000
,  // measure 26
0001
0000
0010
0001
0100
0001
0100
0000
0010
0000
1000
0000
0100
0000
0001
0000
,  // measure 27
0000
0000
0001
0000
0100
0000
0010
0100
1000
0000
0001
0000
0100
0000
0100
0000
,  // measure 28
0010
0000
0100
0001
0100
0001
0010
0000
0100
0000
1000
0000
0010
0000
0101
0000
,  // measure 29
0000
0000
0011
0000
0000
0000
1000
0010
1000
0000
0100
0000
0010
0000
0001
0000
,  // measure 30
1000
0000
0010
0100
0010
1000
0010
0000
0100
0010
1000
0001
0010
0000
0100
0010
,  // measure 31
0100
1000
0100
0000
0010
0000
0001
1000
0010
0000
0100
0010
0100
0000
0001
0000
,  // measure 32
0000
0000
0001
0100
0001
0100
0010
1000
0100
0000
0010
0000
0001
0000
0011
0000
,  // measure 33
0000
0000
1010
0000
0001
0000
0100
0001
1000
0100
1000
0100
0010
0001
1000
0010
,  // measure 34
0100
0000
0000
0000
0000
0000
0000
0000
0002
0000
0000
0000
0000
0000
0000
0000
2003
0000
0000
0000
0000
0000
0000
0000
3200
0000
0000
0000
0000
0000
0310
0100
,  // measure 35
2000
0000
0000
0000
0000
0000
0000
3000
,  // measure 36
0000
0000
0000
0000
0000
0000
0000
0000
2000
0000
0000
0000
0000
0000
0000
0000
3002
0000
0000
0000
0000
0000
0000
0000
0203
0000
0000
0000
0000
0000
0310
0100
,  // measure 37
0002
0000
0000
0000
0000
0000
0000
0000
0000
0000
0000
0000
0000
0000
0000
0000
0000
0000
0000
0000
0000
0000
0000
0000
0000
0000
0000
0000
0023
0000
0000
0000
0000
0000
0000
0000
2030
0000
0000
0000
3020
0000
0000
0000
0032
0000
0000
0000
0000
0000
0000
0000
0000
0000
0000
0000
0000
0000
0000
0000
0000
0000
0000
0003
,  // measure 38
0101
0100
0010
1010
0000
1010
0010
0100
,  // measure 39
0102
0000
0000
0000
0000
0000
0000
0000
0000
0000
0000
0000
0000
0000
0000
0000
2003
0000
0000
0000
0000
0000
0000
0000
0000
0000
0000
3000
1100
0000
0000
0000
,  // measure 40
0100
0010
0011
0000
0011
0010
0100
2100
,  // measure 41
0000
0000
0000
0000
0000
0000
0000
0000
0000
0000
0000
0000
0000
0000
0000
0000
3020
0000
0000
0000
0000
0000
0000
0000
0000
0000
0000
0000
0000
0000
0000
0030
,  // measure 42
1010
0100
0010
0101
0000
0011
0100
0010
,  // measure 43
2100
0000
0000
0000
0000
0000
0000
0000
0000
0000
0000
0000
0000
0000
0000
0000
3200
0000
0000
0000
0000
0000
0000
0000
0000
0000
0000
0300
1100
0000
0000
0000
,  // measure 44
0010
0001
1010
0000
0101
0010
1000
0021
,  // measure 45
0000
0000
0031
0000
0010
0001
1000
0010
0100
0000
0010
0000
MMMM
0000
0000
0000
,  // measure 46
0001
0000
1000
0100
0010
0000
0001
0000
0000
0000
0001
0000
0100
0000
0020
0000
0000
0000
0130
0001
0100
0001
1000
0100
0010
0000
0100
0000
0010
0000
0001
0000
,  // measure 47
1000
0000
0001
0100
0010
0000
1000
0000
0000
0000
1000
0000
0100
0000
0002
0000
0000
0000
0203
0000
0000
0000
0310
0100
0010
0000
0100
0000
1000
0000
0010
0000
,  // measure 48
0100
0000
0010
1000
0001
0000
0010
0000
0000
0000
0010
0000
0001
0000
2000
0000
0000
0000
3001
0010
0001
1000
0010
1000
0001
0000
0010
0000
0100
0000
1000
0000
,  // measure 49
0001
0000
0100
0010
0100
0000
0010
0000
1000
0000
0100
0000
0010
0000
0011
0000
0000
0000
1100
0000
0000
0000
0101
0000
0000
0000
1010
0000
0001
0000
0010
0000
,  // measure 50
0001
0000
0100
0001
0010
0001
0020
0000
0130
0000
0020
0000
2030
0000
3020
0000
,  // measure 51
0130
0000
0010
0001
1000
0001
1000
0001
0200
0000
2300
0000
3200
0000
0302
0000
,  // measure 52
0013
0000
0000
0000
0100
0000
1000
0000
0010
0000
1000
0000
0020
0000
0000
0000
0130
0000
0000
0000
0020
0000
0000
0000
2030
0000
0000
3000
1010
0000
0000
0000
,  // measure 53
0000
0000
0011
0000
0000
0000
1000
0010
0200
0000
0302
0000
0023
0000
0230
0000
,  // measure 54
1300
0000
0001
0100
0010
1000
0200
0000
0310
0000
0200
0000
0302
0000
0203
0000
,  // measure 55
0310
0000
0100
1000
0001
0100
0001
0100
0020
0000
0032
0000
0023
0000
2030
0000
,  // measure 56
3100
0000
0010
0100
0010
0000
0001
0000
1000
0000
0001
0000
0100
0000
1010
0000
,  // measure 57
0000
0000
0011
0000
1000
0000
0010
0000
0100
0001
1000
0100
0010
0000
0001
0000
,  // measure 58
0101
0010
0100
1010
0000
0101
0000
1001
,  // measure 59
0000
0000
0011
0000
0100
0000
1000
0000
0001
0010
0100
1000
0001
1000
0100
0010
,  // measure 60
0001
0000
0100
0010
1000
0010
0100
0000
0010
0000
1000
0000
0010
0000
0001
0000
,  // measure 61
0010
0000
1000
0000
0010
0000
0100
0001
1000
0000
0100
0000
0001
0000
0100
0000
,  // measure 62
1000
0000
0001
0010
0100
0010
0001
0000
1000
0000
0010
0000
0001
0000
1000
0000
,  // measure 63
0100
0000
0001
0000
1000
0000
0100
0010
0001
0010
0100
0000
1000
0000
0010
0000
,  // measure 64
1000
0000
0001
0100
0001
0010
0001
0000
1000
0100
1000
0010
1000
0000
0010
1000
,  // measure 65
0100
0010
0001
0000
0010
0000
1000
0000
0010
0000
0100
1000
0001
0000
0100
0000
,  // measure 66
1000
0000
0100
0000
0010
0100
0001
1000
0100
0000
0011
0000
0000
0000
1001
0000
,  // measure 67
0000
0000
1010
0000
0001
0010
0001
0010
0100
1000
0001
0000
0100
0000
0010
0000
,  // measure 68
1000
0000
0100
0010
0001
0010
0100
0000
0010
0000
0001
0000
0010
0000
1000
0000
,  // measure 69
0010
0000
0001
0000
0010
0000
0100
1000
0001
0000
0100
0000
1000
0000
0100
0000
,  // measure 70
0001
0000
1000
0010
0100
0010
1000
0000
0001
0000
0010
0000
0100
0000
0011
0000
,  // measure 71
0000
0000
1010
0000
0000
0000
1000
0010
0100
0001
0010
0000
0100
0000
0010
0000
,  // measure 72
0001
0000
1000
0100
1000
0010
1000
0000
0001
0100
0001
0010
0001
0000
0010
0001
,  // measure 73
0100
0010
1000
0000
0010
0000
0001
0000
0010
0000
0100
0001
1000
0000
0100
0000
,  // measure 74
0010
0000
0100
1000
0100
1000
0001
0100
0010
0000
1000
0000
0100
0000
1001
0000
,  // measure 75
0000
0000
0001
0010
0001
0000
1000
0000
0001
0100
0010
1000
0100
0010
0001
0100
,  // measure 76
0010
0000
0010
1000
0001
0000
0200
0000
0300
0000
0100
0010
1000
0001
0020
0000
0030
0000
0200
0000
1300
0000
0100
0010
0001
0000
0100
0000
0010
0000
2002
0000
,  // measure 77
0000
0000
0000
0000
,  // measure 78
0000
0000
3003
0000
;

//---------------dance-single - ----------------
#NOTEDATA:;
#CHARTNAME:09-13;
#STEPSTYPE:dance-single;
#DESCRIPTION:;
#CHARTSTYLE:;
#DIFFICULTY:Hard;
#METER:9;
#RADARVALUES:0.642541,1.036494,0.323705,0.238519,0.221482,528.000000,490.000000,38.000000,28.000000,4.000000,0.000000,0.000000,0.000000,0.000000,0.642541,1.036494,0.323705,0.238519,0.221482,528.000000,490.000000,38.000000,28.000000,4.000000,0.000000,0.000000,0.000000,0.000000;
#CREDIT:;
#OFFSET:0.638241;
#BPMS:0.000000=186.000000
,68.000000=93.000000
,71.500000=372.000000
,72.000000=186.000000
,136.000000=93.000000
,152.000000=186.000000
,184.000000=93.000000
,200.000000=186.000000
,304.000000=93.000000
;
#STOPS:71.875000=0.241936
;
#DELAYS:;
#WARPS:;
#TIMESIGNATURES:0.000000=4=4
;
#TICKCOUNTS:0.000000=4
;
#COMBOS:0.000000=1
;
#SPEEDS:0.000000=1.000000=0.000000=0
;
#SCROLLS:0.000000=1.000000
;
#FAKES:;
#LABELS:0.000000=Song Start
;
#DISPLAYBPM:93.000000:186.000000;
#NOTES:
// measure 0
0000
0000
0000
0000
,  // measure 1
0000
0000
0000
0000
,  // measure 2
0000
0000
0000
0000
,  // measure 3
0000
0000
0000
0000
,  // measure 4
0000
0000
0000
0000
,  // measure 5
0000
0000
0000
0000
,  // measure 6
0000
0000
0000
0000
,  // measure 7
0000
0000
0000
0000
,  // measure 8
0000
0000
0000
0110
,  // measure 9
1001
1000
0100
0010
0000
0001
0000
0001
,  // measure 10
0000
0100
0000
0100
0010
1000
0100
0010
,  // measure 11
0000
0001
0100
0010
0000
1000
0000
1000
,  // measure 12
0000
0100
0000
0100
0010
0001
0100
0010
,  // measure 13
0000
1000
0001
0010
0000
1000
0000
0010
,  // measure 14
0000
0001
0000
1000
0010
0100
0001
1000
,  // measure 15
0000
0001
1000
0100
0010
0001
0100
0010
,  // measure 16
0000
1000
0000
0010
0001
0010
1000
0001
,  // measure 17
0010
0000
0100
0000
0000
0000
0100
0000
0000
0000
0010
0000
0001
0000
1001
0000
0000
0000
1000
0000
0100
0000
0010
0000
0001
0000
0100
0000
0020
0000
0000
0030
,  // measure 18
1000
0100
1000
0100
0010
0001
0100
1000
,  // measure 19
0000
0100
0000
1000
0100
0001
1000
0100
,  // measure 20
0010
0001
0010
0001
0100
0001
0010
1000
,  // measure 21
0000
0010
0000
1000
0010
0001
1000
0010
,  // measure 22
0100
0001
0001
1000
0100
0100
0010
0001
,  // measure 23
0001
1000
0010
0001
0010
1000
0001
0010
,  // measure 24
0000
0100
0010
0001
1000
0110
0000
0011
,  // measure 25
0000
1010
1000
0001
0010
0100
1000
1000
,  // measure 26
0001
0100
0001
0100
0010
1000
0100
0001
,  // measure 27
0000
0100
0000
0001
0100
1000
0001
0100
,  // measure 28
0010
1000
0010
1000
0100
1000
0010
0101
,  // measure 29
0000
1010
0000
0011
0100
1000
0001
0010
,  // measure 30
0100
1000
1000
0001
0100
0100
0010
1000
,  // measure 31
1000
0001
0010
1000
0010
0001
1000
0100
,  // measure 32
0000
0001
0100
1000
0001
0100
0010
1001
,  // measure 33
0000
0110
1000
0001
0010
1000
0010
0001
,  // measure 34
0100
0000
0000
0000
0002
0000
0000
0000
2003
0000
0000
0000
3200
0000
0000
0310
,  // measure 35
0002
0000
0000
0000
0000
0000
0000
0003
,  // measure 36
0000
0000
0000
0000
2000
0000
0000
0000
3002
0000
0000
0000
0203
0000
0000
0310
,  // measure 37
2000
0000
0000
0000
0000
0000
0000
3020
0000
0032
0023
2030
0000
0000
0000
0000
,  // measure 38
3100
0100
0010
0011
0000
0010
0010
0100
,  // measure 39
2100
0000
0000
0000
3002
0000
0000
0103
,  // measure 40
0100
0010
1010
0000
0010
0010
0100
0102
,  // measure 41
0000
0000
0023
0000
,  // measure 42
0130
1000
0010
1010
0000
0100
0001
0010
,  // measure 43
0012
0000
0000
0000
2003
0000
0000
3010
,  // measure 44
0100
0010
1001
0000
0100
0010
0100
1001
,  // measure 45
0000
1000
0100
0010
0001
0100
MMMM
0000
,  // measure 46
1000
0010
1000
0001
0000
0001
1000
0100
0000
1000
0100
0010
0001
0100
0010
1000
,  // measure 47
0001
0010
0001
1000
0000
1000
0001
0100
0000
0010
0000
0100
0010
1000
0001
0010
,  // measure 48
0100
1000
0010
0100
0000
0010
0100
0001
0000
0100
0001
0010
0100
1000
0100
0010
,  // measure 49
0000
0001
0100
0010
1000
0100
0010
0011
0000
1010
0000
0011
0000
1000
0010
0100
,  // measure 50
0001
0010
0100
0002
0003
0001
0100
0020
,  // measure 51
0030
0100
0010
0001
0010
1000
0010
0001
,  // measure 52
1000
0010
0100
2000
3000
1000
0100
0120
,  // measure 53
0030
0100
0010
1000
0010
0001
0010
1000
,  // measure 54
0100
0010
0001
0200
0300
0001
0100
2000
,  // measure 55
3000
0100
1000
0001
0010
1000
0100
0010
,  // measure 56
0001
1000
0001
0100
0001
1000
0100
0011
,  // measure 57
0000
1100
0010
0001
1000
0010
0001
0010
,  // measure 58
1000
1000
0100
0110
0000
0011
0000
1010
,  // measure 59
0000
0110
0010
0100
0001
0001
1000
0100
,  // measure 60
0010
0001
1000
0010
1000
0001
1000
0100
,  // measure 61
1000
0001
1000
0010
0100
0001
0010
0100
,  // measure 62
1000
0001
0100
0010
0100
0001
0010
1000
,  // measure 63
0010
0100
0010
1000
0010
0001
0100
1000
,  // measure 64
0100
0001
0001
0010
0100
0100
1000
0010
,  // measure 65
0010
0100
0001
0010
1000
0010
0001
0100
,  // measure 66
0010
1000
0010
0001
0010
0110
0000
1010
,  // measure 67
0000
0011
0010
0100
1000
0001
0100
0100
,  // measure 68
0010
1000
0001
0010
0001
1000
0001
0100
,  // measure 69
0001
1000
0001
0010
0100
1000
0010
0100
,  // measure 70
0001
1000
0100
0010
0100
1000
0010
0101
,  // measure 71
0000
0011
0000
1010
0010
1000
0100
0001
,  // measure 72
0100
1000
1000
0010
0100
0100
0001
0010
,  // measure 73
0010
0100
1000
0010
0001
0010
1000
0100
,  // measure 74
0010
0001
0010
1000
0010
0001
0100
1001
,  // measure 75
0000
1010
0100
0001
0010
1000
0010
0001
,  // measure 76
0100
0010
0100
0010
0000
1000
0001
0020
0000
0031
0100
0010
1000
0100
0010
2002
,  // measure 77
0000
0000
0000
0000
,  // measure 78
0000
0000
3003
0000
;

//---------------dance-single - ----------------
#NOTEDATA:;
#CHARTNAME:06-09;
#STEPSTYPE:dance-single;
#DESCRIPTION:;
#CHARTSTYLE:;
#DIFFICULTY:Medium;
#METER:6;
#RADARVALUES:0.453917,0.635270,0.178889,0.136297,0.106482,373.000000,352.000000,21.000000,16.000000,0.000000,0.000000,0.000000,0.000000,0.000000,0.453917,0.635270,0.178889,0.136297,0.106482,373.000000,352.000000,21.000000,16.000000,0.000000,0.000000,0.000000,0.000000,0.000000;
#CREDIT:;
#OFFSET:0.638241;
#BPMS:0.000000=186.000000
,68.000000=93.000000
,72.000000=186.000000
,136.000000=93.000000
,152.000000=186.000000
,184.000000=93.000000
,200.000000=186.000000
,304.000000=93.000000
;
#STOPS:;
#DELAYS:;
#WARPS:;
#TIMESIGNATURES:0.000000=4=4
;
#TICKCOUNTS:0.000000=4
;
#COMBOS:0.000000=1
;
#SPEEDS:0.000000=1.000000=0.000000=0
;
#SCROLLS:0.000000=1.000000
;
#FAKES:;
#LABELS:0.000000=Song Start
;
#DISPLAYBPM:93.000000:186.000000;
#NOTES:
// measure 0
0000
0000
0000
0000
,  // measure 1
0000
0000
0000
0000
,  // measure 2
0000
0000
0000
0000
,  // measure 3
0000
0000
0000
0000
,  // measure 4
0000
0000
0000
0000
,  // measure 5
0000
0000
0000
0000
,  // measure 6
0000
0000
0000
0000
,  // measure 7
0000
0000
0000
0000
,  // measure 8
0000
0000
0000
0110
,  // measure 9
1001
0000
0000
0001
0000
0010
0000
0100
,  // measure 10
0000
0100
0000
0000
0010
0000
0001
0000
,  // measure 11
0000
1000
0000
1000
0000
0010
0000
0100
,  // measure 12
0000
0100
0000
0000
0010
0000
1000
0000
,  // measure 13
0000
0100
0000
0010
0000
0001
0000
1000
,  // measure 14
0000
0010
0000
0000
0100
0000
0100
0000
,  // measure 15
0000
0010
0000
1000
0001
0000
0001
0010
,  // measure 16
0000
0100
0000
0100
0010
0000
0001
0000
,  // measure 17
2000
0000
0000
0000
0000
0000
0000
3010
0000
0100
0010
0100
0001
0000
1001
0000
,  // measure 18
1000
0100
1000
0100
0000
0010
0000
0001
,  // measure 19
0000
0001
0000
0010
0001
1000
0010
0000
,  // measure 20
0100
0001
0100
0000
0001
0100
0010
1000
,  // measure 21
0000
0001
0000
1000
0100
0010
0001
0000
,  // measure 22
1000
0010
0100
0000
0100
0001
0000
0001
,  // measure 23
0010
0000
0100
0000
0010
0001
1000
0000
,  // measure 24
0001
0100
0010
0000
0100
0001
0000
0110
,  // measure 25
0000
1000
0010
0000
1000
0100
0010
0000
,  // measure 26
0001
0100
0001
0100
0000
0010
0000
1000
,  // measure 27
0000
1000
0000
0010
1000
0001
0010
0000
,  // measure 28
0100
1000
0100
0000
1000
0100
0010
0001
,  // measure 29
0000
0110
0000
0001
0100
0010
1000
0000
,  // measure 30
0001
0010
0100
0000
0100
1000
0000
1000
,  // measure 31
0010
0000
0100
0000
0010
1000
0001
0000
,  // measure 32
0010
0001
0100
0000
0100
0010
0000
1010
,  // measure 33
0000
0001
0100
0000
0010
1000
0100
0010
,  // measure 34
0100
2000
3020
0032
,  // measure 35
0023
0000
0000
0000
0000
0000
0000
0030
,  // measure 36
0000
2000
3200
0302
,  // measure 37
0203
0000
0000
0000
0000
0000
0000
2300
0000
3010
0100
0002
0000
0000
0000
0000
,  // measure 38
1003
0100
1000
0100
0000
0100
0001
0100
,  // measure 39
0001
0000
0000
0000
0000
0000
0000
0001
,  // measure 40
0010
0001
0010
0000
0010
1000
0010
1000
,  // measure 41
0000
0000
0000
0000
,  // measure 42
0001
0010
0001
0010
0000
1000
0010
1000
,  // measure 43
0010
0000
0000
0000
0000
0000
0000
1000
,  // measure 44
0100
1000
0100
0000
0001
0100
0001
0100
,  // measure 45
0000
0000
0001
1000
0100
0000
0110
0000
,  // measure 46
1001
0000
0000
0001
0000
0100
0000
0010
0000
0000
1000
0000
0100
0000
0010
0000
,  // measure 47
0001
0000
0000
1000
0000
0010
0000
0100
0000
0001
0000
0000
0010
0000
0100
0000
,  // measure 48
1000
0000
0000
0010
0000
0001
0000
0010
0000
0000
1000
0000
0100
0000
0001
0000
,  // measure 49
0100
0000
1000
0000
0010
0000
0000
1010
0000
0101
0000
0011
0000
2100
0000
0000
,  // measure 50
3001
0010
0001
0010
0000
0010
0001
1000
,  // measure 51
0000
0100
0010
0000
0001
0100
0010
0000
,  // measure 52
1000
0010
1000
0010
0000
0010
1000
0001
,  // measure 53
0000
0010
0000
0100
0010
0100
1000
0000
,  // measure 54
0001
0100
0001
0100
0000
0100
1000
0100
,  // measure 55
0000
0100
0001
0000
1000
0100
0010
0000
,  // measure 56
0100
0000
0100
0000
0010
0001
1000
0010
,  // measure 57
0000
0101
0000
1100
0000
0001
0010
0100
,  // measure 58
2000
0000
0000
3100
0000
0011
0000
1010
,  // measure 59
0000
0001
0010
0100
0020
0000
0030
0000
,  // measure 60
0001
0100
0010
0100
,  // measure 61
0001
0000
0010
0000
0100
1000
0001
1000
,  // measure 62
0100
0001
0100
1000
,  // measure 63
0010
0000
0001
0000
0010
0100
0010
1000
,  // measure 64
0000
1000
0100
0000
0100
0010
0000
0010
,  // measure 65
0001
0000
0100
0010
1000
0000
0001
0000
,  // measure 66
1000
0100
0010
0000
0001
0100
0000
1010
,  // measure 67
0000
0101
0000
1000
0100
0010
0001
0000
,  // measure 68
1000
0100
0010
0100
,  // measure 69
1000
0000
0010
0000
0100
0001
1000
0001
,  // measure 70
0100
0000
1000
0000
0100
0000
0001
0010
,  // measure 71
0000
1100
0000
0100
0010
0100
0010
0001
,  // measure 72
0000
0001
0100
0000
0100
0010
0000
0010
,  // measure 73
1000
0000
0100
0010
0001
0000
1000
0000
,  // measure 74
0001
0100
0010
0000
1000
0100
0010
0001
,  // measure 75
0000
0110
0000
0001
0100
0010
1000
0000
,  // measure 76
0100
0000
0000
0100
0000
0010
0000
0001
0000
0100
0000
0000
0100
0000
0000
2002
,  // measure 77
0000
0000
0000
0000
,  // measure 78
0000
0000
3003
0000
;

//---------------dance-single - ----------------
#NOTEDATA:;
#CHARTNAME:04-06;
#STEPSTYPE:dance-single;
#DESCRIPTION:;
#CHARTSTYLE:;
#DIFFICULTY:Easy;
#METER:4;
#RADARVALUES:0.296932,0.468094,0.230001,0.195926,0.008519,244.000000,217.000000,27.000000,23.000000,0.000000,0.000000,0.000000,0.000000,0.000000,0.296932,0.468094,0.230001,0.195926,0.008519,244.000000,217.000000,27.000000,23.000000,0.000000,0.000000,0.000000,0.000000,0.000000;
#CREDIT:;
#OFFSET:0.638241;
#BPMS:0.000000=186.000000
,68.000000=93.000000
,72.000000=186.000000
,136.000000=93.000000
,152.000000=186.000000
,184.000000=93.000000
,200.000000=186.000000
,304.000000=93.000000
;
#STOPS:;
#DELAYS:;
#WARPS:;
#TIMESIGNATURES:0.000000=4=4
;
#TICKCOUNTS:0.000000=4
;
#COMBOS:0.000000=1
;
#SPEEDS:0.000000=1.000000=0.000000=0
;
#SCROLLS:0.000000=1.000000
;
#FAKES:;
#LABELS:0.000000=Song Start
;
#DISPLAYBPM:93.000000:186.000000;
#NOTES:
// measure 0
0000
0000
0000
0000
,  // measure 1
0000
0000
0000
0000
,  // measure 2
0000
0000
0000
0000
,  // measure 3
0000
0000
0000
0000
,  // measure 4
0000
0000
0000
0000
,  // measure 5
0000
0000
0000
0000
,  // measure 6
0000
0000
0000
0000
,  // measure 7
0000
0000
0000
0000
,  // measure 8
0000
0000
0000
0110
,  // measure 9
2001
0000
0100
0000
,  // measure 10
0001
0000
0010
0001
,  // measure 11
3002
0000
0100
0000
,  // measure 12
1000
0000
0010
1000
,  // measure 13
0203
0000
1000
0000
,  // measure 14
0001
0000
1000
0001
,  // measure 15
0320
0000
1000
0000
,  // measure 16
0130
0001
0010
0100
,  // measure 17
2000
0000
0000
0000
0000
0000
3000
1001
,  // measure 18
1000
0100
0010
0000
,  // measure 19
0001
0000
0010
0001
,  // measure 20
1000
0100
0001
0000
,  // measure 21
0100
0000
0001
0100
,  // measure 22
1000
0000
0010
0000
,  // measure 23
1000
0010
0100
0001
,  // measure 24
0000
0001
0010
0000
,  // measure 25
0110
0010
0001
1000
,  // measure 26
0001
0100
0010
0000
,  // measure 27
1000
0000
0010
1000
,  // measure 28
0001
0100
1000
0000
,  // measure 29
0100
0000
1000
0100
,  // measure 30
0001
0000
0010
0000
,  // measure 31
0001
0010
0100
1000
,  // measure 32
0000
1000
0010
0000
,  // measure 33
0001
0010
1000
0100
,  // measure 34
0010
0002
0203
0320
,  // measure 35
2030
0000
0000
0000
0000
0000
0000
3000
,  // measure 36
0000
2000
3200
0320
,  // measure 37
0230
0000
0320
0031
,  // measure 38
0011
0011
0000
0011
,  // measure 39
0011
0000
0000
0000
0000
0000
0000
1010
,  // measure 40
0000
1010
0000
0000
0000
1010
0000
1010
,  // measure 41
0000
0000
0000
0000
,  // measure 42
1100
1100
0000
1100
,  // measure 43
1100
0000
0000
0000
0000
0000
0000
0101
,  // measure 44
0000
0101
0000
0000
0000
0101
0000
0101
,  // measure 45
0000
1000
0000
0000
0100
0000
0010
0000
,  // measure 46
0002
0000
0100
0000
0013
0000
0001
0001
,  // measure 47
2000
0000
0100
0000
3010
0000
1000
0100
,  // measure 48
0210
0000
0001
0000
1300
0000
0100
0010
,  // measure 49
0001
0000
0100
0000
0010
0000
0000
2002
0000
0003
0000
3000
0000
0000
0000
0000
,  // measure 50
1000
0010
0100
0010
,  // measure 51
1000
0100
0100
0010
,  // measure 52
0001
0010
0100
0010
,  // measure 53
0001
0100
0100
0010
,  // measure 54
1000
0100
0001
0100
,  // measure 55
1000
0010
0001
0010
,  // measure 56
1000
0100
0010
0001
,  // measure 57
1000
0010
0100
0001
,  // measure 58
2002
0000
0000
0000
,  // measure 59
0000
0000
3000
0003
,  // measure 60
1000
0100
0010
0001
,  // measure 61
1000
0001
0010
0001
,  // measure 62
1000
0100
0010
0100
,  // measure 63
0001
0100
0010
0001
,  // measure 64
1000
0010
0001
0010
,  // measure 65
1000
0010
0100
0001
,  // measure 66
1000
0001
0010
0000
,  // measure 67
0110
0010
0001
1000
,  // measure 68
0001
0100
0010
1000
,  // measure 69
0001
1000
0010
1000
,  // measure 70
0001
0100
1000
0000
,  // measure 71
1100
0100
0010
1000
,  // measure 72
0001
0010
1000
0010
,  // measure 73
0001
0010
0100
1000
,  // measure 74
0001
1000
0010
0000
,  // measure 75
0110
1000
0001
1000
,  // measure 76
0100
0000
0000
0000
0000
0000
0000
0000
0000
0000
0000
0000
0000
0000
0000
2002
,  // measure 77
0000
0000
0000
0000
,  // measure 78
0000
0000
3003
0000
;

//---------------dance-single - ----------------
#NOTEDATA:;
#CHARTNAME:02-03;
#STEPSTYPE:dance-single;
#DESCRIPTION:;
#CHARTSTYLE:;
#DIFFICULTY:Beginner;
#METER:2;
#RADARVALUES:0.160635,0.268334,0.051111,0.178889,0.000000,132.000000,126.000000,6.000000,21.000000,0.000000,0.000000,0.000000,0.000000,0.000000,0.160635,0.268334,0.051111,0.178889,0.000000,132.000000,126.000000,6.000000,21.000000,0.000000,0.000000,0.000000,0.000000,0.000000;
#CREDIT:;
#OFFSET:0.638241;
#BPMS:0.000000=186.000000
;
#STOPS:;
#DELAYS:;
#WARPS:;
#TIMESIGNATURES:0.000000=4=4
;
#TICKCOUNTS:0.000000=4
;
#COMBOS:0.000000=1
;
#SPEEDS:0.000000=1.000000=0.000000=0
;
#SCROLLS:0.000000=1.000000
;
#FAKES:;
#LABELS:0.000000=Song Start
;
#DISPLAYBPM:93.000000:186.000000;
#NOTES:
// measure 0
0000
0000
0000
0000
,  // measure 1
0000
0000
0000
0000
,  // measure 2
0000
0000
0000
0000
,  // measure 3
0000
0000
0000
0000
,  // measure 4
0000
0000
0000
0000
,  // measure 5
0000
0000
0000
0000
,  // measure 6
0000
0000
0000
0000
,  // measure 7
0000
0000
0000
0000
,  // measure 8
0000
0000
0000
0000
,  // measure 9
2000
0000
0000
0000
,  // measure 10
3000
0000
0000
0000
,  // measure 11
0002
0000
0000
0000
,  // measure 12
0003
0000
0000
0000
,  // measure 13
0020
0000
0000
0000
,  // measure 14
0030
0000
0000
0000
,  // measure 15
0200
0000
0000
0000
,  // measure 16
0300
0000
0000
0000
,  // measure 17
0010
0000
0000
0000
,  // measure 18
0000
0000
0000
0000
,  // measure 19
0001
0001
0001
0000
,  // measure 20
0010
0000
0001
0000
,  // measure 21
1000
1000
1000
0000
,  // measure 22
0010
0000
1000
0000
,  // measure 23
0100
0000
0100
0000
,  // measure 24
0100
0010
0100
0000
,  // measure 25
1000
0000
0001
0000
,  // measure 26
0100
0100
0010
0000
,  // measure 27
1000
1000
1000
0000
,  // measure 28
0010
0000
1000
0000
,  // measure 29
0001
0001
0001
0000
,  // measure 30
0010
0000
0001
0000
,  // measure 31
0100
0000
0100
0000
,  // measure 32
0100
0010
0100
0000
,  // measure 33
0001
0000
1000
0000
,  // measure 34
0100
0100
0010
0000
,  // measure 35
0001
0000
0100
0000
,  // measure 36
0001
0000
0100
0000
,  // measure 37
0001
0000
0000
0000
,  // measure 38
0000
0000
0000
0000
,  // measure 39
1000
0000
0100
0000
,  // measure 40
1000
0000
0100
0000
,  // measure 41
1000
0000
0000
0000
,  // measure 42
0010
0000
0000
0000
,  // measure 43
2002
0000
0000
0000
,  // measure 44
3003
0000
0000
0000
,  // measure 45
0220
0000
0000
0000
0000
0000
0000
0330
,  // measure 46
0000
0000
0000
0000
,  // measure 47
0220
0000
0000
0000
,  // measure 48
0330
0000
0000
0000
,  // measure 49
2002
0000
0000
0000
0000
0000
0000
3003
,  // measure 50
0000
0000
0001
0000
,  // measure 51
2000
0000
0000
0000
,  // measure 52
3000
0000
0000
0000
,  // measure 53
0002
0000
0000
0000
,  // measure 54
0003
0000
0000
0000
,  // measure 55
0020
0000
0030
0000
,  // measure 56
0200
0000
0300
0000
,  // measure 57
0020
0000
0000
0000
0000
0000
0000
0030
,  // measure 58
0000
0000
0000
0000
,  // measure 59
0001
0000
0010
0000
,  // measure 60
0001
0000
0001
0000
,  // measure 61
1000
0000
0010
0000
,  // measure 62
1000
0000
1000
0000
,  // measure 63
0100
0000
0010
0000
,  // measure 64
0001
0000
0100
0000
,  // measure 65
0010
0000
1000
0000
,  // measure 66
0001
1000
0001
0000
,  // measure 67
2002
0000
0000
0000
,  // measure 68
3003
0000
0000
0000
,  // measure 69
1000
1000
1000
0000
,  // measure 70
0010
0000
0100
0000
,  // measure 71
0001
0001
0001
0000
,  // measure 72
0010
0000
0100
0000
,  // measure 73
1000
0000
0010
0000
,  // measure 74
1000
0010
1000
0000
,  // measure 75
0001
0000
0010
0000
,  // measure 76
0001
0001
0010
0000
,  // measure 77
0001
0001
0001
0000
,  // measure 78
0100
0000
0010
0000
,  // measure 79
1000
1000
1000
0000
,  // measure 80
0100
0000
0010
0000
,  // measure 81
0001
0000
0010
0000
,  // measure 82
0001
0010
0001
0000
,  // measure 83
1000
0000
0010
0000
,  // measure 84
1000
0000
1000
1000
,  // measure 85
0100
0000
0000
0000
,  // measure 86
0000
0000
0000
0000
0000
0000
0000
2002
,  // measure 87
0000
0000
0000
0000
,  // measure 88
0000
0000
0000
0000
,  // measure 89
0000
0000
0000
0000
,  // measure 90
3003
0000
0000
0000
;
