#TITLE:伐折羅;
#SUBTITLE:;
#ARTIST:DJ TOTTO VS 兎々;
#TITLETRANSLIT:Vajra;
#SUBTITLETRANSLIT:;
#ARTISTTRANSLIT:DJ TOTTO VS TOTTO;
#GENRE:;
#CREDIT:;
#BANNER:[Your Name] - Vajra-bn.png;
#BACKGROUND:[Your Name] - Vajra-bg.png;
#LYRICSPATH:;
#CDTITLE:;
#MUSIC:[Your Name] - Vajra.mp3;
#OFFSET:0.289000;
#SAMPLESTART:78.785675;
#SAMPLELENGTH:13.872833;
#SELECTABLE:YES;
#BPMS:0.000000=86.500000
,34.000000=173.000000
,99.000000=86.500000
,147.000000=173.000000
;
#STOPS:34.000000=1.040000
;
#BGCHANGES:;
#KEYSOUNDS:;
#ATTACKS:;

//---------------dance-single - ----------------
#NOTES:
     dance-single:
     X Scale 18:
     Challenge:
     10:
     0.849022,1.352038,0.143786,0.559168,1.242152,744.000000,726.000000,18.000000,70.000000,0.000000,0.000000,0.849022,1.352038,0.143786,0.559168,1.242152,744.000000,726.000000,18.000000,70.000000,0.000000,0.000000:
0000
0000
0000
0000
0000
0000
0000
0000
2200
0000
0000
0000
0000
0000
0000
0300
,
0020
0000
0000
0000
0000
0000
0000
3000
0002
0000
0000
0000
0000
0000
0000
0030
,
0200
0000
0000
0000
0000
0000
0000
0303
1200
0300
0100
0000
0100
0000
0100
0000
,
0021
0030
0010
0000
0010
0000
0010
0000
0010
1000
0010
0000
0100
0001
0100
0000
,
0010
0000
1000
0000
0010
0000
0100
0000
0001
0000
0100
0000
0010
0000
0000
0000
0100
0000
0000
0000
0100
0000
0000
0000
0100
0000
0000
0000
1000
0100
0010
0001
,
0010
0000
0000
0000
0010
0000
0000
0000
0010
0000
0000
0000
0001
0100
0010
1000
1000
0000
0000
0000
1000
0000
0000
0000
1000
0000
0000
0000
0010
1000
0001
0100
,
0001
0000
0000
0000
0001
0000
0000
0000
0001
0000
0000
0000
0100
1000
0001
0010
0010
0000
0000
0000
1000
0100
0010
0001
0010
0000
0000
0000
0001
0100
0010
1000
,
0001
0000
0000
0000
0010
1000
0001
0100
0001
0000
0000
0000
0100
1000
0001
0010
0100
0000
1000
0000
0000
0000
1000
0000
0010
0000
1000
0000
0000
0000
0100
0000
,
0001
0100
0000
0010
0100
0010
0001
0010
0220
0000
0330
0000
1000
0000
0100
0010
,
0100
0000
0010
0100
0010
0000
0001
0010
0100
0010
0100
1000
0001
0000
0010
0100
,
0010
0000
0100
0010
0100
0000
1000
0100
0010
0100
0010
0001
0010
0000
1000
0001
,
1000
0000
0001
1000
0001
0000
0100
0001
1000
0001
1000
0010
0100
0000
0001
1000
,
0001
1000
0001
1000
0001
0000
0010
1000
0001
1000
0001
1000
0100
0000
0001
1000
,
0001
0000
1000
0001
1000
0000
0010
1000
0001
1000
0001
0100
0010
0000
1000
0001
,
1000
0000
0001
1000
0001
0000
0100
0001
1000
0001
1000
0010
1000
0000
0100
0010
,
0100
0000
0010
0100
0010
0000
0001
0010
0100
0010
0100
1000
0001
0000
0010
0100
,
0010
0100
0010
0100
0010
0000
1000
0100
0010
0100
0010
0100
0002
0000
2003
0000
,
3200
0000
0320
0000
0230
0000
0310
0001
0010
0001
0010
0001
0020
0000
0230
0000
,
0302
0000
2003
0000
3002
0000
1003
0010
1000
0010
1000
0010
2000
0000
3100
0001
,
0100
0001
0100
0001
0200
0000
0301
0010
0001
0010
0001
0010
0002
0000
0013
1000
,
0010
1000
0010
1000
0020
0000
1030
0100
1000
0100
1000
0100
0010
0000
0011
0000
,
0010
1010
0010
0100
0010
0110
0001
0011
,
0001
0000
0101
0000
0001
0000
1000
0000
0001
0000
1001
0000
0100
0010
0001
0000
,
0001
0010
0100
0000
0100
1000
0010
0000
0100
0001
0010
0000
0100
0010
0100
0010
,
0001
0000
0000
1000
0000
0000
0001
0000
0000
1000
0000
0000
0220
0000
0000
0000
0000
0000
0000
0000
0000
0000
0000
0000
0000
0000
0000
0000
0000
0000
0330
0000
0000
0000
0000
0000
1020
0000
0000
0000
0000
0000
0130
0000
0000
0000
0100
0001
,
0100
0000
0001
0000
0100
0000
1000
0000
0000
0000
0100
0000
0001
0000
0000
0000
0000
0000
1100
0000
0000
0000
0100
1000
0200
0000
0302
0000
0203
0000
2300
0000
3020
0000
0230
0000
0310
0000
0000
0000
0000
0000
0110
0000
0000
0000
0010
0001
,
0010
0000
0100
0000
0001
0000
0010
0000
0100
0000
1000
0000
0010
0000
1000
0000
0001
0000
0010
0000
0001
0000
1000
0000
0010
0000
0100
0000
0001
0000
0010
0000
0100
0000
1000
0000
0200
0000
0000
0000
0000
0000
0310
0000
0001
1000
0010
0000
,
0100
0000
0001
0000
1000
0000
0020
0000
0000
0000
0130
0000
0001
0000
0000
0000
0000
0000
0101
0000
0000
0000
0010
0000
1000
0000
0001
0010
0100
0000
1000
0000
0001
0000
1000
0000
0100
0000
0010
0000
0001
0000
0100
0000
0010
0000
1000
0000
,
0100
0000
1000
0000
0010
0000
0100
0000
0001
0000
1000
0000
0010
0000
0100
0001
1000
0000
0010
0000
1000
0001
0100
0000
0001
0000
0010
0100
1000
0000
0010
0000
0100
0001
0010
0000
0100
0000
0000
0000
0000
0000
0110
0000
0000
0000
0001
1000
,
0010
0000
0100
0000
0001
0000
0010
0000
0001
0000
0100
0000
1000
0000
0010
0000
1000
0000
0100
0000
0001
0000
0010
0100
2000
0000
3200
0000
0302
0000
2003
0000
3020
0000
0230
0000
1300
0000
0000
0000
0000
0000
1001
0000
0000
0100
0010
0100
,
0001
0000
0001
0000
0001
0000
1000
0000
0000
0000
0100
0000
0010
0000
0001
1000
0100
0000
0010
0000
0001
0100
0010
0000
1000
0000
0001
0100
0010
0000
1000
0000
0100
0010
0001
0000
2000
0000
0000
0000
0000
0000
3010
0100
0010
0000
1000
0000
,
0100
0000
0010
0001
0100
0000
0020
0000
0000
0000
1030
0000
0010
0000
0001
0000
0010
0000
1000
0000
0000
0000
0001
0000
1000
0000
0100
0001
0100
0000
0010
0000
0001
0100
0010
0000
1000
0000
0010
0000
0001
0000
1000
0000
0100
0000
0001
0000
,
1000
0000
0010
0000
0001
0000
1000
0000
0100
0000
0001
0000
0010
0000
0100
0001
1000
0000
0010
0000
1000
0001
0100
0000
0001
0000
0010
0100
1000
0000
0010
0000
0100
0001
0010
0000
0001
0000
0000
0000
0000
0000
0001
0000
0000
0000
0000
0000
,
0010
0000
0010
0000
0100
0000
0100
0000
1000
0100
1000
0000
0001
0000
0001
0000
,
0100
0000
0100
0000
0010
0000
0010
0000
1000
0010
1000
0000
0001
0010
0001
0010
,
0100
1000
0100
1000
0001
0100
0001
0100
0010
1000
0010
1000
0001
1000
0100
0010
,
0001
0000
0010
0000
1000
0000
0100
0000
0001
0000
0000
1000
0001
0000
1000
0000
0020
0000
0000
0000
0200
0000
0030
0000
0320
0000
0000
0000
0000
0000
0000
0000
,
1000
0000
0000
0000
1000
0000
0030
1000
0100
0000
0000
0001
0020
0000
0000
0000
,
0001
0000
0000
0000
0001
0000
0030
0001
0100
0000
0000
1000
0200
0000
0000
0000
,
0000
0000
0000
0000
1300
0000
0010
0000
0100
0000
0001
0000
0010
0100
0001
0100
,
1000
0010
0100
0010
0200
0000
0000
0000
0310
0000
0100
0000
0020
0000
0000
0000
,
0030
0000
1000
0100
1000
0000
0100
0000
1000
0000
0010
0000
1000
0000
0100
0001
,
0100
0000
0001
0100
0001
0000
0100
0001
0010
0000
1000
0000
0010
0000
0000
0000
,
0010
0000
0000
1000
0010
0000
0020
0000
2030
0000
3200
0000
0320
0000
0030
0000
,
2000
0000
0000
0000
3001
0000
0000
0000
0100
0000
0000
0010
0200
0000
0000
0000
,
0001
0000
0000
0000
0001
0000
0300
0001
0010
0000
0000
1000
0200
0000
0000
0000
,
1000
0000
0000
0000
1000
0000
0300
1000
0010
0000
0000
0001
0020
0000
0000
0000
,
0000
0000
0000
0000
0031
0000
0100
0000
0010
0000
1000
0000
0100
0010
1000
0010
,
0001
0100
0010
0100
0020
0000
0000
0000
0130
0000
0010
0000
0200
0000
0000
0000
,
0000
0000
0300
0010
0001
0000
0010
0000
0001
0000
0100
0000
0001
0000
0010
1000
,
0010
0000
1000
0010
1000
0000
0010
1000
0100
0000
0001
0000
0100
0000
0000
0000
,
0100
0000
0000
0001
0100
0000
0200
0000
0302
0000
0023
0000
0230
0000
0300
0000
,
0002
0000
0000
0000
1003
0000
0000
0000
0010
0000
0000
0100
0020
0000
1000
0001
,
0000
0000
0001
1000
0000
0000
1000
0001
0030
0000
0001
1000
0200
0000
1000
0001
,
0000
0000
0001
1000
0000
0000
1000
0001
0300
0000
0001
1000
0100
0000
1000
0000
,
0100
0000
1000
0000
0001
0000
0100
0000
0001
0000
0100
0000
0010
1000
0100
0010
,
0001
0100
0010
1000
0100
0010
0001
0100
0010
1000
0100
0001
0200
0000
0001
1000
,
0000
0000
1000
0001
0000
0000
0001
1000
0300
0000
1000
0001
0020
0000
0001
1000
,
0000
0000
1000
0001
0000
0000
0001
1000
0030
0000
1000
0001
0010
0000
0001
0000
,
0010
0000
0001
0000
1000
0000
0010
0000
1000
0000
0010
0000
0100
0001
0010
0100
,
1000
0010
0100
0001
0010
0100
1000
0010
0100
0001
0010
1000
2002
0000
0000
0000
,
0000
0000
0000
0000
0000
0000
3003
0000
0100
0010
0100
0010
0000
0000
0000
0000
,
0000
0000
0000
0000
0000
0000
0000
0000
0010
0100
0010
0100
0000
0000
0000
0000
;

//---------------dance-single - ----------------
#NOTES:
     dance-single:
     X Scale 15:
     Hard:
     9:
     0.740612,1.177947,0.367453,0.199703,0.826770,649.000000,603.000000,46.000000,25.000000,0.000000,0.000000,0.740612,1.177947,0.367453,0.199703,0.826770,649.000000,603.000000,46.000000,25.000000,0.000000,0.000000:
0000
0000
0000
0000
0000
0000
0000
0000
0000
0000
0000
0000
0000
0000
0000
0000
1000
0000
0000
0000
0010
0000
0100
1000
0000
0000
2000
0000
3000
0000
0000
0000
,
0001
0000
0000
0000
0100
0000
0010
0001
0000
0000
0002
0000
0003
0000
0000
0000
0001
0000
0000
0000
0010
0000
0100
1000
0000
0000
2000
0000
3000
0000
0000
0000
,
1000
0000
0000
0000
0100
0000
0010
0001
0000
0000
0002
0000
0003
0000
0000
0000
0010
0000
0100
0000
1000
0000
0010
0000
1000
0000
0010
0000
0000
0000
0000
0000
,
0001
1000
0010
0001
0010
0001
0000
0000
1000
0001
0100
1000
0100
1000
0000
0000
,
0100
0000
0010
0000
0001
0000
0100
0000
0001
0000
0100
0000
0000
0000
0000
0000
0110
0000
0000
0000
0110
0000
0000
0000
0110
0000
0000
0000
0001
1000
0100
0010
,
0001
0000
0000
0000
1001
0000
0000
0000
1001
0000
0000
0000
0100
0010
1000
0001
0010
0000
0000
0000
0011
0000
0000
0000
0011
0000
0000
0000
1000
0100
0010
0001
,
1000
0000
0000
0000
1100
0000
0000
0000
1100
0000
0000
0000
0010
0001
0100
1000
0010
0000
0001
0000
0010
0000
0100
0000
0010
0000
0100
0000
0010
0000
0100
0000
,
1000
0100
1000
0100
0001
1000
0001
1000
0110
0110
0000
0110
0110
1100
0000
0010
,
1001
0010
0101
1000
1100
0001
0011
0010
0202
0000
0303
0000
0010
0000
0001
0000
,
0100
0000
1000
0000
0110
0000
0001
1000
0001
1000
0001
1000
0100
0000
1000
0000
,
0010
0000
0001
0000
0110
0000
1000
0001
1000
0001
1000
0001
0100
0000
1000
0000
,
0100
0000
0010
0000
0001
0000
0100
0001
0000
0001
0100
0001
0010
0000
1000
0000
,
0100
0010
0001
0100
0000
0100
0100
0001
,
0010
0000
1000
0000
0110
0000
0001
1000
0001
1000
0001
1000
0010
0000
1000
0000
,
0100
0000
0001
0000
0110
0000
1000
0001
1000
0001
1000
0001
0010
0000
1000
0000
,
0010
0000
0100
0000
0001
0000
0010
0001
0000
0001
0010
0001
0100
0000
1000
0000
,
0010
0000
0100
0000
0001
0000
0010
1000
0000
1000
0010
0000
0110
0000
0100
1000
,
0001
0000
0100
1000
0001
0000
0100
1000
0001
0000
0000
0000
1100
0000
0100
0010
,
0001
0000
0100
0010
0001
0000
0100
0010
0001
0000
0000
0000
0110
0000
0010
0001
,
1000
0000
0010
0001
1000
0000
0010
0001
1000
0000
0000
0000
0011
0000
0010
0100
,
1000
0000
0010
0100
1000
0000
0010
0100
1000
0000
0000
0000
0100
0000
0010
0000
,
0001
0100
0010
0100
0001
0000
0000
0000
0101
0000
0000
0000
1000
0000
0001
0000
,
0010
1000
0001
1000
0010
0000
0000
0000
1010
0000
0011
0000
0100
0000
0010
0000
,
0001
0100
0010
0100
0001
0000
0000
0000
0101
0000
0000
0000
1000
0000
0001
0000
,
0010
0000
0000
1000
0000
0000
0001
0000
0000
1000
0000
0000
0020
0000
0000
0000
0000
0000
0000
0000
0000
0000
0000
0000
0000
0000
0000
0000
0000
0000
0030
0000
0000
0000
0000
0000
0010
0000
0000
0000
0000
0000
1001
0000
0000
0000
1000
0000
,
0100
0001
0100
1000
0000
0100
1000
0000
0000
1001
0000
0100
0010
1000
0010
0100
0001
0100
0010
0000
0000
1001
0000
0001
,
0010
0100
1000
0010
0100
0001
0010
0001
0010
0100
1000
0010
0100
0001
0010
1000
0010
0001
0100
0000
0000
1000
0000
0100
,
0001
0010
0001
0010
0000
0001
1000
0000
0000
0110
0000
0000
0100
0001
0100
0010
1000
0010
0100
0001
0100
1000
0100
0001
,
0010
0001
1000
0100
0001
0100
0010
0001
1000
0100
0010
0100
0010
0001
0010
1000
0010
0001
0100
0000
0000
0110
0000
0001
,
1000
0010
0100
0010
1000
0001
0010
0100
1000
0010
1000
0100
0001
0100
1000
0001
0000
1000
0100
0000
0000
0011
0000
0000
,
0100
1000
0100
1000
0000
0000
0001
0010
0100
1000
0010
0100
0001
0100
0010
0001
0010
1000
0001
0000
0000
0110
0000
1000
,
0010
0100
0001
0010
0100
1000
0010
1000
0100
1000
0000
0010
0100
0001
0010
0001
0100
1000
0100
0010
1000
0010
0001
0010
,
0100
0000
0000
0000
0000
0000
0000
0000
0001
0000
0000
0000
0000
0000
0000
0000
0010
0000
0000
0000
0000
0000
0000
0000
0100
0000
0000
0000
0000
0000
0000
0000
1000
0000
0000
0000
0000
0000
0000
0000
0100
0000
0000
0000
0000
0000
0000
0000
0010
0000
0000
0000
0000
0000
0001
0000
0000
0000
0000
0000
0010
0000
0000
0000
0000
0000
0001
0000
0000
0000
0000
0000
1000
0000
0000
0000
0000
0000
0000
0000
0000
0000
0000
0000
0010
0000
0000
0000
0000
0000
0000
0000
0000
0000
0000
0000
0100
0000
0000
0000
0000
0000
0010
0000
0000
0000
0000
0000
1000
0000
0000
0000
0000
0000
0001
0000
0000
0000
0000
0000
1000
0000
0000
0000
0000
0000
0000
0000
0000
0000
0000
0000
0000
0000
0000
0000
0000
0000
0000
0000
0000
0000
0000
0000
1000
0000
0000
0000
0000
0000
0000
0000
0000
0000
0000
0000
0000
0000
0000
0000
0000
0000
0000
0000
0000
0000
0000
0000
1000
0000
0000
0000
0000
0000
0000
0000
0000
0000
0000
0000
0000
0000
0000
0000
0000
0000
0000
0000
0000
0000
0000
0000
,
0010
0010
0100
0100
0001
0001
1000
1000
,
0100
0000
0100
0000
0010
0000
0010
0000
0001
0000
0001
0000
1000
0010
1000
0000
,
0100
0001
0100
0000
0001
0010
0001
0000
0010
1000
0010
0000
1000
0100
0010
0001
,
0100
0010
1000
0001
1000
0000
0001
0000
2002
0000
3003
0000
0100
0000
0000
0000
,
0100
0000
0000
0000
0100
0000
0000
0100
1000
0000
0000
1000
0010
0000
0000
0000
,
0010
0000
0000
0000
0010
0000
0000
0010
0001
0000
0000
0001
0100
0000
0000
0000
,
0100
0000
0100
0100
0001
0001
0010
0100
,
0010
0100
1000
0001
1000
0001
2000
0000
,
3000
0000
0100
0001
0100
0000
0100
0000
0010
0000
0010
0000
0100
0000
0100
0000
,
0110
0100
0001
0001
1001
0001
2020
0000
,
0000
0000
3030
0000
0100
1000
0100
0000
0010
0000
0002
0000
0200
0000
0000
0000
,
0000
0303
1000
0000
0010
0000
1000
0000
,
1000
0000
0000
0000
1000
0000
0000
1000
0001
0000
0000
0001
0100
0000
0000
0000
,
0100
0000
0000
0000
0100
0000
0000
0100
0010
0000
0000
0010
1000
0000
0000
0000
,
1000
0000
1000
1000
0010
0010
0100
1000
,
0100
1000
0001
0010
0001
0010
0002
0000
,
0003
0000
1000
0010
1000
0000
1000
0000
0100
0000
0100
0000
1000
0000
1000
0000
,
1100
1000
0010
0010
0011
0010
0202
0000
,
0000
0000
0303
0000
1000
0001
1000
0000
0100
0000
0020
0000
2000
0000
0000
0000
,
0000
3030
0001
0000
0100
0001
0020
0000
,
1000
0001
1030
0200
,
0001
0000
1000
0000
0301
0000
1000
0001
,
0100
0001
1000
0100
0010
0001
0010
0100
,
1000
0010
0100
0001
0010
0100
0020
0000
,
0001
1000
0031
0200
,
1000
0000
0001
0000
1300
0000
0001
1000
,
0100
1000
0001
0100
0010
1000
0010
0100
,
0001
0010
0100
1000
0010
0100
2002
0000
,
0000
0000
0000
0000
,
0000
0000
0000
3003
;

//---------------dance-single - ----------------
#NOTES:
     dance-single:
     X Scale 10:
     Medium:
     7:
     0.519227,0.751881,0.287572,0.271596,0.271596,455.000000,419.000000,36.000000,34.000000,0.000000,0.000000,0.519227,0.751881,0.287572,0.271596,0.271596,455.000000,419.000000,36.000000,34.000000,0.000000,0.000000:
0000
0000
0000
0000
,
0000
0000
0000
0000
,
0000
0000
0000
0000
0000
0000
0000
0000
1000
0000
1000
0000
0100
0001
0010
0000
,
0001
0000
0001
0000
0010
1000
0100
0000
0010
1000
0000
1000
0010
1000
0000
0001
,
0010
0001
0000
0100
0010
0100
0010
0000
0010
0000
0010
0000
0010
0000
0100
1000
,
0100
0000
0100
0000
0100
0000
0010
1000
0100
0000
0100
0000
0100
0000
0010
0001
,
0010
0000
0010
0000
0010
0000
0100
0001
0010
0010
0000
0010
0010
0010
0000
0100
,
0010
0100
0010
0100
0001
1000
0001
1000
0100
0100
0000
0100
0100
0100
0000
0010
,
0100
0010
0100
0010
1000
0001
1000
0001
0220
0000
0330
0000
0100
0000
0001
0000
,
0100
0000
1000
0100
0010
0000
0000
0000
0110
0000
0000
0000
0010
0000
1000
0000
,
0010
0000
0001
0010
0100
0000
0000
0000
0110
0000
0000
0000
0100
0000
0000
0000
,
0100
0000
0010
0001
0010
0100
0001
0000
,
0001
0000
1000
0010
1000
0001
1000
0000
,
1000
0000
0001
0100
0001
1000
0100
0000
,
0100
0000
0010
0001
0010
0100
0100
0000
,
0100
0000
0010
0001
0010
0100
0001
0000
,
0001
0000
1000
0010
1000
0001
0010
0000
,
0001
1000
0010
0100
0100
0100
0100
0000
,
0001
1000
0100
0010
0010
0010
0001
0000
,
0100
0010
0001
1000
1000
1000
1000
0000
,
0100
0010
1000
0001
0001
0001
0010
0000
,
0100
1000
0021
0001
0001
0031
0100
0000
,
0010
0001
1200
1000
1000
1300
0010
0000
,
0100
1000
0021
0001
0001
0031
0100
0000
,
0010
0001
0200
0000
0000
0300
0011
0001
,
0010
0100
0010
0100
0000
0000
1000
0000
0000
0010
0000
0000
0100
0000
0000
0001
0000
0000
1010
0000
0000
1000
0000
0000
,
0010
1000
0010
1000
0000
0000
0001
0000
0000
0011
0000
0000
0010
0000
0000
0110
0000
0000
1100
0000
0000
1000
0000
0000
,
0010
0100
0010
0100
0000
0000
0001
0000
0000
0010
0000
0000
0100
0000
0000
1000
0000
0000
0011
0000
0100
0001
0000
0000
,
0010
0000
0001
0100
0000
0000
0010
0000
1000
0010
0000
0100
0010
0000
0000
1010
0000
0000
0110
0000
0000
1001
0000
0010
,
0001
0000
0000
1000
0000
0000
0001
0000
0000
0010
0000
0001
0100
0000
0000
0010
0000
0000
1010
0000
0000
0110
0000
0010
,
1000
0000
0000
0100
0000
1000
0001
0000
0000
0011
0000
0000
1010
0000
0000
0110
0000
0000
1100
0000
0000
0101
0000
0001
,
0010
0000
0000
0100
0000
0000
1000
0000
0000
0010
0000
1000
0100
0000
0000
0010
0000
0000
0011
0000
1000
0001
0000
1000
,
0010
0000
0000
0000
1000
0000
0100
0000
0000
0000
0010
0000
1000
0000
0000
0000
0000
0000
0110
0000
0000
0000
0000
0000
0001
0000
0000
0010
0000
0000
0100
0000
0000
0000
0000
0000
1000
0000
0000
0000
0000
0000
1000
0000
0000
0000
0000
0000
,
0010
0010
0100
0100
0001
0001
1000
1000
,
0100
0000
0100
0000
0010
0000
0010
0000
0001
0000
0001
0000
1000
0010
1000
0000
,
0100
0001
0100
0000
0001
0010
0001
0000
0010
1000
0010
0000
1000
0100
0010
0001
,
0100
0010
1000
0001
1000
0000
0001
0000
2002
0000
3003
0000
0020
0000
0000
0000
,
0230
0000
0000
0000
0310
0000
0000
0100
0010
0000
0000
0000
2000
0000
0000
0000
,
3002
0000
0000
0000
1003
0000
0000
0001
1000
0000
0000
0000
0200
0000
0000
0000
,
0320
0000
0000
0000
0130
0000
0000
0010
0100
0000
0000
0000
2000
0000
0000
0000
,
3002
0000
0000
0000
1003
0000
0000
0001
1000
0000
0000
0000
0010
0000
1000
0000
,
0010
0100
0010
0000
0101
0000
0100
0001
,
0100
0010
0100
0000
1010
0000
0200
0000
,
0300
1000
0010
0001
0010
0001
0200
0000
,
0300
1001
1001
0020
,
0230
0000
0000
0000
0310
0000
0000
0100
0010
0000
0000
0000
2000
0000
0000
0000
,
3002
0000
0000
0000
1003
0000
0000
0001
1000
0000
0000
0000
0200
0000
0000
0000
,
0320
0000
0000
0000
0130
0000
0000
0010
0100
0000
0000
0000
2000
0000
0000
0000
,
3002
0000
0000
0000
1003
0000
0000
0001
1000
0000
0000
0000
0010
0000
1000
0000
,
0010
0100
0010
0000
0101
0000
0100
0001
,
0100
0010
0100
0000
1010
0000
0200
0000
,
0000
0000
0000
0300
0010
0001
0200
0000
,
0300
0000
0100
0001
1000
0000
1200
0000
,
0010
1000
0310
0201
,
0010
0000
0001
0000
0310
0000
1000
0010
,
1000
0000
0001
0100
0001
0000
0100
0000
,
1000
0000
0010
0100
0010
0100
0021
0000
,
0100
0001
0130
1020
,
0100
0000
1000
0000
0130
0000
0001
0100
,
0001
0000
1000
0010
1000
0000
0010
0000
,
0001
0000
0100
0010
0100
0010
2002
0000
,
0000
0000
0000
0000
,
0000
0000
0000
3003
;

//---------------dance-single - ----------------
#NOTES:
     dance-single:
     X Scale 7:
     Easy:
     5:
     0.365171,0.551380,0.167750,0.199703,0.007988,320.000000,299.000000,21.000000,25.000000,0.000000,0.000000,0.365171,0.551380,0.167750,0.199703,0.007988,320.000000,299.000000,21.000000,25.000000,0.000000,0.000000:
0000
0000
0000
0000
,
0000
0000
0000
0000
,
0000
0000
1000
1000
,
0001
0001
0100
0100
,
0010
0010
0100
0010
0010
0100
1000
0100
,
0010
0100
0010
0000
1000
0100
0001
0100
,
1000
0100
1000
0000
0101
0101
0101
0010
,
1010
0000
1010
0000
1010
0000
0000
0000
0010
1000
0010
0000
0200
0000
0300
0000
,
0001
0100
0001
0000
0020
0000
0000
0000
0000
0000
0030
0000
0100
0000
0000
0000
,
1000
0100
0010
0100
,
1000
0000
0220
0000
0000
0330
0100
0000
,
1000
0100
0010
0100
,
1000
0000
0220
0000
0000
0330
0010
0001
,
0010
0000
0200
0000
0310
0000
0100
0001
,
0100
0000
0020
0000
0130
0000
0010
1000
,
0010
0000
0020
0000
0031
0000
0001
1000
,
0001
0000
0010
0100
0001
0100
0100
0000
,
1000
0100
0010
0100
,
1000
0000
0220
0000
0000
0330
0100
0000
,
1000
0100
0010
0100
,
1000
0000
0220
0000
0000
0330
0010
0001
,
0010
0000
0200
0000
0310
0000
0100
0001
,
0100
0000
0020
0000
0130
0000
0010
1000
,
0010
0000
0020
0000
0031
0000
0001
1000
,
0001
0000
0020
0000
0000
0030
0001
0010
,
0100
0000
0010
0001
0100
0000
0010
1000
,
0100
0000
0010
0001
0100
0001
1000
0010
,
0100
0000
0010
1000
0100
0000
0010
0001
,
0100
0001
0010
0100
1000
0000
0001
1001
,
0010
0100
1000
0010
1000
0000
1000
1001
,
0010
1000
0001
0010
0001
0000
0001
1001
,
0010
0001
1000
0010
1000
0000
0001
1000
,
0010
0100
1001
0110
0001
1000
0001
0001
,
0100
0100
0010
0010
1000
1000
0001
0001
,
0010
0010
0100
0100
1000
1000
0001
0010
,
1000
0100
0001
0010
1000
0100
0001
0100
,
0010
1000
0001
1000
2002
3003
0010
0000
,
0010
0010
1000
0010
,
0010
0010
0100
0010
,
0010
0010
0001
0010
,
1000
0100
0001
0100
,
0100
0100
0001
0100
,
0100
0100
0010
0100
,
0100
0100
1000
0100
,
0001
0010
1000
0001
,
0001
0001
0010
0001
,
0001
0001
1000
0001
,
0001
0001
0100
0001
,
0010
1000
0100
1000
,
1000
1000
0100
1000
,
1000
1000
0001
1000
,
1000
1000
0010
1000
,
0100
0001
1000
1200
,
0010
1000
0310
0201
,
0010
0000
0001
0000
0310
0000
1000
0010
,
1000
0000
0001
0100
0001
0000
0100
0000
,
1000
0000
0010
0100
0010
0100
0021
0000
,
0100
0001
0130
1020
,
0100
0000
1000
0000
0130
0000
0001
0100
,
0001
0000
1000
0010
1000
0000
0010
0000
,
0001
0000
0100
0010
0100
0010
2002
0000
,
0000
0000
0000
0000
,
0000
0000
0000
3003
;

//---------------dance-single - ----------------
#NOTES:
     dance-single:
     X Scale 5:
     Beginner:
     3:
     0.232796,0.388222,0.071893,0.111834,0.000000,204.000000,195.000000,9.000000,14.000000,0.000000,0.000000,0.232796,0.388222,0.071893,0.111834,0.000000,204.000000,195.000000,9.000000,14.000000,0.000000,0.000000:
// measure 0
0000
0000
0100
0000
,  // measure 1
0100
0000
0010
0000
,  // measure 2
0010
0000
0010
0000
,  // measure 3
0010
0000
0100
0000
,  // measure 4
0100
0000
1000
0000
,  // measure 5
0001
0000
0001
0000
,  // measure 6
1000
0000
0010
0000
,  // measure 7
1000
0000
0100
0000
,  // measure 8
0010
0000
0001
0010
,  // measure 9
0000
1000
0000
0100
,  // measure 10
0000
0010
0000
0001
,  // measure 11
0000
0010
0000
1000
,  // measure 12
0000
0001
0000
0100
,  // measure 13
0000
0001
0000
0010
,  // measure 14
0000
0100
0000
1000
,  // measure 15
0000
0100
0000
0001
,  // measure 16
0000
1000
0000
0010
,  // measure 17
1000
0100
0000
0100
,  // measure 18
0001
0010
0000
0010
,  // measure 19
0001
0100
0000
0100
,  // measure 20
1000
0010
0000
1001
,  // measure 21
0000
0110
0000
0110
,  // measure 22
0000
1001
0000
0110
,  // measure 23
0000
1001
0000
1001
,  // measure 24
0000
0110
0000
0001
,  // measure 25
0001
0000
0010
0010
0010
0000
1000
0000
,  // measure 26
1000
0000
0010
0010
0010
0000
0001
0000
,  // measure 27
0001
0000
0100
0100
0100
0000
1000
0000
,  // measure 28
0010
0000
0001
0000
0100
0000
1000
1000
,  // measure 29
1000
0000
0010
0010
0010
0000
0001
0001
,  // measure 30
0001
0000
0010
0010
0010
0000
1000
0000
,  // measure 31
1000
0001
0001
1000
,  // measure 32
0010
0000
1000
1000
1000
0000
0010
0010
,  // measure 33
0010
0000
1000
1000
1000
0000
0001
0001
,  // measure 34
0001
0000
0010
0010
0010
0000
0100
0100
,  // measure 35
1000
1000
0010
0010
0001
0001
0100
0100
,  // measure 36
1000
1000
0010
0010
0010
0000
0200
0000
,  // measure 37
0000
0310
0001
0200
,  // measure 38
0000
0310
1000
0020
,  // measure 39
0000
0130
0001
0020
,  // measure 40
0000
0130
1000
1000
,  // measure 41
1000
0000
0002
0000
0000
0003
0010
0000
,  // measure 42
0010
0000
0200
0000
0000
0300
0100
0000
,  // measure 43
0100
0000
0020
0000
0000
0030
0001
0000
,  // measure 44
0001
1000
1000
0020
,  // measure 45
0000
0130
1000
0020
,  // measure 46
0000
0130
0001
0200
,  // measure 47
0000
0310
1000
0200
,  // measure 48
0000
0310
0001
0001
,  // measure 49
0001
0000
2000
0000
0000
3000
0100
0000
,  // measure 50
0100
0000
0020
0000
0000
0030
0010
0000
,  // measure 51
0010
0000
0200
0000
0000
0300
1000
0000
,  // measure 52
1000
0001
0001
0100
,  // measure 53
0100
0100
0000
0010
,  // measure 54
0010
0010
0000
0001
,  // measure 55
0001
0001
0000
1000
,  // measure 56
1000
1000
0000
0100
,  // measure 57
0100
0100
0000
0010
,  // measure 58
0010
0010
0000
1000
,  // measure 59
1000
1000
0000
0001
,  // measure 60
0001
0001
0000
1001
;
