#TITLE:Tribal Trial;
#SUBTITLE:;
#ARTIST:Yooh;
#TITLETRANSLIT:;
#SUBTITLETRANSLIT:;
#ARTISTTRANSLIT:;
#GENRE:;
#CREDIT:;
#MUSIC:Tribal Trial.ogg;
#BANNER:Tribal Trial.png;
#BACKGROUND:Tribal Trial-bg.png;
#CDTITLE:;
#SAMPLESTART:86.378;
#SAMPLELENGTH:17.453;
#SELECTABLE:YES;
#OFFSET:-0.567;
#BPMS:0.000=165.014;
#STOPS:;
#BGCHANGES:;
#FGCHANGES:;

//--------------- dance-single - Talkion (X-Scale 15) ----------------
#NOTES:
     dance-single:
     Talkion (X-Scale 15):
     Hard:
     10:
     0,0,0,0,0:
0000
0000
0000
0000
,
2002
0000
0000
0000
,
0000
0000
0000
0000
0000
0003
0000
3100
,
0220
0000
0000
0000
,
0000
0300
0032
0000
,
1003
0010
0100
0010
0000
0100
0100
0000
,
0001
0010
0100
0010
0000
0100
0100
0000
,
1000
0010
0001
0010
0000
0100
0100
0000
,
0001
0000
1000
0010
0000
1000
0010
0000
0100
0001
0100
0000
1001
0000
0000
0000
,
0001
0000
0010
0100
0010
0000
0100
0000
1000
0010
1000
0000
0002
0000
0000
0000
,
1003
0000
0100
0010
0100
0000
0010
0000
0001
0100
0001
0000
1000
0000
0000
0000
,
1000
0000
0010
0100
0001
0000
0010
0000
0100
0010
0001
0000
2000
0000
0000
0000
,
3010
0100
0010
0100
0000
0001
0010
0000
0100
1000
0001
0000
1001
0000
0000
0000
,
0100
0000
0001
0010
0001
0000
0100
0000
0010
1000
0010
0000
2000
0000
0000
0000
,
3100
0000
0010
0001
0010
0000
0100
0000
1000
0010
1000
0000
0001
0000
0000
0000
,
0001
0000
0100
0010
1000
0000
0100
0000
0010
0100
1000
0000
0002
0000
0000
0000
,
0103
0010
1000
0010
0000
1000
0100
0000
0010
0001
0100
0001
0000
0100
0010
0000
,
1000
0000
1000
0010
0000
0010
0100
0000
0001
0000
0001
0010
0000
0010
0100
0000
,
1000
0000
0010
0001
0000
0010
1000
0000
0001
0000
0010
1000
0000
0010
0001
0000
,
1000
0010
1000
0000
0001
0010
0001
0000
1000
0100
0010
0001
1000
0010
0100
0010
,
0100
0100
0100
0100
,
0001
0000
0010
0100
0000
0100
0010
0000
0001
0000
1000
0010
1000
0000
0100
0000
,
0010
0000
0100
1000
0000
1000
0001
0000
0100
0000
0010
1000
0001
0000
0011
0000
,
1000
0000
0010
0100
0000
0100
0001
0000
1000
0000
0100
0010
0001
0000
1000
0000
,
0010
0100
0010
0000
1000
0001
1000
0000
0100
0010
0001
0100
0010
0100
0001
0000
,
1000
0000
0100
0010
0000
0010
0100
0000
1000
0000
0001
0100
0001
0000
0010
0000
,
0100
0000
0010
0001
0000
0001
1000
0000
0010
0000
0100
0001
1000
0000
1100
0000
,
0001
0000
0100
0010
0000
0010
1000
0000
0001
0000
0010
0100
1000
0000
0001
0000
,
0200
0000
0000
0000
0000
0000
0000
0000
0000
0000
0000
0000
0310
1000
0010
1000
,
0001
0000
0010
0100
0000
0100
0001
0000
0100
0000
1000
0001
1000
0000
0010
0000
,
0100
0000
0001
0010
0000
0010
1000
0000
0010
0000
0100
1000
0001
0000
0101
0000
,
1000
0000
0010
0100
0000
0100
0001
0000
1000
0000
0100
0001
0100
0000
0010
0000
,
0001
0100
0001
0000
1000
0100
1000
0000
0010
0100
0001
1000
0010
1000
0001
0000
,
1000
0000
0100
0010
0000
0010
1000
0000
0010
0000
0001
1000
0001
0000
0100
0000
,
0010
0000
1000
0100
0000
0100
0001
0000
0100
0000
0010
0001
1000
0010
0100
0001
,
2000
0000
0000
0000
,
3100
0000
0100
0000
0010
0010
0001
0001
,
0220
0000
0000
0000
,
0000
0000
0000
0000
,
0330
0000
0000
0000
,
0000
0000
0000
0000
,
1000
1000
0010
0010
,
0001
0001
0100
0100
,
1000
1000
0001
0001
,
0100
0000
0010
1000
0000
1000
0001
0000
0010
0001
1000
0000
0110
0000
0000
0000
,
1001
0000
0000
0000
1000
0100
1000
0100
0010
0100
0010
0000
0001
0100
0001
0100
,
0010
0100
0010
0000
1000
0100
1000
0000
0001
0010
0001
0000
1000
0010
1000
0000
,
0010
0100
0000
0100
0010
0000
1000
0000
0100
0010
0000
0010
0100
0000
0010
0000
,
0001
0000
1000
0010
0100
0000
0001
0000
1000
0100
0010
0001
1000
0000
0010
0000
,
0110
0000
0021
0031
0210
0310
2100
3100
,
0001
0100
0001
0100
0001
0000
0010
0000
0100
1000
0100
1000
0100
0000
0010
0000
,
0001
0100
0010
1000
0010
0000
0100
0000
0010
1000
0100
0010
0100
0000
0010
0000
,
0001
0000
0000
0000
1000
0000
0000
0000
0010
0000
0000
0000
1000
0000
0000
0000
0001
0000
0000
0000
0010
0000
0000
0000
0001
0000
0000
0000
0000
0000
0000
0000
0000
0001
0000
0000
1000
0000
0000
0000
0000
0000
0000
0000
0000
0000
0000
0000
,
1000
0010
1000
0010
1000
0100
1000
0100
,
0010
0001
0010
0001
0100
0001
0100
0001
,
1000
0010
0001
0010
0100
1000
0100
0001
,
1000
0100
0001
0100
0010
1000
0010
0001
,
1000
0010
1000
0010
0100
0010
0100
0010
0100
0001
0100
0001
1000
0001
1000
0001
,
0020
0000
0230
0000
2300
0000
3002
0000
0103
0010
1000
0100
0010
0001
1000
0010
,
0200
0320
2030
3002
0023
0230
2300
3002
,
0103
0010
1000
0100
0010
0000
0110
0000
,
0021
0000
0000
0130
1000
0000
0010
0000
0100
0000
0100
0000
0001
0000
0001
0000
,
1200
0000
0000
0310
0100
0000
1000
0000
0010
0000
0100
1000
0100
0000
0010
0000
,
2010
0000
0000
3100
0010
0000
0001
0000
0100
0000
0100
0000
0010
0000
0010
0000
,
1000
0000
1010
0000
0000
0000
0011
0000
0000
0000
0101
0000
0000
1000
0100
0000
,
1002
0000
0000
0103
0010
0000
0100
0000
0001
0000
0001
0000
0010
0000
0010
0000
,
0210
0000
0000
1300
0001
0000
0100
0000
0010
0001
0000
0010
1000
0000
0001
0000
,
0021
0000
0000
0130
0010
0000
0001
0000
1000
0000
1000
0000
0001
0000
0001
0000
,
0100
0000
0010
1000
0001
1000
0001
1000
0001
0000
0010
0000
0100
0000
0000
0000
,
1200
0000
0000
0310
0001
0000
0100
0000
0010
0000
0010
0000
1000
0000
1000
0000
,
0021
0000
0000
0130
0010
0000
0001
0000
0100
0000
0010
0001
0010
0000
0100
0000
,
0102
0000
0000
0013
0100
0000
1000
0000
0010
0000
0010
0000
0100
0000
0100
0000
,
0001
0000
0101
0000
0000
0000
1100
0000
0000
0000
1010
0000
0000
0001
0010
0000
,
0100
0000
1000
0001
1000
0000
0010
0100
0001
1000
0001
1000
0100
0000
0000
0000
,
0010
0000
0001
1000
0001
0000
0100
0010
1000
0001
1000
0001
0010
0000
0000
0000
,
0100
0001
0100
0000
0100
1000
0100
0000
0010
0001
0010
0001
1000
0010
1000
0010
,
0100
0000
0001
1000
0000
0100
0010
0000
0100
0000
1000
0000
0001
0000
0000
0000
,
2002
0000
0000
0000
,
0000
0000
0000
0000
,
3003
0000
0000
0000
;

//--------------- dance-single - Talkion (X-Scale 17) ----------------
#NOTES:
     dance-single:
     Talkion (X-Scale 17):
     Challenge:
     12:
     0,0,0,0,0:
0000
0000
0000
0000
,
2002
0000
0000
0000
,
0000
0000
0000
0000
0000
3000
0000
0013
,
0220
0000
0000
0000
,
0000
0030
4300
0000
,
3001
0000
0100
0010
0100
0000
0010
0000
1000
0000
0001
0000
0001
0000
0000
0000
,
1000
0000
0100
0010
0100
0000
0010
0000
0001
0000
1000
0000
1000
0000
0000
0000
,
0001
0000
0100
0010
1000
0000
0100
0000
0010
0000
0001
0000
0001
0000
0000
0000
,
2000
0000
3010
0100
0000
0010
0200
0000
0301
1000
0001
0000
0040
0000
0000
0000
,
0130
0000
1000
0001
0100
0000
0010
0000
0100
0001
1000
0000
0100
0000
M100
0000
,
0001
0000
0010
0100
1000
0000
0010
0000
1000
0100
0010
0000
0011
0000
0000
0000
,
0001
0000
0100
0010
1000
0000
0100
0000
0010
0100
1000
0000
0010
0000
M010
0000
,
0001
0100
0010
1000
0010
1000
0001
0000
1000
0100
1000
0000
1100
0000
0000
0000
,
0010
0000
0001
1000
0010
0000
0100
0000
0010
1000
0001
0000
0010
0000
001M
0000
,
1000
0000
0100
0010
0001
0000
0100
0000
0001
0010
0100
0000
1100
0000
0000
0000
,
1000
0000
0010
0100
0001
0000
0010
0000
0100
0010
0001
0000
0100
0000
010M
0000
,
1000
0010
0100
0001
0010
0100
0010
0001
1000
0010
0100
0001
1000
0100
0010
0001
,
1000
0000
0100
1000
0100
1000
0001
0000
0100
0000
0010
1000
0010
1000
0001
0000
,
0010
0000
0100
0010
0100
0010
0001
0000
1000
0000
0010
0100
0001
0010
0100
1000
,
0001
0100
0001
0000
1000
0100
1000
0000
0001
0100
0001
0100
1000
0100
1000
0100
,
0010
00M0
0010
00M0
0010
00M0
0010
00M0
,
1100
0000
1000
0001
0100
0010
1000
0000
0100
0000
0010
0001
0010
0000
0010
1000
,
0010
0000
0000
0000
0000
0000
0100
0000
0000
1000
0000
0000
0001
0000
0000
0100
0000
0000
0010
0000
0000
0000
0000
0000
0100
0000
0000
0000
0000
0000
0001
0000
0000
1000
0000
0000
0001
0000
0000
0000
0000
0000
0010
0000
0100
0000
0010
0000
,
0100
0000
1000
0010
0100
1000
0100
0000
0010
0000
0100
0001
0100
0000
0100
0010
,
1000
0100
1000
0000
0001
0100
0001
0000
0010
0100
0010
0100
1000
0010
1000
0000
,
0011
0000
0001
1000
0010
0100
0001
0000
0010
0000
0100
1000
0100
0000
0100
0001
,
0100
0000
0000
0000
0000
0000
0010
0000
0000
0001
0000
0000
1000
0000
0000
0010
0000
0000
0100
0000
0000
0000
0000
0000
0010
0000
0000
0000
0000
0000
1000
0000
0000
0001
0000
0000
1000
0000
0000
0000
0000
0000
0100
0000
0010
0000
0100
0000
,
0010
0000
0001
0100
0010
0001
0010
0000
0100
0000
0010
1000
0010
0000
0010
0100
,
0002
0000
0010
0000
0013
0000
2000
0000
0100
0000
3100
0000
1000
0100
0010
0001
,
0011
0000
0010
0100
1000
0001
0100
0000
0010
0000
0001
0010
0100
0000
0100
0001
,
1000
0000
0000
0000
0000
0000
0100
0000
0000
0010
0000
0000
0100
0000
0000
1000
0000
0000
0001
0000
0000
0000
0000
0000
0100
0000
0000
0000
0000
0000
0100
0000
0000
0010
0000
0000
1000
0000
0000
0000
0000
0000
0100
0000
0010
0000
0100
0000
,
0010
0000
0001
0100
0010
0001
0010
0000
0100
0000
0010
1000
0010
0000
0010
0100
,
0001
0010
0001
0000
1000
0010
1000
0000
0100
0010
0100
0010
0001
0100
0001
0000
,
1100
0000
0100
0010
0001
1000
0010
0000
0100
0000
1000
0100
0010
0000
0010
1000
,
0001
0000
0000
0000
0000
0000
0010
0000
0000
0100
0000
0000
0010
0000
0000
0001
0000
0000
1000
0000
0000
0000
0000
0000
0010
0000
0000
0100
0000
0000
0010
0000
0000
0100
0000
0000
0001
0000
0000
0010
0000
0000
0100
0000
1000
0000
0100
0000
,
2000
0000
0000
0000
,
3001
0000
0000
0001
0100
0000
0010
0000
1000
0000
0100
0000
0100
0000
0100
0000
,
0220
0000
0000
0000
,
0000
0000
0000
0000
,
0330
000M
M000
0000
00M0
0M00
0000
000M
,
M000
0000
0M00
00M0
0000
0000
0000
0000
,
0001
0001
0010
0010
,
1000
1000
0100
0100
,
0001
0001
1000
1000
,
0010
0100
0010
1000
0000
1000
0100
0010
0001
0100
0010
1000
0001
0000
0000
0000
,
1001
0000
0000
0000
0001
0010
0001
0100
0010
1000
0100
1000
0010
0100
0010
1000
,
0001
0010
0001
0000
1000
0010
1000
0000
0001
0010
0001
0000
1000
0100
1000
0000
,
0001
0010
0000
0010
0001
0000
0100
0000
0010
1000
0000
1000
0010
0000
0100
0000
,
0001
0000
0010
0100
1000
0000
0010
0100
0001
0010
1000
0010
0100
0000
0010
0000
,
0110
0000
0000
0000
0000
0000
0100
1000
0100
1000
0000
0000
0001
0100
0001
0100
0000
0000
0010
1000
0010
1000
0000
0000
,
0001
0010
0001
0010
0100
1000
0001
0100
0010
1000
0010
1000
0100
0010
0001
1000
,
0010
0100
1000
0100
0010
1000
0001
0000
0010
0100
0001
0100
0010
0001
1000
0000
,
0010
0000
0000
0000
0100
0000
0000
0000
0001
0000
0000
0000
0010
0000
0000
0000
0100
0000
0000
0000
1000
0000
0000
0000
0001
0000
0000
0000
0000
0000
0000
0000
0000
0001
0000
0000
1000
0000
0000
0000
0000
0000
0000
0000
0000
0000
0000
0000
,
0010
1000
0010
0000
0100
0010
0100
0000
0001
1000
0001
0000
0010
0001
0010
0000
,
0100
1000
0001
0000
0100
0010
0100
0000
0001
1000
0100
0000
0010
0100
0010
0000
,
0001
0100
0010
0000
0100
1000
0100
0000
0010
0100
0001
0000
1000
0100
0010
0000
,
1000
0010
0100
0000
0010
0100
0010
0000
0100
0010
0001
0000
0100
0010
0100
0000
,
0010
1000
0010
1000
0100
1000
0100
1000
0001
0010
0001
0010
0001
0100
0001
0100
,
0010
1000
0100
0010
0001
1000
0010
0001
0010
0100
0001
0010
1000
0010
0100
1000
,
0002
0203
0320
2030
3200
0302
0023
2030
,
3001
0000
0100
0001
1000
0000
0100
1000
0001
0000
0100
0000
0110
0000
0000
0000
,
2010
0000
0000
3100
0010
0000
0001
0000
0201
0000
0310
0000
1200
0000
0310
0000
,
0012
0000
0000
0103
0010
0000
1000
0000
1001
0000
0001
0010
0001
0100
0010
1000
,
1200
0000
0000
0310
0001
0000
0100
0000
1020
0000
0130
0000
0021
0000
0130
0000
,
0020
0000
0001
1000
000M
0000
1000
0001
M000
0000
0001
1000
003M
0100
0001
0100
,
0102
0000
0000
0013
0100
0000
1000
0000
1020
0000
0130
0000
0201
0000
0310
0000
,
2010
0000
0000
3100
0010
0000
0001
0000
1000
0010
0000
0001
0010
0000
0010
1000
,
1002
0000
0000
0013
0100
0000
1000
0000
0210
0000
0301
0000
0210
0000
1300
0000
,
0010
0000
0000
0000
0000
0000
0100
0000
0000
0010
0000
0000
0100
0000
0000
0010
0000
0000
0100
0000
0000
0010
0000
0000
1000
0000
0000
0000
0000
0000
0100
0000
0010
0000
0100
0000
0010
0000
0000
0000
0000
0000
0001
0000
0000
0000
0000
0000
,
0102
0000
0000
0013
0100
0000
1000
0000
1020
0000
0130
0000
0021
0000
0130
0000
,
2100
0000
0000
3010
0100
0000
0001
0000
1001
0000
1000
0100
1000
0010
0100
0001
,
0021
0000
0000
0130
1000
0000
0010
0000
0201
0000
0310
0000
1200
0000
0310
0000
,
0200
0000
1000
0001
M000
0000
0001
1000
000M
0000
1000
0001
M300
0010
1000
0010
,
0100
0001
0100
0001
0010
0100
1000
0010
0100
1000
0100
0010
1000
0000
0000
0000
,
0010
1000
0010
1000
0100
0010
0001
0100
0010
0001
0010
0100
0001
0000
0000
0000
,
1000
0000
0010
0000
1000
0000
0010
0000
0000
0000
0000
0000
0100
0000
0001
0000
0100
0000
0001
0000
0000
0000
0000
0000
1000
0000
0000
0100
0000
0000
0010
0000
0000
1000
0000
0000
0001
0000
0000
0100
0000
0000
0010
0000
0000
0001
0000
0000
,
1000
0000
0010
0100
0000
0010
0100
0000
0001
0000
1000
0000
1001
0000
0000
0000
,
0220
0000
0000
0000
,
0330
0000
0000
0000
;
