#TITLE:This Club is Not 4 U;
#SUBTITLE:;
#ARTIST:EmoCo.;
#TITLETRANSLIT:;
#SUBTITLETRANSLIT:;
#ARTISTTRANSLIT:;
#GENRE:;
#CREDIT:tikal.;
#MUSIC:[Your Name] - This Club is Not 4 U.ogg;
#BANNER:[Your Name] - This Club is Not 4 U.png;
#BACKGROUND:[Your Name] - This Club is Not 4 U-bg.png;
#CDTITLE:cdtitle.png;
#SAMPLESTART:114.005;
#SAMPLELENGTH:12.000;
#SELECTABLE:YES;
#OFFSET:-0.005;
#BPMS:0.000=160.000;
#STOPS:;
#BGCHANGES:;
#FGCHANGES:;

//--------------- dance-single - tikal. ----------------
#NOTES:
     dance-single:
     tikal.:
     Hard:
     9:
     0,0,0,0,0:
0000
0000
0000
0000
,
0000
0000
0000
0000
,
0000
0000
0000
0000
,
0000
0000
0000
0000
,
1001
0000
1000
0200
0000
1300
0010
0000
,
0100
0000
0100
0001
0101
0000
1100
0000
,
1001
0000
0001
0200
0000
0301
0010
0000
,
0100
0000
0000
0000
0100
0000
1000
0000
0001
0000
0001
0000
2000
0000
0000
3000
,
1001
0000
1000
0100
0100
1000
0010
0000
,
0100
0100
0100
0001
0101
0000
1100
0000
,
1001
0000
0001
0100
0100
0001
0010
0000
,
0100
0100
0100
1000
1100
0000
0101
0000
,
1001
M00M
0110
0MM0
,
1000
1000
1000
0001
0100
0000
0101
0000
,
1001
M00M
0110
0MM0
,
0001
0001
0001
1000
0100
0010
0110
0000
,
0001
0000
0000
0000
0011
0000
0000
0000
0010
0000
0000
0100
1000
0000
0001
0000
,
0001
0000
0000
0000
0101
0000
0000
0000
0100
0000
0000
0010
1000
0000
0001
0000
,
0001
0010
0001
1000
0010
1000
0001
0100
0001
1000
0100
1000
,
0001
0001
0001
1000
1100
0000
0101
0000
,
0110
0000
0000
0000
0MM0
0000
0000
0000
0100
0000
0000
0100
0000
0000
0100
0000
,
0010
0000
0010
0000
0020
0000
1030
0001
,
1000
0000
0000
0000
1000
0000
0000
0000
1100
0000
0000
0100
0000
0000
M100
0000
,
0001
0100
1000
0010
,
0100
0000
0000
0000
0100
0000
0000
0000
0110
0000
0000
0100
0000
0000
0100
0000
,
0010
0000
0010
0000
0020
0000
0031
1000
,
0001
0000
0000
0000
0001
0000
0000
0000
0101
0000
0000
0100
0000
0000
010M
0000
,
1000
0100
1000
0001
0200
0000
0320
0000
,
2030
0000
3001
1000
0001
0010
0100
1000
,
0000
1000
0010
0100
0001
0100
0010
1000
,
0002
0000
1003
0001
1000
0010
0100
0001
,
0100
0001
1000
0100
0010
0100
1000
0001
,
1001
0000
0000
1000
0100
0000
1000
0000
0001
0000
1000
0000
1000
0000
0000
0000
,
1001
0000
0000
0001
0100
0000
0001
0000
1000
0000
0001
0000
0001
0000
0000
0000
,
1100
0000
0000
1000
0001
0000
0100
0000
0101
0000
0000
0001
1000
0000
0200
0000
,
0000
0320
0032
0000
2000
0000
0000
3003
,
1001
0000
1000
0000
0100
0000
1000
0001
,
1001
0000
0001
0000
0100
0000
0001
1000
,
1001
0000
0000
1000
1100
0000
0000
0001
,
0201
0000
0000
0000
0000
0000
0310
0100
0010
0100
0000
0000
,
0001
0000
0100
1000
0001
0000
0010
1000
,
0001
0000
0010
1000
0001
0000
0100
1000
,
0001
0100
0010
1000
0001
0010
0100
1000
,
0001
0100
0001
1000
0100
1000
0001
1000
0001
1000
0000
0000
,
1001
0000
0000
1000
0100
0000
0010
0000
0001
0000
0000
0001
0100
0000
0010
0000
,
1000
1010
0000
0011
0000
1010
0000
0011
,
0001
0000
0000
0001
0100
0000
0010
0000
1000
0000
0000
1000
0100
0000
0010
0000
,
0001
0011
0000
1010
0000
0011
0000
1010
,
1000
0000
0000
1000
0010
0000
0100
0000
0001
0000
0000
0001
0010
0000
0100
0000
,
1000
1100
0000
0101
0000
1100
0000
0101
,
0001
0000
0000
0001
0010
0000
0100
0000
1000
0000
0000
1000
0010
0000
0100
0000
,
0002
0000
0000
0000
0000
0000
1003
0001
1000
0001
0000
0000
,
0100
0000
0000
0100
0010
0000
1000
0000
0100
0000
0000
0100
0010
0000
0001
0000
,
0100
0101
0000
1100
0000
1010
0000
0011
,
0010
0000
0000
0010
0100
0000
1000
0000
0010
0000
0000
0010
0100
0000
0001
0000
,
0010
0000
0000
0011
0000
0000
0000
0000
0000
1010
0000
0000
1000
0000
0001
0000
1000
0000
0001
0000
0000
0010
0000
0000
,
0100
0000
0000
0100
0010
0000
0001
0000
0100
0000
0000
0100
0010
0000
1000
0000
,
0100
1100
0000
0101
0000
0011
0000
1010
,
0010
0000
0000
0010
0100
0000
0001
0000
0010
0000
0000
0010
0100
0000
1000
0000
,
0010
0010
0010
0100
0101
0000
1100
0000
,
1000
0000
0100
0010
1000
0010
0002
0000
,
0103
0100
0100
0001
1000
0000
0100
0010
,
0001
0000
0100
0010
0001
0010
2000
0000
,
3100
0100
0100
1000
0001
0000
0100
0010
,
1001
0000
0000
1000
0010
0000
1000
0000
0001
0000
1000
0000
1000
0000
0000
0000
,
1001
0000
0000
0001
0010
0000
0001
0000
1000
0000
0001
0000
0001
0000
0000
0000
,
1000
0010
1000
0001
0010
0001
1000
0100
1000
0001
0100
0001
,
1000
1000
1000
0001
0101
0000
1100
0000
,
1000
0200
0000
0300
0110
0000
0010
0001
,
00M0
0001
0200
0000
1300
1000
0100
0000
,
1000
0010
0010
0100
0200
0000
0310
1000
,
00M0
1000
0200
0000
0302
0000
1003
0000
,
0001
0200
0000
0300
0110
0000
0010
1000
,
00M0
1000
0200
0000
0301
0001
0100
0000
,
0001
0010
0010
0100
0200
0000
0310
0001
,
00M0
0000
0001
0000
0200
0000
0000
0000
2300
0000
0000
3000
1001
0000
0000
0000
,
0101
0000
0001
0100
010M
1000
0010
0000
,
1000
1000
10M0
0100
0101
0000
1100
0000
,
1010
0000
1000
0010
M010
0001
0100
0000
,
0001
0001
0M01
0100
1100
0000
0101
0000
,
0011
0000
0000
0001
0010
0000
0001
0000
1000
0000
0001
0000
0001
0000
0000
0000
,
1010
0000
0000
1000
0010
0000
1000
0000
0001
0000
1000
0000
1000
0000
0000
0000
,
0001
0010
0001
1000
0010
1000
0001
0100
0001
1000
0100
1000
,
0001
0001
0001
1000
1100
0000
0101
0000
,
1000
0000
0000
0000
1100
0000
0000
0000
1000
0000
0000
1000
0000
0000
1000
0000
,
0002
0000
0003
0000
0000
0000
0000
0000
0000
0000
0000
0000
0102
0000
0003
0000
0000
0000
0000
0000
0000
0000
0000
0000
0002
0000
0003
0000
0000
0000
0000
0000
0000
0002
0000
0003
0000
0000
0000
0000
0000
0000
0002
0000
0003
0000
0000
0000
,
2000
0000
0000
0000
3000
0000
0000
0000
0000
0000
0000
0000
2010
0000
0000
0000
3000
0000
0000
0000
0000
0000
0000
0000
2000
0000
0000
0000
3000
0000
0000
0000
0000
2000
0000
0000
0000
3000
0000
0000
0000
0000
2000
0000
0000
0000
3000
0000
,
0002
0000
0003
0000
0012
0000
0003
0000
0002
0000
0003
0002
0000
0003
0002
0000
,
0003
0000
0000
0000
;

//--------------- dance-single - tikal. ----------------
#NOTES:
     dance-single:
     tikal.:
     Challenge:
     11:
     0,0,0,0,0:
0000
0000
0000
0000
,
0000
0000
0000
0000
,
0000
0000
0000
0000
,
0000
0000
0000
0000
,
0012
1003
2010
3001
,
1100
0000
0000
0000
0101
0000
0000
0000
1001
0000
0000
1000
0000
0000
0001
0000
,
0011
0000
0000
0000
1010
0000
0000
0000
1001
0000
0000
1000
0000
0000
1000
0000
,
1100
0000
0000
0000
0101
0000
0000
0000
0001
0000
1000
0000
0200
0000
0000
0300
,
1100
0000
0000
0000
0101
0000
0000
0000
0001
0000
0000
0010
0001
0000
1000
0000
,
1010
0000
0000
0000
0011
0000
0000
0000
0001
0000
0000
0100
0001
0000
0001
0000
,
0101
0000
0000
0000
1100
0000
0000
0000
1000
0000
0000
0010
1000
0000
0001
0000
,
1000
0000
0100
0010
0000
0001
1000
0000
0010
0100
0000
0001
1000
0000
0000
0000
,
1010
M0M0
0101
0M0M
,
0001
0000
0100
0010
0000
1000
0001
0000
0010
0100
0000
1000
0001
0000
0000
0000
,
0011
0000
00MM
0000
1100
1000
0001
0000
,
1000
0000
0010
0100
0000
0001
1000
0000
0100
0000
0100
0000
0110
0000
0000
0000
,
0001
0000
0010
0100
0010
0000
0100
0000
1000
0000
0100
1000
0100
0000
0010
0001
,
1000
0000
0010
0100
0010
0000
0100
0000
0001
0000
0100
0001
0100
0000
0010
1000
,
0001
0010
0100
1000
0010
0100
0001
0010
0001
1000
0010
1000
,
0001
0000
0001
0000
0001
0000
1000
0000
0001
0010
0100
1000
0001
0100
0010
1000
,
0001
0000
0000
0000
M00M
0000
0000
0000
0110
0000
0000
0110
0000
0000
0110
0000
,
1000
0000
0000
0000
0000
0000
1000
0000
0000
0000
0000
0000
0100
0000
0010
0000
0001
0000
1000
0000
0000
0010
0000
0000
,
0100
0000
0000
0000
0100
0000
0000
0000
0110
0000
0000
0101
0000
0000
1001
0000
,
1000
0000
0000
0000
0001
0000
0000
0000
0010
0000
0000
0100
1000
0000
0001
0000
,
1000
0000
0000
0000
1000
0000
0000
0000
0110
0000
0000
0110
0000
0000
0110
0000
,
0001
0000
0000
0000
0001
0000
0000
0000
0020
0000
0000
0130
1000
0000
0001
0000
,
0100
0000
0000
0000
0100
0000
0000
0000
0110
0000
0000
1010
0000
0000
1001
0000
,
0001
0010
0001
0100
0020
0000
2030
0000
,
3004
0000
0003
0000
1000
0000
0001
0000
1000
0010
0100
0001
1000
0100
0010
0100
,
1000
0001
0100
0001
1000
0010
0100
0001
1000
0001
0010
0100
1000
0001
0100
0010
,
4000
0000
3001
0100
0010
0100
0001
1000
0001
0010
0100
1000
0001
0100
0001
1000
,
0010
1000
0001
0010
0100
1000
0100
0010
0001
0100
0010
1000
0004
0000
0000
0000
,
4003
0000
3001
0100
0001
0000
1000
0000
0001
0010
0100
0010
0100
1000
0001
0100
,
0001
1000
0100
0010
0001
1000
0010
1000
0001
0100
0010
0100
0010
1000
0001
1000
,
0004
0000
1003
0100
1000
0001
0100
0010
0100
0001
1000
0100
0010
0100
1000
0001
,
0100
0000
0010
0100
0010
0000
1000
0001
1000
0000
0000
0001
0000
0000
1000
0000
,
1001
0000
0000
0000
1000
0000
0000
0000
0100
0000
0000
0000
1000
0000
0001
1000
,
1001
0000
0000
0000
0001
0000
0000
0000
0100
0000
0000
0000
0001
0000
1000
0001
,
1001
0000
0000
0000
1000
0000
0010
1000
1010
0000
0000
0000
0001
0000
0010
0001
,
1000
0100
1000
0001
0100
0001
1000
0001
1000
0001
0000
0000
,
1000
0000
0100
0010
0100
0000
0001
0000
1000
0000
0010
0100
0010
0000
0001
0000
,
1000
0000
0010
0100
0010
0000
0001
0000
1000
0000
0100
0010
0100
0000
0001
0000
,
1000
0100
1000
0100
0010
0001
0010
0001
1000
0010
0100
0001
0100
0010
1000
0001
,
1000
0000
0100
0000
0010
0000
0001
0000
1000
0000
0010
0000
0100
0000
0000
0001
0000
0000
1001
0000
0000
0000
0000
0000
,
1000
0000
0100
0001
0100
0000
1000
0000
0010
0000
0100
0001
0100
0000
0010
0000
,
1000
0000
0000
0000
0000
0000
0200
0000
0000
0310
0000
0000
0001
0000
0000
0000
0000
0000
0200
0000
0000
0300
0000
0000
0010
0000
0000
0000
1000
0000
0000
0000
0010
0000
0000
0000
1000
0000
0000
0000
0000
0000
0200
0000
0000
0300
0000
0000
,
1000
0000
0010
0001
0010
0000
1000
0000
0100
0000
0010
0001
0010
0000
0100
0000
,
1000
0000
0000
0000
0000
0000
0020
0000
0000
0130
0000
0000
0001
0000
0000
0000
0000
0000
0020
0000
0000
0030
0000
0000
0100
0000
0000
0000
1000
0000
0000
0000
0100
0000
0000
0000
2000
0000
0000
0000
0000
0000
0000
0000
0000
0000
0000
0000
,
3001
0000
0100
1000
0100
0000
0001
0000
0010
0000
0100
1000
0100
0000
0010
0000
,
0001
0000
0000
0000
0000
0000
0200
0000
0000
0310
0000
0000
1000
0000
0000
0000
0000
0000
0200
0000
0000
0300
0000
0000
0010
0000
0000
0000
0001
0000
0000
0000
0010
0000
0000
0000
0001
0000
0000
0000
0000
0000
0200
0000
0000
0300
0000
0000
,
0001
0000
0010
1000
0010
0000
0001
0000
0100
0000
0010
1000
0010
0000
0100
0000
,
0001
0100
0001
1000
0100
1000
0001
1000
0001
1000
0000
0000
,
0001
0010
0000
0001
0010
0000
0100
0000
1000
0000
0001
0000
1000
0010
1000
0000
,
0001
0000
0000
0010
0000
0000
0001
0000
0000
0010
0000
0000
0100
0000
0000
0000
0000
0000
1000
0000
0000
0000
0000
0000
0001
0000
0000
0000
0100
0000
0000
0000
0001
0000
0000
0000
1000
0000
0000
0100
0000
0000
1000
0000
0000
0001
0000
0000
,
1000
0010
0000
1000
0010
0000
0100
0000
0001
0000
1000
0000
0001
0010
0001
0000
,
1000
0000
0000
0010
0000
0000
1000
0000
0000
0010
0000
0000
0100
0000
0000
0001
0000
0000
0100
0000
0000
0001
0000
0000
1000
0000
0000
0000
0100
0000
0000
0000
1000
0000
0000
0000
0001
0000
0000
0100
0000
0000
0001
0000
0000
1000
0000
0000
,
0001
0100
0000
0001
0100
0000
0010
0000
1000
0000
0001
0000
1000
0100
1000
0000
,
0001
0000
0000
0100
0000
0000
0001
0000
0000
0100
0000
0000
0010
0000
0000
0000
0000
0000
1000
0000
0000
0000
0000
0000
0001
0000
0000
0000
0010
0000
0000
0000
0001
0000
0000
0000
1000
0000
0000
0010
0000
0000
1000
0000
0000
0001
0000
0000
,
1000
0100
0000
1000
0100
0000
0010
0000
0001
0000
1000
0000
0001
0100
0001
0000
,
1000
0000
0100
1000
0001
0000
0100
0000
0110
0000
0000
0000
1001
0000
0000
0000
,
0001
0010
0100
0010
0001
0100
2000
0000
,
3100
0100
0100
0010
2000
0000
3002
0000
,
1003
0010
0100
0010
1000
0100
0002
0000
,
0103
0100
0100
0010
0002
0000
2003
0000
,
3001
0000
0100
0010
0100
0000
0010
0000
1000
0000
0010
1000
0010
0000
0100
0001
,
1000
0000
0100
0010
0100
0000
0010
0000
0001
0000
0010
0001
0010
0000
0100
1000
,
0001
0100
0010
1000
0100
0010
0001
0100
0001
1000
0100
1000
,
0001
0000
0010
0100
0000
1000
0001
0000
0100
0010
0000
1000
0004
0000
0000
0003
,
1001
0000
0000
0000
0001
0000
1000
0000
0001
0010
0100
0010
0001
1000
0100
1000
,
0001
0100
0010
0100
0010
1000
0001
0100
0001
1000
0001
0010
0100
1000
0100
0010
,
0001
0000
0000
0000
0101
0000
0000
0000
0001
0000
0000
0100
0001
0000
1000
0000
,
1010
0000
0000
0000
0011
0000
0000
0000
0001
0000
0010
0100
0010
0000
0001
0000
,
0101
0000
0000
0000
1100
0000
0000
0000
1000
0000
0000
0100
1000
0000
0001
0000
,
0011
0000
0000
0000
1010
0000
0000
0000
1000
0000
0010
0100
0010
0000
1000
0000
,
1100
0000
0000
0000
0011
0000
0000
0000
1000
0000
0100
0010
0100
0000
1000
0000
,
1010
0000
0000
0000
0101
0000
0000
0000
0001
0000
0100
0010
0200
0000
0000
0000
,
0304
0000
0003
0000
1000
0000
0001
0000
1000
0100
0010
0001
1000
0010
0100
0010
,
1000
0001
0010
0001
1000
0100
0010
0001
1000
0001
0100
0010
1000
0001
0010
0100
,
4000
0000
3001
0010
0100
0010
0001
1000
0001
0100
0010
1000
0001
0010
0001
1000
,
0100
1000
0001
0100
0010
1000
0010
0100
0001
0010
0100
1000
0004
0000
0000
0000
,
4003
0000
3001
0010
0001
0000
1000
0000
0001
0100
0010
0100
0010
1000
0001
0010
,
0001
1000
0010
0100
0001
1000
0100
1000
0001
0010
0100
0010
0100
1000
0001
1000
,
0004
0000
1003
0010
1000
0001
0010
0100
0010
0001
1000
0010
0100
0010
1000
0001
,
0010
0000
0100
1000
0000
0010
0100
0000
0001
0010
0000
0100
1000
0000
0001
0000
,
1000
0000
0000
0000
1100
0000
0000
0000
1000
0000
0000
1000
0100
0000
1000
0000
,
0002
0000
0003
0000
0000
0000
0000
0000
0000
0000
0000
0000
0102
0000
0003
0000
0000
0000
0000
0000
0000
0000
0000
0000
0002
0000
0003
0000
0000
0000
0000
0000
0000
0002
0000
0003
0100
0000
0000
0000
0000
0000
0002
0000
0003
0000
0000
0000
,
2000
0000
0000
0000
3000
0000
0000
0000
0000
0000
0000
0000
2010
0000
0000
0000
3000
0000
0000
0000
0000
0000
0000
0000
2000
0000
0000
0000
3000
0000
0000
0000
0000
2000
0000
0000
0010
3000
0000
0000
0000
0000
2000
0000
0000
0000
3000
0000
,
0002
0000
0003
0000
0012
0000
0003
0000
0002
0000
0003
0002
0010
0003
0002
0000
,
0003
0000
0000
0000
;
