#VERSION:0.83;
#TITLE:Tropical Rage;
#SUBTITLE:;
#ARTIST:DJ KAIRA;
#TITLETRANSLIT:;
#SUBTITLETRANSLIT:;
#ARTISTTRANSLIT:;
#GENRE:;
#ORIGIN:;
#CREDIT:;
#BANNER:tropicalrage-bn.png;
#BACKGROUND:tropicalrage-bg.png;
#PREVIEWVID:;
#JACKET:tropicalrage-jacket.png;
#CDIMAGE:;
#DISCIMAGE:;
#LYRICSPATH:;
#CDTITLE:cdtitle.png;
#MUSIC:tropicalrage.mp3;
#OFFSET:-0.025000;
#SAMPLESTART:42.789001;
#SAMPLELENGTH:12.415000;
#SELECTABLE:YES;
#BPMS:0.000=173.978,
84.000=86.989,
98.000=173.978,
206.000=86.989,
210.000=173.978;
#STOPS:;
#DELAYS:;
#WARPS:;
#TIMESIGNATURES:0.000=4=4;
#TICKCOUNTS:0.000=4;
#COMBOS:0.000=1;
#SPEEDS:0.000=1.000=0.000=0;
#SCROLLS:0.000=1.000;
#FAKES:;
#LABELS:0.000=Song Start;
#BGCHANGES:;
#KEYSOUNDS:;
#ATTACKS:
;

//---------------dance-single - ----------------
#NOTEDATA:;
#CHARTNAME:;
#STEPSTYPE:dance-single;
#DESCRIPTION:;
#CHARTSTYLE:;
#DIFFICULTY:Hard;
#METER:9;
#RADARVALUES:0.619733,0.774733,0.399443,0.065026,0.492336,467.000000,424.000000,43.000000,7.000000,0.000000,0.000000,0.000000,0.000000,0.000000,0.619733,0.774733,0.399443,0.065026,0.492336,467.000000,424.000000,43.000000,7.000000,0.000000,0.000000,0.000000,0.000000,0.000000;
#CREDIT:;
#NOTES:
0000
0000
0000
0000
,
0000
0000
0000
0000
,
0000
0000
0000
0000
,
0000
0000
0000
0000
,
1000
0000
0000
0010
0000
0000
1000
0000
0000
0000
0010
0000
0100
0000
0001
0000
,
0010
0000
0000
0001
0000
0000
0010
0000
0000
0001
0000
0001
1000
0000
0100
0000
,
0010
0000
0000
0001
0000
0000
0010
0000
0000
0000
0100
0000
1000
0000
0010
0000
,
1000
0000
0000
0010
0000
0000
1000
0000
0000
0001
0000
0001
0100
0000
0010
0000
,
1000
0000
0000
0001
0000
0000
1000
0000
0000
0000
1000
0000
0010
0000
1000
0000
,
0001
0000
0000
1000
0000
0000
0001
0000
0000
0010
0000
0010
0001
0000
0010
0000
,
0100
0000
0000
1000
0000
0000
0100
0000
0000
0000
1000
0000
0001
0000
1000
0000
,
0001
0000
0000
0100
0000
0000
0001
0000
0000
1000
0000
1000
0100
0000
0010
0000
,
0001
0010
0001
1000
0000
1010
1010
1000
,
0100
0000
0010
0000
0001
0000
0010
0000
0001
1000
0000
1000
0001
0000
0100
0000
,
0010
1000
0010
0100
0000
0101
0101
0001
,
0010
0000
0100
0000
1000
0000
0010
0000
1000
0100
0000
0100
1000
0000
0001
0000
,
0010
0100
0010
0001
0000
1001
1001
1000
,
0010
0000
0100
0000
0010
0000
1000
0000
0001
0100
0000
0100
0001
0000
0010
0000
,
0100
1000
0010
1000
0000
1001
1001
0001
,
0010
0000
0000
0010
0000
0000
0010
0000
1001
0000
0000
1001
0000
0000
1001
0000
,
2002
0000
0000
3003
,
1000
0000
0000
0001
0000
0010
0000
0001
0000
1000
0000
0100
0000
0010
0000
0000
0001
0000
0000
0010
0000
0000
0011
0000
0000
0000
0000
0000
0000
0000
0000
0000
,
1000
0000
0000
1000
0000
0000
1010
0000
0000
0000
0001
0000
0010
0000
0100
0000
1000
0000
0000
0001
0000
0000
1001
0000
0000
0000
0000
0000
0000
0000
0000
0000
,
1000
0000
0000
0010
0000
1000
0000
0001
0000
0100
0000
0010
0000
0100
0000
0000
0010
0000
0000
1000
0000
0000
1010
0000
0000
0000
0000
0000
0000
0000
0000
0000
,
0001
0000
0000
0001
0000
0000
0011
0000
0000
0000
1000
0000
0010
0000
1000
0000
1010
0000
0000
0000
0000
0000
1000
0000
0000
0000
0000
0000
1000
0000
0000
0000
,
1001
0000
0000
0001
0000
0000
0001
0000
0011
0000
0000
0001
0000
0000
0001
0000
,
1001
0000
0000
1000
0000
0000
1000
0000
0010
0000
0000
1000
0010
0000
0000
0100
,
0001
0000
0000
1000
0010
0000
0000
0100
0001
0000
0010
0000
0100
0000
1000
0000
,
0010
0000
0001
0000
0010
0000
1000
0000
0010
0000
0000
1010
0000
0000
1010
0000
,
0000
0000
0000
0000
0001
0010
0001
0010
,
0000
0000
0100
0000
1000
0000
0010
0000
1000
0000
0000
1001
0000
0000
1001
0000
,
0000
0000
0000
0000
1000
0100
0010
0001
,
0100
0000
1000
0000
0100
0000
0001
0000
0100
0000
0000
0101
0000
0000
0101
0000
,
0000
0000
0000
0000
0010
1000
0010
1000
,
0000
0000
0100
0000
0001
0000
0010
0000
0001
0000
0000
1001
0000
0000
1001
0000
,
0000
0000
0011
0101
,
1010
0000
0000
0000
1100
0000
0000
0000
0020
0000
0000
1000
0000
0000
1030
0000
,
0000
0000
0001
0000
0010
0000
0100
0000
1000
0000
0010
0000
1000
0000
0001
1000
,
0000
0000
0001
0000
0000
0000
0000
0000
0002
0000
0000
0010
0000
0000
0013
0000
,
0000
0000
0100
0000
1000
0000
0010
0000
1000
0000
0001
0000
1000
0000
0001
0010
,
0000
0000
0000
0000
0000
0000
0000
0000
0002
0000
0000
0100
0000
0000
0103
0000
,
0000
0000
0001
0000
1000
0000
0100
0000
0010
0000
0001
0000
0010
0000
0001
1000
,
0000
0000
0100
0000
0000
0000
0000
0000
0200
0000
0000
1000
0000
0000
1300
0000
,
0000
0000
0001
0000
0010
0000
0100
0000
1000
0000
0001
0000
1000
0000
0010
0100
,
0000
0000
0000
0000
0000
0000
0000
0000
0001
0000
0000
0010
0000
0000
0001
0000
,
0000
0000
1000
0000
0001
0000
0000
0000
1000
0000
0000
0010
0000
0000
1000
0000
,
0000
0000
0001
0000
1000
0000
0000
0000
0001
0000
0000
0100
0000
0000
0001
0000
,
0000
0000
1000
0000
0010
0000
0000
0000
1000
0000
0000
0100
0000
0000
1000
0000
,
0000
0001
0010
0000
0001
0000
1000
0000
,
0010
1000
0010
1000
0100
0000
0010
0000
,
0001
0100
0001
0100
0010
0000
1000
0000
,
0001
0000
0000
0000
0010
0000
0000
0000
0100
0000
0000
0000
1000
0000
0000
0000
1000
0000
0000
1000
0000
0000
1000
0000
0010
0000
0000
0010
0000
0000
0010
0000
,
0100
0000
0000
0100
0000
0000
0100
0000
0001
0000
0000
0001
0000
0000
0001
0000
0002
0000
0000
0000
0000
0000
0000
0000
0100
0000
0000
0000
0000
0000
0000
0000
,
0100
0000
0100
0003
0001
1000
0100
0010
,
0001
0000
0100
0000
1000
0000
0100
0000
0001
0000
0000
0101
0000
0000
0101
0000
,
0000
0000
0000
0000
0010
1000
0010
1000
,
0000
0000
0100
0000
0010
0000
0001
0000
0010
0000
0000
0011
0000
0000
0011
0000
,
0000
0000
0000
0000
0001
0100
0010
1000
,
0100
0000
0001
0000
0100
0000
1000
0000
0100
0000
0000
1100
0000
0000
1100
0000
,
0000
0000
0000
0000
0001
0010
0001
0010
,
0000
0000
0100
0000
1000
0000
0010
0000
1000
0000
0000
1010
0000
0000
1001
0000
,
0000
0000
0000
0000
0000
0000
0000
0000
0001
0010
0000
0001
0000
1000
0001
0000
,
1000
0000
0100
0000
0010
0000
0001
0000
1000
0010
1000
0000
0001
0000
0100
0010
,
0000
0000
0110
0000
0000
0000
0000
0000
1000
0010
0000
0100
0000
0010
1000
0000
,
0001
0000
0010
0000
0100
0000
1000
0000
0001
1000
0001
0000
1000
0000
0100
0010
,
0000
0000
0000
0000
0000
0000
0000
0000
0001
0010
0000
0010
0000
0100
1000
0000
,
0010
0000
1000
0000
0100
0000
0010
0000
0001
0010
0001
0000
1000
0000
0010
0100
,
0000
0000
0110
0000
0000
0000
0000
0000
1000
0001
0000
0001
0000
1000
0010
0000
,
0100
0001
0100
0010
1000
0100
0010
0001
,
0100
0000
0010
0000
1000
0001
1000
0001
1000
0000
0000
0000
0000
0000
0000
0000
;

//---------------dance-single - ----------------
#NOTEDATA:;
#CHARTNAME:;
#STEPSTYPE:dance-single;
#DESCRIPTION:;
#CHARTSTYLE:;
#DIFFICULTY:Medium;
#METER:6;
#RADARVALUES:0.415367,0.484208,0.213655,0.046447,0.069670,313.000000,290.000000,23.000000,5.000000,0.000000,0.000000,0.000000,0.000000,0.000000,0.415367,0.484208,0.213655,0.046447,0.069670,313.000000,290.000000,23.000000,5.000000,0.000000,0.000000,0.000000,0.000000,0.000000;
#CREDIT:;
#NOTES:
// measure 0
0000
0000
0000
0000
,  // measure 1
0000
0000
0000
0000
,  // measure 2
0000
0000
0000
0000
,  // measure 3
0000
0000
0000
0000
,  // measure 4
1000
0010
1000
0010
0000
0000
0100
0000
,  // measure 5
0001
0000
0010
0000
0000
0000
0001
0001
,  // measure 6
0001
1000
0000
0010
,  // measure 7
1000
0000
0100
0000
0000
0000
1000
1000
,  // measure 8
1000
0001
0000
1000
,  // measure 9
0100
0000
0010
0000
0000
0000
0001
0001
,  // measure 10
0001
0100
0000
0001
,  // measure 11
0010
0000
0100
0000
0000
0000
1000
1000
,  // measure 12
0010
0010
0000
1000
0000
0001
0000
0010
,  // measure 13
0001
0010
0000
0100
0000
1000
0010
1000
,  // measure 14
0010
0100
0000
0001
0000
0100
0000
0001
,  // measure 15
0010
0001
0000
1000
0000
0001
0010
0100
,  // measure 16
1000
0010
0000
1000
0000
0010
0000
0100
,  // measure 17
0001
0010
0000
0001
0000
1000
0001
1000
,  // measure 18
0001
1000
0000
0010
0000
0100
0000
0001
,  // measure 19
0100
0000
0000
0100
0000
0000
0000
0000
0010
0000
0000
0010
0000
0000
0000
0000
,  // measure 20
2002
0000
0000
3003
,  // measure 21
0010
0000
0000
0000
1000
0000
0001
0000
1000
0000
0000
1010
0000
0000
0000
0000
,  // measure 22
0001
0000
0001
0000
0010
0000
0010
0000
0100
0000
0000
1001
0000
0000
0000
0000
,  // measure 23
0001
0000
0000
0000
1000
0000
1000
0000
0010
0000
0000
1010
0000
0000
0000
0000
,  // measure 24
0100
0100
0001
0001
0011
0000
0000
0000
,  // measure 25
1001
0000
1010
0000
,  // measure 26
1001
0000
0100
0100
,  // measure 27
0100
0100
0001
1000
,  // measure 28
0001
0010
0100
1000
0010
0000
0100
0000
,  // measure 29
0001
0000
1000
0010
,  // measure 30
1000
0001
1000
0001
0100
0000
0001
0000
,  // measure 31
0010
0000
1000
0001
,  // measure 32
1000
0100
0010
0001
0100
0000
0010
0000
,  // measure 33
1000
0000
0001
0010
,  // measure 34
0001
0100
0001
0100
0010
0000
1000
0000
,  // measure 35
0100
0000
1100
1100
,  // measure 36
1001
1001
0001
0010
,  // measure 37
0100
0000
0000
0000
1000
0000
0010
0000
1000
0000
0010
0000
0100
0000
0000
1001
,  // measure 38
0000
0000
1000
0001
,  // measure 39
0010
0000
0001
0000
1000
0100
0001
0100
,  // measure 40
1000
0000
0001
0100
,  // measure 41
0010
0000
0000
0000
1000
0000
0010
0000
0100
0000
0010
0000
0100
0000
0000
1001
,  // measure 42
0000
0000
0010
0001
,  // measure 43
0010
0000
0100
0000
1000
0100
0001
0100
,  // measure 44
1000
0000
0020
0000
,  // measure 45
1000
1000
1030
0000
,  // measure 46
0100
0001
0020
0000
,  // measure 47
0001
0001
0031
0000
,  // measure 48
0001
1000
0100
0010
,  // measure 49
0001
0010
0001
0000
1000
0000
0001
0000
,  // measure 50
1000
0010
1000
0000
0001
0000
0100
0000
,  // measure 51
0010
0100
0010
0000
0110
0000
1001
0000
,  // measure 52
1100
0101
2000
0010
,  // measure 53
0010
0000
3010
0000
1000
0000
0001
0010
,  // measure 54
0100
1000
0010
0000
1000
0000
0001
0000
,  // measure 55
1000
0000
0001
0010
,  // measure 56
0001
0100
0001
0100
0010
0000
1000
0000
,  // measure 57
0010
0000
0000
0000
1000
0000
0001
0010
,  // measure 58
0100
1000
0010
0000
0100
0000
0001
0000
,  // measure 59
0100
0000
0010
1000
,  // measure 60
0100
1000
0100
1000
0010
0000
0100
0000
,  // measure 61
0001
0000
0000
0000
0000
0000
0000
0000
1000
0000
0000
0010
0000
0000
1000
0000
,  // measure 62
0000
0000
0000
0000
0100
0000
0010
0000
0001
0000
1000
0000
0001
0000
0000
1001
,  // measure 63
0000
0000
0000
0000
0000
0000
0000
0000
0010
0000
0000
0001
0000
0000
0010
0000
,  // measure 64
0000
0000
0001
0000
1000
0000
0100
0000
0010
0000
0100
0000
0010
0000
0000
0110
,  // measure 65
0000
0000
0000
0000
0000
0000
0000
0000
0100
0000
0000
1000
0000
0000
0100
0000
,  // measure 66
0000
0000
0010
0000
0001
0000
0100
0000
0010
0000
1000
0000
0010
0000
0000
1010
,  // measure 67
0000
0000
0000
0000
0000
0000
0000
0000
0001
0000
0000
0100
0000
0000
0001
0000
,  // measure 68
0000
0000
1000
0000
0100
0000
0010
0000
0001
0000
0010
0000
0001
0000
0000
0011
,  // measure 69
0000
0000
0010
0010
1001
0000
0000
0000
;

//---------------dance-single - ----------------
#NOTEDATA:;
#CHARTNAME:;
#STEPSTYPE:dance-single;
#DESCRIPTION:;
#CHARTSTYLE:;
#DIFFICULTY:Easy;
#METER:4;
#RADARVALUES:0.318492,0.387366,0.250813,0.055736,0.000000,240.000000,213.000000,27.000000,6.000000,0.000000,0.000000,0.000000,0.000000,0.000000,0.318492,0.387366,0.250813,0.055736,0.000000,240.000000,213.000000,27.000000,6.000000,0.000000,0.000000,0.000000,0.000000,0.000000;
#CREDIT:;
#NOTES:
0000
0000
0000
0000
,
0000
0000
0000
0000
,
0000
0000
0000
0000
,
0000
0000
0000
0000
,
1000
1000
0010
0000
,
1000
0000
0001
0010
,
0100
1000
1000
0000
,
0001
0000
0010
0001
,
0100
1000
0100
0000
,
0001
0000
0001
0010
,
0100
1000
1000
0000
,
0001
0000
0010
0001
,
0011
1000
1010
0000
,
0010
0100
0010
1000
,
1010
0001
0011
0000
,
1000
0100
0010
0001
,
0011
0001
0101
0000
,
1000
0100
1000
0010
,
1010
1000
1100
0000
,
0001
0001
1000
1000
,
2002
0000
0000
3003
,
0001
0000
0001
0000
0010
0010
0010
0000
,
0001
0000
1000
0000
0010
0010
0010
0000
,
1000
0000
1000
0000
0100
0100
0100
0000
,
1000
0001
0011
0000
,
0011
0000
1010
0000
,
1010
0000
2002
0000
,
0000
3003
0001
0010
,
0001
1000
0100
0010
,
0001
0000
1000
0010
,
1000
0001
1000
0100
,
1000
0000
0001
0010
,
0001
1000
0100
0010
,
0001
0000
1000
0010
,
0100
0010
0100
0001
,
1000
0000
1010
0000
,
1001
0000
0001
1000
,
0100
0010
0001
0000
,
0001
0000
0100
1000
,
0010
0001
0010
0000
,
0010
0000
1000
0010
,
0100
0001
1000
0000
,
1000
0000
0010
0001
,
0100
1000
0100
0000
,
0100
0000
0101
0000
,
1000
1000
1100
0000
,
0010
0010
1010
0000
,
0001
0001
0011
0000
,
1000
1000
1000
0000
,
0001
0000
0010
0000
,
0100
0000
1000
0000
,
0001
0000
1001
1001
,
0110
0110
2002
0000
,
0000
3003
1000
0001
,
0010
0100
1000
0010
,
1000
0000
0001
0010
,
0001
0100
0010
1000
,
0010
0000
1000
0001
,
0010
0100
1000
0010
,
1000
0000
0001
0010
,
0001
1000
0100
0010
,
0001
0000
1000
0001
,
1000
0000
0010
0000
0010
0010
0010
0000
,
0100
0000
0001
0010
,
0001
0000
1000
0000
0100
0100
0100
0000
,
1001
0000
1000
0010
,
1000
0000
0001
0000
0001
0001
0001
0000
,
0100
0000
0001
0010
,
0100
0000
1000
0000
0001
0001
0001
0000
,
0010
0000
1001
0000
;

//---------------dance-single - ----------------
#NOTEDATA:;
#CHARTNAME:;
#STEPSTYPE:dance-single;
#DESCRIPTION:;
#CHARTSTYLE:;
#DIFFICULTY:Beginner;
#METER:3;
#RADARVALUES:0.218964,0.387366,0.139340,0.046447,0.000000,165.000000,150.000000,15.000000,5.000000,0.000000,0.000000,0.000000,0.000000,0.000000,0.218964,0.387366,0.139340,0.046447,0.000000,165.000000,150.000000,15.000000,5.000000,0.000000,0.000000,0.000000,0.000000,0.000000;
#CREDIT:;
#NOTES:
0000
0000
0000
0000
,
0000
0000
0000
0000
,
0000
0000
0000
0000
,
0000
0000
0000
0000
,
1000
0000
0001
0000
,
1000
0000
0010
0010
,
0010
0000
1000
0000
,
0001
0000
0100
0100
,
0100
0000
0001
0000
,
1000
0000
0010
0010
,
0010
0000
1000
0000
,
0001
0000
1000
0000
,
0100
0100
0100
0000
,
0010
0010
0010
0000
,
1000
1000
1000
0000
,
0010
0010
0010
0000
,
0100
0100
0100
0000
,
0001
0001
0001
0000
,
0010
0010
0010
0000
,
0001
0000
1000
0000
,
0002
0000
0000
0000
,
0003
0000
0110
0000
,
1000
0000
1001
0000
,
0010
0000
0110
0000
,
0001
0000
1001
0000
,
1001
0000
0110
0000
,
0110
0000
2002
0000
,
3003
0000
1000
0000
,
1000
0000
0010
0010
,
0010
0000
1000
0000
,
0001
0000
0100
0100
,
0100
0000
0001
0000
,
0001
0000
0010
0010
,
0010
0000
0001
0000
,
1000
0000
0100
0100
,
0100
0000
0000
0000
,
0000
0000
1000
1000
,
1000
0000
0001
0000
,
1000
0000
0010
0010
,
0010
0000
0100
0000
,
0010
0000
0001
0001
,
0001
0000
1000
0000
,
0001
0000
0100
0100
,
0100
0000
0010
0000
,
0100
0000
1001
0000
,
0000
0000
0010
0000
,
0000
0000
0100
0000
,
0000
0000
0010
0000
,
0000
0000
1000
0000
,
1000
0000
0001
0000
,
0001
0000
1000
0000
,
0001
0000
1001
1001
,
1001
1001
2002
0000
,
3003
0000
1000
0000
,
1000
0000
0010
0010
,
0010
0000
1000
0000
,
0001
0000
0100
0100
,
0100
0000
0001
0000
,
0001
0000
0010
0010
,
0010
0000
0001
0000
,
1000
0000
0100
0100
,
0100
0000
1000
1000
,
1000
0000
0001
0000
,
1000
0000
0100
0100
,
0100
0000
0010
0000
,
0100
0000
0001
0001
,
0001
0000
1000
0000
,
0001
0000
0010
0010
,
0010
0000
0100
0000
,
0010
0000
1001
0000
;
