#VERSION:0.83;
#TITLE:Sunset Drive;
#SUBTITLE:;
#ARTIST:5l1n65h07;
#TITLETRANSLIT:;
#SUBTITLETRANSLIT:;
#ARTISTTRANSLIT:;
#GENRE:Sunsetcore;
#ORIGIN:;
#CREDIT:;
#BANNER:[Your Name] - Sunset Drive.png;
#BACKGROUND:[Your Name] - Sunset Drive-bg.png;
#PREVIEWVID:;
#JACKET:[Your Name] - Sunset Drive-jacket.png;
#CDIMAGE:;
#DISCIMAGE:;
#LYRICSPATH:;
#CDTITLE:cdtitle.png;
#MUSIC:[Your Name] - Sunset Drive.mp3;
#OFFSET:-0.067000;
#SAMPLESTART:23.338001;
#SAMPLELENGTH:15.000000;
#SELECTABLE:YES;
#BPMS:0.000=165.000;
#STOPS:;
#DELAYS:;
#WARPS:;
#TIMESIGNATURES:0.000=4=4;
#TICKCOUNTS:0.000=4;
#COMBOS:0.000=1;
#SPEEDS:0.000=1.000=0.000=0;
#SCROLLS:0.000=1.000;
#FAKES:;
#LABELS:0.000=Song Start;
#BGCHANGES:;
#KEYSOUNDS:;
#ATTACKS:
;

//---------------dance-single - ----------------
#NOTEDATA:;
#CHARTNAME:;
#STEPSTYPE:dance-single;
#DESCRIPTION:;
#CHARTSTYLE:;
#DIFFICULTY:Hard;
#METER:8;
#RADARVALUES:0.587059,0.663244,0.147115,0.127500,0.210865,419.000000,404.000000,15.000000,13.000000,0.000000,0.000000,0.000000,0.000000,0.000000,0.587059,0.663244,0.147115,0.127500,0.210865,419.000000,404.000000,15.000000,13.000000,0.000000,0.000000,0.000000,0.000000,0.000000;
#CREDIT:;
#NOTES:
0000
0000
0000
0000
,
0000
0000
0000
0000
,
0000
0000
0000
0000
,
0000
0000
0000
0000
,
0000
1000
0000
0001
0000
0010
0000
0001
,
0000
1000
0000
0100
0000
1000
0000
0010
,
0000
1000
0000
0001
0000
0100
0000
0001
,
0000
0010
0000
0001
0000
1000
0000
0100
,
1000
0000
0000
0000
0001
0000
0000
0000
0100
0001
0000
0000
1000
0000
0000
0000
,
0010
0000
0000
0000
0100
0000
0000
0000
0010
1000
0000
0000
0001
0000
0000
0000
,
0100
0000
0010
0000
1000
0000
0000
0000
1000
0010
0000
0000
0010
0000
0100
0000
,
0001
0000
0000
0000
0100
0000
0000
0000
0001
0100
0000
0000
0010
0000
1000
0000
,
0100
0000
1000
0001
0100
0000
0010
0100
,
0000
0001
0100
0010
1000
0000
0100
1000
,
0001
0010
0001
1000
,
0010
0100
0001
0100
1000
0100
0002
0000
,
1003
0100
0010
0001
0010
0100
1000
0000
,
0010
0100
0001
0010
0001
1000
0001
0000
,
0010
0001
0100
0001
0010
0001
0100
0001
,
1000
0100
1000
0000
1010
0000
1001
0000
,
0001
0010
0100
1000
0100
0010
0001
0000
,
1000
0010
1000
0100
1000
0001
1000
0000
,
0001
0010
0001
0100
0010
1000
0100
1000
,
0001
0010
0001
0000
0011
0000
1001
0000
,
1000
0000
0000
0000
0100
0000
0000
0000
1000
0001
0000
1000
0001
0000
0000
0000
,
0001
0000
0000
0000
0100
0000
0000
0000
0001
1000
0000
0001
1000
0000
0000
0000
,
0010
0000
0100
0000
0001
0000
1000
0000
0100
0010
0000
0100
0010
0000
0000
0000
,
0001
0100
0010
0000
1001
0000
0110
0000
,
0001
0000
0010
0000
0100
0000
0000
0000
1000
0001
0000
1000
0001
0000
0000
0000
,
1000
0000
0100
0000
0010
0000
0001
0000
0100
0010
0000
0100
0010
0000
0000
0000
,
1000
0100
0010
0001
0010
0100
1000
0000
,
0001
0000
0100
0000
0010
0000
1000
0000
0100
0010
0000
0100
0010
0000
0000
0000
,
0002
0000
1000
0000
0000
0010
0000
0000
0100
0000
0000
0100
0003
0000
1000
0001
,
2000
0000
0001
0000
0000
0010
0000
0000
0100
0000
0000
0000
3100
0000
1000
0000
,
0002
0000
0100
0000
0000
0010
0000
0000
0100
0000
0000
0010
0003
0000
1000
0000
,
2000
0000
0000
0010
0000
0000
0010
0000
0100
0000
0000
0000
3100
0000
0000
0000
,
1000
0000
0001
0000
1000
0000
0100
0000
1000
0000
0000
0000
0001
0000
1000
0001
,
1000
0010
0100
0001
0100
0010
1000
0000
,
0100
0000
1000
0000
0001
0000
0100
0000
0001
0100
0000
0001
0000
0000
1000
0010
,
0000
0000
0001
0000
0010
1000
0000
0010
1000
0000
0000
0000
1000
0001
1000
0000
,
0010
0100
0010
0000
0100
0010
0100
0000
,
0001
0100
0001
0000
1000
0100
1000
0000
,
0001
0010
0100
0010
0001
0000
0010
0000
,
0001
0010
0100
1000
0010
0000
0100
0000
,
0001
1000
0001
1000
,
0010
0100
0010
0100
,
0010
1000
0010
1000
,
0001
0000
1001
0000
,
0001
0100
1000
0100
0001
0100
1000
0100
,
0001
0010
1000
0010
0001
0010
1000
0010
,
0001
1000
0100
0010
0001
1000
0100
0010
,
0001
0100
0010
0100
0001
0100
0010
1000
,
0100
0010
0001
0010
1000
0010
0001
0010
,
0100
1000
0100
0001
0100
1000
0100
0001
,
0100
1000
0001
0100
0001
0010
0100
1000
,
0001
0100
0010
0100
1001
0000
0011
0000
,
0001
0000
0100
0000
0001
0000
1000
0000
0010
1000
0000
0010
1000
0000
0001
0000
,
0010
0000
0001
0000
0100
0000
0010
0000
0100
0010
0000
0100
0010
0000
1000
0000
,
0100
0000
1000
0000
0100
0000
0010
0000
0001
1000
0000
0001
1000
0000
0100
0000
,
0010
0001
0100
0010
1100
0000
0101
0000
,
0001
0000
0100
0000
0001
0000
0010
0000
0001
0100
0000
0001
0100
0000
0010
0000
,
1000
0000
0100
0000
1000
0000
0001
0000
0100
0010
0000
0100
0010
0000
1000
0000
,
0010
0000
0100
0000
0001
0000
0010
0000
0001
0010
0000
0001
0010
0000
0001
0000
,
1001
0000
0110
0000
1001
0000
0100
0010
,
0100
0010
0100
0000
2002
0000
0000
0000
0000
0000
0000
0000
0003
0000
0000
0000
,
0020
3000
0200
0030
,
0002
0300
0023
0200
,
0030
0000
2300
0000
0010
3010
0000
0000
;

//---------------dance-single - ----------------
#NOTEDATA:;
#CHARTNAME:;
#STEPSTYPE:dance-single;
#DESCRIPTION:;
#CHARTSTYLE:;
#DIFFICULTY:Medium;
#METER:6;
#RADARVALUES:0.381098,0.497433,0.029423,0.098077,0.004904,272.000000,269.000000,3.000000,10.000000,0.000000,0.000000,0.000000,0.000000,0.000000,0.381098,0.497433,0.029423,0.098077,0.004904,272.000000,269.000000,3.000000,10.000000,0.000000,0.000000,0.000000,0.000000,0.000000;
#CREDIT:;
#NOTES:
0000
0000
0000
0000
,
0000
0000
0000
0000
,
0000
0000
0000
0000
,
0000
0000
0000
0000
,
0000
1000
0000
1000
0000
0001
0000
0001
,
0000
1000
0000
1000
0000
0001
0000
0001
,
0200
0000
0320
0000
,
0230
0000
0302
0000
,
1003
0000
0000
0010
0000
0000
0100
0000
,
0001
0000
0000
0010
0000
0000
0100
0000
,
1000
0000
0000
0010
0000
0000
1000
0000
,
0001
0100
0010
1001
,
0100
0000
0000
0010
0000
0000
1000
0000
,
0001
0000
0000
0100
0000
0000
0010
0000
,
0100
0001
1000
0000
,
0010
0100
0010
1000
0100
0010
0001
0000
,
1000
0001
1000
0010
,
1000
0001
0100
0001
,
0010
0001
0100
0001
,
1000
0010
0100
0010
,
1000
0001
1000
0000
0010
0000
1000
0000
,
0010
0100
0010
0000
1000
0000
0001
0000
,
0010
0100
1000
0001
0010
0000
0001
0000
,
1000
0000
0010
0000
0100
0000
0001
0010
,
0001
0000
0100
0000
0010
1000
0010
0000
,
1000
0000
0100
0000
0010
0001
0010
0001
,
0010
0000
0001
0100
0001
0000
1000
0000
,
0010
0100
0010
0100
0001
0100
0001
0000
,
1000
0100
1000
0000
0001
0100
0001
0100
,
0001
0000
1000
0000
0100
0010
0100
0000
,
0010
0000
0010
0000
,
0001
0000
0100
0000
0001
0000
1000
0010
,
1000
0000
0000
0000
1000
0000
0000
0010
,
0010
0000
0000
0100
0000
0000
0010
0000
,
1000
0001
1000
0001
0100
0000
0000
0010
,
0010
0000
0000
0000
0100
0000
0000
0100
0000
0000
0000
0000
0000
0000
0001
0000
,
0100
0001
1000
0010
,
1000
0001
0010
0100
,
1000
0010
1000
0000
0001
0000
0100
0000
,
0001
0000
1000
0000
0010
0000
0100
0100
,
0002
0000
0000
1003
,
0200
0000
0000
1300
,
0002
0000
0000
0103
,
0020
0000
0000
0000
0000
0000
1030
0100
,
1000
0010
1000
0100
,
1000
0001
0100
0001
,
0010
0001
1000
0001
,
1000
0000
0110
0000
,
1000
0010
1000
0000
0001
0000
0100
0000
,
0010
0100
0001
0010
,
0001
1000
0001
0000
1000
0000
0100
0000
,
1000
0000
0010
0000
0100
0000
0010
1000
,
0010
1000
0001
0000
0010
0000
0100
0000
,
1000
0010
0100
0001
,
1000
0010
1000
0000
0100
0000
1000
0000
,
0001
0000
0100
0000
0001
0100
0010
1000
,
0100
0000
0010
0000
0001
0010
0100
0010
,
0001
0000
1000
0000
0010
1000
0010
0100
,
0010
1000
0001
0000
0100
0000
0001
0010
,
0001
0000
1000
0000
0010
0100
0010
1000
,
0010
0000
0100
0000
0001
0000
0010
0001
,
0010
0000
0001
0000
0010
0000
0001
0100
,
0001
1000
0010
1000
,
0001
1000
0001
1000
0001
0100
0010
0100
,
0010
2002
3003
0000
,
0100
0000
0000
0000
,
0010
0000
0000
0100
,
0000
0000
0000
0000
0001
1000
0000
0000
;

//---------------dance-single - ----------------
#NOTEDATA:;
#CHARTNAME:;
#STEPSTYPE:dance-single;
#DESCRIPTION:;
#CHARTSTYLE:;
#DIFFICULTY:Easy;
#METER:3;
#RADARVALUES:0.260604,0.364784,0.098077,0.068654,0.000000,186.000000,176.000000,10.000000,7.000000,0.000000,0.000000,0.000000,0.000000,0.000000,0.260604,0.364784,0.098077,0.068654,0.000000,186.000000,176.000000,10.000000,7.000000,0.000000,0.000000,0.000000,0.000000,0.000000;
#CREDIT:;
#NOTES:
// measure 0
0000
0000
0000
0000
,  // measure 1
0000
0000
0000
0000
,  // measure 2
0000
0000
0000
0000
,  // measure 3
0000
0000
0000
0000
,  // measure 4
1000
0000
0000
0000
,  // measure 5
0001
0000
0000
0000
,  // measure 6
1000
0000
0000
0000
,  // measure 7
0010
0000
0000
0000
,  // measure 8
0100
0000
0100
0000
,  // measure 9
0010
0000
0010
0000
,  // measure 10
1000
0000
0001
0000
,  // measure 11
1000
0000
0001
0000
,  // measure 12
0010
0000
0000
0100
0000
0000
0010
0000
,  // measure 13
0000
0000
0001
0000
,  // measure 14
1000
0100
1000
0010
,  // measure 15
1000
0100
0010
0001
,  // measure 16
0100
0100
0010
0010
,  // measure 17
1000
0001
0100
0010
,  // measure 18
0010
1000
0001
0001
,  // measure 19
0100
0001
0011
0011
,  // measure 20
1000
0010
0100
0000
,  // measure 21
0010
1000
0100
0000
,  // measure 22
1000
0001
1000
0010
,  // measure 23
0100
0100
0101
0101
,  // measure 24
0001
0000
1000
0001
,  // measure 25
1000
0000
0010
0100
,  // measure 26
0010
0100
0001
0100
,  // measure 27
0001
0000
1001
1001
,  // measure 28
0100
0000
0010
0010
,  // measure 29
0010
0000
1000
1000
,  // measure 30
1000
0000
0001
1000
,  // measure 31
0001
0000
0100
0010
,  // measure 32
0110
0000
0100
0000
,  // measure 33
0001
0000
0000
1000
0000
0000
0000
0000
,  // measure 34
0010
0000
0000
0000
0100
0000
0000
0010
,  // measure 35
0000
0100
0000
0000
,  // measure 36
0001
0000
0000
0000
1000
0000
0000
0010
,  // measure 37
0000
0000
0000
0100
0000
0000
0000
0000
,  // measure 38
0001
0000
0000
0000
1000
0000
0000
0001
,  // measure 39
0000
1000
0000
0000
,  // measure 40
0020
0000
0000
0030
,  // measure 41
0020
0000
0000
0030
,  // measure 42
0020
0000
0000
0030
,  // measure 43
0020
0000
0000
0030
,  // measure 44
1020
0000
0130
0100
,  // measure 45
0020
0000
1030
1000
,  // measure 46
0020
0000
0130
0100
,  // measure 47
0001
0000
1001
0000
,  // measure 48
0100
0010
0100
0000
,  // measure 49
0001
1000
0001
0000
,  // measure 50
1000
0100
0010
0001
,  // measure 51
0010
0100
1000
0001
,  // measure 52
1000
0010
1000
0000
,  // measure 53
0001
0010
0001
0000
,  // measure 54
1000
1000
0001
0001
,  // measure 55
0010
0001
1000
0100
,  // measure 56
1000
0010
1000
0100
,  // measure 57
1000
0010
1000
0100
,  // measure 58
1000
0001
0100
0001
,  // measure 59
1000
0001
0100
0001
,  // measure 60
1000
1000
0010
0010
,  // measure 61
1000
0010
1000
0001
,  // measure 62
0100
0100
0010
0010
,  // measure 63
1000
0100
0010
0001
,  // measure 64
0000
1001
0000
0000
,  // measure 65
0100
0000
0000
0000
,  // measure 66
0010
0000
0000
0100
,  // measure 67
0000
0000
0000
0000
0010
0010
0000
0000
;
