#VERSION:0.83;
#TITLE:SUN;
#SUBTITLE:;
#ARTIST:DEMO;
#TITLETRANSLIT:;
#SUBTITLETRANSLIT:;
#ARTISTTRANSLIT:;
#GENRE:;
#ORIGIN:;
#CREDIT:SupremeX;
#BANNER:SUN-bn.png;
#BACKGROUND:SUN-bg.png;
#PREVIEWVID:;
#JACKET:SUN-jacket.png;
#CDIMAGE:;
#DISCIMAGE:;
#LYRICSPATH:;
#CDTITLE:cdtitle.png;
#MUSIC:Sun.ogg;
#OFFSET:-0.924025;
#SAMPLESTART:55.720001;
#SAMPLELENGTH:12.000000;
#SELECTABLE:YES;
#BPMS:0.000=138.030;
#STOPS:;
#DELAYS:;
#WARPS:;
#TIMESIGNATURES:0.000=4=4;
#TICKCOUNTS:0.000=4;
#COMBOS:0.000=1;
#SPEEDS:0.000=1.000=0.000=0;
#SCROLLS:0.000=1.000;
#FAKES:;
#LABELS:0.000=Song Start;
#BGCHANGES:;
#KEYSOUNDS:;
#ATTACKS:
;

//---------------dance-single - ----------------
#NOTEDATA:;
#CHARTNAME:;
#STEPSTYPE:dance-single;
#DESCRIPTION:;
#CHARTSTYLE:;
#DIFFICULTY:Hard;
#METER:7;
#RADARVALUES:0.424323,0.492438,0.195412,0.156329,0.117247,304.000000,284.000000,20.000000,16.000000,0.000000,0.000000,0.000000,0.000000,0.000000,0.424323,0.492438,0.195412,0.156329,0.117247,304.000000,284.000000,20.000000,16.000000,0.000000,0.000000,0.000000,0.000000,0.000000;
#CREDIT:;
#NOTES:
0000
0000
0000
0000
,
0000
0000
0000
0000
,
0000
0000
0000
0000
,
0000
0000
0000
0000
,
1000
0000
0100
0000
1000
0001
0100
0001
,
1000
0000
0110
0000
0001
0010
0100
1000
,
0010
0000
0101
0000
1000
0100
0010
0001
,
1000
0000
1100
0000
0010
0100
0010
0100
,
0001
0000
0001
0000
1000
0100
1000
0200
,
0000
0300
1000
0100
0000
1000
0100
0010
,
0001
0000
0011
0000
0100
1000
0100
2000
,
0000
3000
0100
1000
0000
0010
0100
0001
,
1000
0000
0110
0000
0001
1000
0001
0200
,
0000
0300
0010
1000
0000
0010
0100
0001
,
0100
0000
1010
0000
0001
0010
0100
2000
,
0000
3000
0100
0010
0000
0001
0100
0010
,
1000
0000
0100
0000
0010
0000
0001
0002
,
0000
0003
0100
0200
0000
0320
0000
0130
,
0000
0000
0010
0000
1000
0000
0100
2000
,
0000
0000
3100
0100
0000
0110
0000
1001
,
0000
0000
0100
0000
0001
0000
0100
0020
,
0000
1000
0000
1030
0000
0000
0001
1000
,
0000
0200
0000
2300
0000
3020
0000
0130
,
0000
0101
0000
0000
0001
1000
0010
0000
,
1000
0001
0100
0000
0010
0000
1000
0100
,
0000
0000
1000
0001
0000
0200
0000
0310
,
0000
0000
0100
0000
0001
0000
0100
0010
,
0000
0000
1000
0100
0000
0100
1000
0100
,
0010
0000
0101
0000
0010
0000
1000
0100
,
0000
1000
0000
0100
0000
0010
0000
0001
,
0000
0010
0000
0011
0000
1100
0000
0001
,
0000
0000
1001
0000
0000
0000
0000
0000
0010
0100
0010
0000
0100
0010
0100
0000
,
0001
0010
0100
1000
0010
0000
0100
0010
,
0100
0001
1000
0001
1000
0010
0100
0010
,
1000
0000
0001
0200
0000
0000
0310
0000
,
1010
0000
0100
0001
0000
0001
1000
0100
,
1000
0000
0100
2000
0000
0000
3100
0000
,
0011
0000
1000
0100
0000
1000
0100
0010
,
0001
0000
0100
0001
0000
0000
1000
0000
,
0010
0000
1000
1000
0000
0110
0000
0000
,
0001
0100
0001
0100
0010
1000
0010
1000
,
0001
0100
0001
1000
0001
1000
0100
1000
,
0001
0000
1000
0002
0000
0000
1003
0000
,
0110
0000
0001
0100
0000
0010
1000
0001
,
0100
0001
1000
0001
0100
0010
1000
0001
,
1000
0100
1000
0001
0010
0100
0010
0100
,
1000
0000
0100
0010
0000
0000
0011
0000
,
0100
0000
1000
0100
0000
1100
0000
0000
,
0010
0000
0000
0000
0001
0000
0000
0100
0000
0100
0000
0000
0010
0000
0000
1000
,
0000
1000
0000
0000
0100
0000
0000
0010
0000
0010
0000
0000
0001
0000
0000
0010
,
0000
0010
0000
0000
0100
0000
0000
1000
0000
1000
0000
0000
0010
0000
0000
0100
,
0000
0100
0000
0000
0001
0000
0000
1000
0000
1000
0000
0000
0001
0000
0000
0000
,
1000
0100
0010
0001
0010
0100
1000
0000
,
0001
0000
0010
0000
0100
0000
1000
0000
0100
0000
0010
0000
0001
0000
0000
1000
,
0000
1000
0000
0000
0100
0000
0000
0010
0000
0010
0000
0000
0001
0000
0000
1000
,
0000
1000
0000
0000
0010
0000
0000
0100
0000
0100
0000
0000
0010
0000
0100
0000
,
1001
0000
0000
0000
;

//---------------dance-single - ----------------
#NOTEDATA:;
#CHARTNAME:;
#STEPSTYPE:dance-single;
#DESCRIPTION:;
#CHARTSTYLE:;
#DIFFICULTY:Medium;
#METER:6;
#RADARVALUES:0.315450,0.410365,0.127018,0.000000,0.000000,226.000000,213.000000,13.000000,0.000000,0.000000,0.000000,0.000000,0.000000,0.000000,0.315450,0.410365,0.127018,0.000000,0.000000,226.000000,213.000000,13.000000,0.000000,0.000000,0.000000,0.000000,0.000000,0.000000;
#CREDIT:;
#NOTES:
0000
0000
0000
0000
,
0000
0000
0000
0000
,
0000
0000
0000
0000
,
0000
0000
0000
0000
,
1000
1000
0010
0010
,
0100
0100
0001
0001
,
1000
1000
0010
0010
,
0100
0100
0001
0001
,
1000
0000
0010
0000
0100
0010
0000
0110
,
0000
0000
0001
0001
,
1000
0000
0100
0000
1000
0010
0000
1001
,
0000
0000
0000
0010
0000
0000
0100
0000
,
0100
0000
0001
0000
1000
0010
0000
0110
,
0000
0000
0001
1000
0000
0000
0010
0000
,
0110
0000
0100
0000
0001
1000
0000
1001
,
0000
0001
0010
0100
,
1000
0000
0010
0000
0010
0000
0100
0001
,
0000
0000
1000
0010
0000
0100
0000
1001
,
0000
0000
0010
0000
0100
0000
0001
1000
,
0000
0000
0100
1000
0000
0100
0000
0110
,
0000
0000
0001
0000
1000
0000
0001
0100
,
0000
0100
0000
0010
0000
0000
1000
0100
,
0000
0100
0000
1000
0000
0010
0000
0100
,
0000
0100
0000
0000
0001
0000
0001
0000
,
1000
0000
0100
0000
1000
0000
0010
0100
,
0000
0000
0010
0100
0000
0001
0000
0001
,
0000
0000
1000
0000
0100
0000
1000
0100
,
0000
0000
0100
1000
0000
0010
0000
0010
,
0000
0000
0100
0000
0001
0000
0100
0010
,
0000
1000
0000
1000
0000
0100
0000
0010
,
0000
0001
0000
0010
0000
0100
0000
1000
,
0000
0110
0000
0000
0000
0000
0000
0000
,
0001
0010
0100
1000
,
0100
0000
0010
0000
0100
0000
1000
0100
,
1000
0000
0000
0010
0000
0000
0100
0000
,
0101
0000
0010
1000
,
0010
0000
0100
0001
0000
0000
1000
0000
,
1000
0001
0010
0100
,
1000
0000
0001
0100
0000
0000
0001
0000
,
1000
0000
0100
0100
0000
1100
0000
0000
,
0010
0001
0010
0100
,
1000
0000
0100
0000
1000
0000
0001
0100
,
0010
0000
1000
0001
0000
0000
0100
0000
,
0100
0000
0000
0001
0000
1000
0100
1000
,
0100
0010
0001
0010
,
0100
0000
1000
0000
0001
0000
0100
0010
,
0100
0000
0001
1000
0000
0000
0001
0000
,
0100
0000
0010
0010
0000
1000
0000
0000
,
0100
1100
0010
0010
,
0001
0001
0100
0100
,
0010
1001
0100
0100
,
0010
0010
1000
1000
,
0001
1001
0010
0010
,
0100
0100
0010
0010
,
1000
0100
1000
0000
0001
1000
0001
0000
,
0100
0010
1000
0001
0100
0010
1000
0001
,
0100
0000
0000
0000
;

//---------------dance-single - ----------------
#NOTEDATA:;
#CHARTNAME:;
#STEPSTYPE:dance-single;
#DESCRIPTION:;
#CHARTSTYLE:;
#DIFFICULTY:Easy;
#METER:3;
#RADARVALUES:0.233098,0.246219,0.127018,0.019541,0.000000,167.000000,154.000000,13.000000,2.000000,0.000000,0.000000,0.000000,0.000000,0.000000,0.233098,0.246219,0.127018,0.019541,0.000000,167.000000,154.000000,13.000000,2.000000,0.000000,0.000000,0.000000,0.000000,0.000000;
#CREDIT:;
#NOTES:
0000
0000
0000
0000
,
0000
0000
0000
0000
,
0000
0000
0000
0000
,
0000
0000
0000
0000
,
1000
0000
1000
0000
0001
0000
0000
0100
,
0000
0010
0100
0001
,
0100
0000
1000
0010
,
0100
0000
0000
0000
,
1000
0000
1000
0000
0001
0000
0000
0101
,
0000
0000
0000
1000
0000
0000
0001
0000
,
0100
0000
0010
0000
1000
0000
0000
1001
,
0000
0000
0000
0010
0000
0000
0100
0000
,
0001
0000
1000
0000
0010
0000
0000
0110
,
0000
0000
0000
0001
0000
0000
1000
0000
,
0010
0000
0100
0000
0001
0000
0000
1001
,
0000
0000
0000
1000
0000
0000
0000
0000
,
0010
0000
0100
0000
,
0001
0000
0000
0000
0000
0000
0000
1001
,
0000
0000
1000
0000
,
0010
0000
0000
0000
0000
0000
0000
1001
,
0000
0000
0000
0000
1000
0000
0000
0001
,
0000
0000
0000
0100
0000
0000
0000
0000
,
0010
0000
0000
1000
0000
0000
0000
0001
,
0000
0000
0000
0000
,
1000
0010
1000
0010
,
1000
0010
1000
0001
,
0100
0001
0100
0001
,
0100
0001
0100
0001
,
1000
0010
1000
0010
,
1000
0010
1000
0001
,
0100
0000
0001
0000
1000
0000
0000
1001
,
0000
0000
0000
0000
,
1000
1000
0010
0010
,
0100
0100
0001
0001
,
1000
0000
0000
0110
0000
0000
0000
0000
,
1001
0000
0010
0100
,
0001
0100
0010
0100
,
0001
0000
1000
1000
,
0010
0010
0100
0100
,
0001
0000
0000
1001
0000
0000
0000
0000
,
1000
1000
0010
0010
,
0100
0100
0001
1000
,
0001
0000
0000
0110
0000
0000
0000
0000
,
0110
0000
1000
1000
,
0001
0100
0001
1000
,
0010
1000
0001
0100
,
0010
0000
0000
1000
0000
0000
0001
0000
,
1000
0000
0000
1001
0000
0000
0000
0000
,
0010
0100
0010
1000
,
0001
1000
0001
0100
,
0010
1000
0010
0100
,
0001
1000
0001
1000
,
0020
0000
0000
0030
,
0200
0000
0000
0300
,
0001
1000
0010
0100
,
0001
1000
0010
0100
,
0001
0000
0000
0000
;

//---------------dance-single - Copied from----------------
#NOTEDATA:;
#CHARTNAME:Copied from;
#STEPSTYPE:dance-single;
#DESCRIPTION:Copied from;
#CHARTSTYLE:;
#DIFFICULTY:Beginner;
#METER:2;
#RADARVALUES:0.083748,0.136788,0.000000,0.009771,0.000000,60.000000,60.000000,0.000000,1.000000,0.000000,0.000000,0.000000,0.000000,0.000000,0.083748,0.136788,0.000000,0.009771,0.000000,60.000000,60.000000,0.000000,1.000000,0.000000,0.000000,0.000000,0.000000,0.000000;
#CREDIT:Copied from;
#NOTES:
0000
0000
0000
0000
,
0000
0000
0000
0000
,
0000
0000
0000
0000
,
0000
0000
0000
0000
,
1000
0000
0000
0000
,
0010
0000
0000
0000
,
1000
0000
0000
0000
,
0010
0000
0000
0000
,
0100
0000
0000
0000
,
0000
0000
0000
0000
,
0100
0000
0000
0000
,
0000
0000
0000
0000
,
0001
0000
0000
0000
,
0000
0000
0000
0000
,
0001
0000
0000
0000
,
0000
0000
0000
0000
,
1000
0000
0000
0000
,
0000
0000
0000
0000
0000
0000
0000
0100
,
0000
0000
0000
0000
0000
0000
0000
1000
,
0000
0000
0000
0000
0000
0000
0000
0100
,
0000
0000
0000
0000
0000
0000
0000
1000
,
0000
0000
0000
0000
0000
0000
0000
0100
,
0000
0000
0000
0000
0000
0000
0000
1000
,
0000
0000
0000
0000
,
0000
0001
0000
0000
,
0000
0000
0000
0000
0000
0000
0000
0100
,
0000
0000
0001
0000
,
0000
0000
0000
0000
0000
0000
0000
0100
,
0000
0000
0001
0000
,
0000
0000
0000
0000
0000
0000
0000
0100
,
0000
0000
0000
0000
0000
0000
0000
0001
,
0000
0000
0000
0000
,
1000
0000
0010
0000
,
1000
0000
0000
0000
,
0001
0000
0100
0000
,
0001
0000
0000
0000
,
1000
0000
0010
0000
,
1000
0000
0000
0000
,
0001
0000
0100
0000
,
0001
0000
0000
0000
,
1000
0000
0010
0000
,
1000
0000
0000
0000
,
0001
0000
0100
0000
,
0001
0000
0000
0000
,
1000
0000
0010
0000
,
1000
0000
0000
0000
,
0001
0000
0100
0000
,
0001
0000
0000
0000
,
1000
0000
1000
0000
,
1000
0000
1000
0000
,
0001
0000
0001
0000
,
0001
0000
0001
0000
,
0200
0000
0000
0000
,
0000
0000
0000
0300
,
0001
0000
0001
0000
,
1000
0000
1000
0000
,
0010
0000
0000
0000
;
