#TITLE:SPARK!;
#SUBTITLE:-essential RMX-;
#ARTIST:Remixed by dj TAKA VS PINK PONG;
#TITLETRANSLIT:;
#SUBTITLETRANSLIT:;
#ARTISTTRANSLIT:;
#GENRE:;
#CREDIT:KONAMI ;
#MUSIC:SPARK! -essential RMX-.ogg;
#BANNER:spark!banner.png;
#BACKGROUND:spark!.png;
#CDTITLE:;
#SAMPLESTART:77.650;
#SAMPLELENGTH:13.286;
#SELECTABLE:YES;
#OFFSET:-0.079;
#BPMS:0.000=140.000;
#STOPS:;
#BGCHANGES:;
#FGCHANGES:;

//--------------- dance-single - ----------------
#NOTES:
     dance-single:
     :
     Hard:
     9:
     0,0,0,0,0:
0000
0000
0000
0000
,
0000
0000
0000
0000
,
0000
0000
0000
0000
,
0000
0000
0000
0000
,
0000
0000
0000
0000
0000
0000
1000
0100
,
1000
0000
0001
0010
0001
0000
0100
0010
,
0100
0000
0001
1000
0100
0000
2000
0000
,
3001
0010
0200
0000
1300
0100
2000
0000
,
3010
0000
0100
0000
0002
0000
0000
0000
2000
0000
0000
3003
0000
0000
1000
0001
,
1000
0000
0010
0000
0100
0010
0000
0010
0100
0000
0010
0000
0000
0000
1000
0001
,
1000
0000
0100
1000
0000
1000
0001
0000
1000
0000
0100
0000
0000
0000
0010
0100
,
0010
0000
0000
0100
1000
0000
0001
0000
1000
0000
0001
0000
0000
0000
0100
0000
,
0010
0000
1000
0000
0020
1000
0000
1000
0000
1000
0000
1030
0000
0000
0100
1000
,
0100
0000
1000
0000
0001
1000
0000
0001
1000
0000
0100
0000
0000
0000
0010
0100
,
0010
0000
0001
0000
0100
0001
0000
1000
0100
0000
1000
0000
0000
0000
0001
1000
,
0001
0000
0100
0010
0100
0001
0000
0100
,
0001
0202
0000
0000
0000
0000
0303
0000
,
0002
0000
0000
0000
2003
0000
0000
0000
3010
0000
0000
0000
2200
0000
0000
3300
,
0000
0000
2000
0000
0000
0000
3100
0000
0010
0000
0001
0000
0000
0000
0010
0100
,
1000
0000
0000
0000
0001
0010
0100
0000
0010
0000
0001
0100
0000
0010
0100
0000
,
0010
0000
1000
0000
0002
0010
0000
0010
0000
0010
0000
0013
0000
0000
0000
0000
,
0200
2300
3020
2030
,
3010
0100
0000
0010
0100
0001
1000
0001
,
1000
0001
0000
0200
0000
0000
0000
0000
0310
1000
0000
0200
0000
0000
0000
0000
,
1300
0100
1000
0100
1000
0001
0100
0010
,
0100
0010
0000
2000
0000
0000
3100
0000
0010
0000
0001
0000
1000
0000
0100
0000
,
1000
0010
0000
0200
0000
0000
0310
0000
0100
0000
0010
0000
1000
0000
0001
0000
,
0100
0010
0000
2000
0000
0000
3010
0000
1000
0000
0010
0000
1000
0000
0010
0000
,
0100
0010
0000
0200
0000
0000
0301
0000
1000
0000
0100
0000
1000
0000
0100
0000
,
0010
0100
0000
0020
0000
0000
0130
0000
1000
0000
0001
0000
1000
0000
0010
0000
,
0100
0010
0000
0200
0000
0000
0301
0000
1000
0000
0010
0000
1000
0000
0010
0000
,
1000
0100
0000
0020
0000
0000
0031
0000
0100
0000
0010
0000
1000
0000
0001
0000
,
1000
0010
0000
0200
0000
0000
0310
0000
0100
0000
0001
2000
0000
0000
0002
0000
,
0000
0000
3000
1003
0100
2000
0000
0000
,
0000
0000
0000
0000
0000
3000
0001
0000
0100
0000
0020
0000
0000
0000
0000
0000
,
0000
0000
0030
1000
0001
0100
0010
1000
,
0100
0001
0010
1000
0100
1000
0020
0000
,
0000
0000
0030
1000
0100
0010
0002
0000
,
0000
0000
0000
0000
0003
0000
0000
0000
1000
0000
0010
0100
0010
0000
0000
0000
,
0000
1000
0100
0001
0100
1000
0000
0000
,
0000
0001
0010
1000
0010
0001
0010
0100
,
1000
0000
0100
0000
0010
0000
0100
0000
1000
0000
0001
0000
1001
0000
0000
0110
,
0000
0000
1010
0000
0000
0110
0000
0000
1000
0001
0000
0010
0001
0000
0000
0110
,
0000
0000
0011
0000
0000
1001
0000
0000
0100
0000
0010
1000
0000
0000
0200
0000
,
0000
0000
0000
0300
,
1001
0000
0000
0000
0100
0000
0000
0000
0010
0000
0100
0000
0001
0010
0000
0010
,
0100
1000
0001
0100
0001
0022
0000
0000
,
0033
0000
1000
0100
1000
0100
1000
0010
1000
0000
0010
1000
0000
0001
0100
0000
,
0001
0000
0010
0000
0001
0000
0100
0010
0100
0000
0110
0000
0000
0000
2002
0000
,
0000
0000
0000
0000
3003
0000
0000
0000
0100
0000
0001
0000
0010
0100
0000
0010
,
0001
0100
0000
0001
0100
0202
0000
0000
,
0303
0000
0000
0000
0200
0000
0000
0000
0320
0000
0000
0000
2030
0000
0000
0001
,
3000
0001
1000
0100
1000
0000
0010
0100
,
0010
0000
0100
0001
0000
0000
0100
0000
0010
0000
0100
0000
0001
0000
0000
0000
,
1001
0000
0001
0100
1000
0100
0001
0000
,
1010
0000
0001
0010
1000
0010
0001
0000
,
1001
1000
0100
0001
0010
1000
0100
0001
,
0010
1000
0001
0000
1000
0010
0100
1000
,
1001
0000
0001
0100
0010
0001
0010
0000
,
1010
0110
0101
1001
,
0101
0000
0000
0000
1000
0001
1000
0001
1000
0000
0010
0100
0010
0100
0010
0000
,
1000
0000
0001
0100
0000
0000
0001
0000
0100
0000
0000
0000
0001
0000
0100
0000
,
0001
0000
1000
0010
1000
0000
0001
0100
,
0001
1000
0100
1000
0010
1000
0100
0010
,
0100
0000
1000
0000
0001
0100
0001
0100
0001
1000
0100
1000
0100
1000
0001
0010
,
0001
0010
0001
0000
0220
0000
0000
0000
0000
0000
0000
0000
0000
0000
0000
0000
,
0330
0000
0000
0000
;
