#VERSION:0.83;
#TITLE:Psycho Sheep Riddim;
#SUBTITLE:;
#ARTIST:SYUNN;
#TITLETRANSLIT:;
#SUBTITLETRANSLIT:;
#ARTISTTRANSLIT:;
#GENRE:;
#ORIGIN:;
#CREDIT:;
#BANNER:[Your Name] - Psycho Sheep Riddim.png;
#BACKGROUND:[Your Name] - Psycho Sheep Riddim-bg.png;
#PREVIEWVID:;
#JACKET:[Your Name] - Psycho Sheep Riddim-jacket.png;
#CDIMAGE:;
#DISCIMAGE:;
#LYRICSPATH:;
#CDTITLE:;
#MUSIC:[Your Name] - Psycho Sheep Riddim.ogg;
#OFFSET:0.000000;
#SAMPLESTART:35.200001;
#SAMPLELENGTH:12.799999;
#SELECTABLE:YES;
#BPMS:0.000=150.000;
#STOPS:;
#DELAYS:;
#WARPS:;
#TIMESIGNATURES:0.000=4=4;
#TICKCOUNTS:0.000=4;
#COMBOS:0.000=1;
#SPEEDS:0.000=1.000=0.000=0;
#SCROLLS:0.000=1.000;
#FAKES:;
#LABELS:0.000=Song Start;
#BGCHANGES:;
#KEYSOUNDS:;
#ATTACKS:
;

//---------------dance-single - ----------------
#NOTEDATA:;
#CHARTNAME:;
#STEPSTYPE:dance-single;
#DESCRIPTION:;
#CHARTSTYLE:;
#DIFFICULTY:Hard;
#METER:8;
#RADARVALUES:0.499935,0.706738,0.187781,0.401168,0.469452,410.000000,388.000000,22.000000,47.000000,0.000000,0.000000,2.000000,0.000000,0.000000,0.499935,0.706738,0.187781,0.401168,0.469452,410.000000,388.000000,22.000000,47.000000,0.000000,0.000000,2.000000,0.000000,0.000000;
#CREDIT:;
#NOTES:
// measure 0
0000
0000
0000
0000
,  // measure 1
0000
0000
0000
0000
,  // measure 2
0000
0000
0000
0000
,  // measure 3
0000
0000
0000
0000
,  // measure 4
0000
1000
0000
1000
,  // measure 5
0000
1000
0000
1000
,  // measure 6
0000
0001
0000
0001
,  // measure 7
0000
0001
0000
0001
,  // measure 8
0120
1000
0130
0010
,  // measure 9
0100
0100
0101
1010
,  // measure 10
0100
0100
0010
1000
0000
0001
0010
0000
,  // measure 11
0010
0001
1000
0100
0010
0001
0100
0001
,  // measure 12
1002
0010
1003
0001
,  // measure 13
0100
0001
0011
1010
,  // measure 14
1000
1000
0001
0100
0000
0001
0010
0100
,  // measure 15
0000
0010
0001
1000
0100
1000
0010
0100
,  // measure 16
0001
0000
1000
0000
0001
0000
0000
0100
0000
0000
0001
0000
1000
0000
0000
0000
,  // measure 17
0001
0000
1000
0000
0001
0000
0000
0010
0000
0000
0001
0000
1000
0000
0000
0000
,  // measure 18
0102
0013
2100
3010
,  // measure 19
0201
0310
1020
0130
,  // measure 20
0001
0100
0010
1000
0001
0100
0010
1000
,  // measure 21
0004
4000
0000
0000
0000
0000
0000
0000
3003
0000
0000
0000
0000
0000
0000
0000
,  // measure 22
0210
0000
0000
0301
0010
0001
1000
0000
0000
0010
1000
0010
,  // measure 23
0200
0000
0000
0301
0000
0000
2000
0000
0000
3001
0010
0001
,  // measure 24
0100
0000
0000
0010
0000
0100
0001
0000
0000
1000
0000
0100
,  // measure 25
1000
0201
0320
1030
,  // measure 26
0101
0000
0000
0001
1000
0100
1000
0000
0000
0001
1000
0010
,  // measure 27
2000
0000
0000
3002
0000
0000
0013
0000
0000
0100
0010
0100
,  // measure 28
1000
0100
0010
0001
,  // measure 29
0010
0000
0001
0010
0000
0010
0100
0000
0100
1000
0000
1000
,  // measure 30
0001
0000
0000
0200
0000
0301
0010
0100
0010
0001
0000
0000
,  // measure 31
1000
0010
1000
0010
0000
0000
0200
0000
0000
0301
1000
0001
,  // measure 32
0010
0000
0000
0002
0003
0002
1003
0000
0000
2000
3000
2000
,  // measure 33
3002
0203
0320
1030
,  // measure 34
2001
0000
3001
0100
1000
0100
0010
0100
0010
0100
0010
0100
,  // measure 35
0000
0000
0100
0010
1000
0100
0010
0001
0010
0001
0010
0001
,  // measure 36
1000
0000
0001
1000
0000
0100
0000
0000
0010
0001
0000
1000
,  // measure 37
0001
0010
0100
1000
0001
0010
0100
1000
0001
0100
0010
1000
,  // measure 38
0002
0000
0000
0013
0000
0000
0100
0010
0100
2000
0000
0000
,  // measure 39
3010
0100
0010
0200
0000
0000
0301
0000
1000
0010
0100
0001
,  // measure 40
0020
0000
0000
0031
0000
0001
1000
0010
1000
0010
1000
0010
,  // measure 41
0100
0000
0000
0001
0000
0000
0010
0000
0001
1000
0000
1000
,  // measure 42
0010
0000
0000
0200
0300
0000
0001
0000
0010
0001
0000
0001
,  // measure 43
0100
0010
0100
0010
0000
0100
0001
1000
0001
1000
0000
0000
,  // measure 44
0200
0310
0002
1003
,  // measure 45
0001
0000
1000
0010
0000
0010
0100
0000
0100
0001
0000
0001
,  // measure 46
0010
0000
0000
0011
0000
0000
0001
0100
0001
0100
0000
0000
,  // measure 47
0010
0000
0000
1010
0000
0000
1000
0001
1000
0001
0000
0000
,  // measure 48
1000
0000
0000
1100
0000
0000
0100
0010
0100
0010
0000
0000
,  // measure 49
0100
0000
1000
0000
0010
0000
0001
0000
0010
0100
0000
0100
,  // measure 50
0002
0000
0000
2003
0000
0000
3100
1000
0100
0010
0100
1000
,  // measure 51
0002
0000
0000
2003
0000
0000
3002
0000
0000
1003
0010
1000
,  // measure 52
0010
0000
0100
0000
0001
0000
0010
0000
0100
0010
0001
1000
,  // measure 53
0001
0010
0100
1000
0001
0010
0100
0000
1000
0000
0010
0000
,  // measure 54
1001
0000
0000
0010
,  // measure 55
0000
0000
0100
0100
,  // measure 56
0001
0001
1000
0100
0000
0100
1000
0001
,  // measure 57
1000
0010
0100
0001
1000
0001
0010
0001
,  // measure 58
2001
0000
0000
0010
,  // measure 59
0000
0000
0001
3001
,  // measure 60
1000
1000
0001
0100
0000
0100
0010
0100
,  // measure 61
0000
0010
0100
0001
1000
0100
0001
0100
,  // measure 62
0010
0000
0001
0000
0011
0000
0001
0100
,  // measure 63
0010
1000
1010
0101
,  // measure 64
0002
0000
1003
0200
0000
1300
0002
0000
,  // measure 65
0103
0020
0000
1030
0002
0000
0203
0000
,  // measure 66
0301
0010
0001
0010
0200
0000
2300
0000
,  // measure 67
3001
0100
0000
0100
,  // measure 68
0020
0100
0000
2030
,  // measure 69
3001
0000
0000
0001
0000
0000
0010
0000
0000
0001
0000
0000
1000
0000
0000
0100
0000
0000
0010
0000
0001
0000
1000
0000
,  // measure 70
0020
0000
0000
0000
,  // measure 71
0000
0000
0000
0000
,  // measure 72
0030
0000
0000
0000
;

//---------------dance-single - ----------------
#NOTEDATA:;
#CHARTNAME:;
#STEPSTYPE:dance-single;
#DESCRIPTION:;
#CHARTSTYLE:;
#DIFFICULTY:Medium;
#METER:6;
#RADARVALUES:0.358490,0.460916,0.290206,0.349955,0.128032,294.000000,260.000000,34.000000,41.000000,0.000000,0.000000,0.000000,0.000000,0.000000,0.358490,0.460916,0.290206,0.349955,0.128032,294.000000,260.000000,34.000000,41.000000,0.000000,0.000000,0.000000,0.000000,0.000000;
#CREDIT:;
#NOTES:
0000
0000
0000
0000
,
0000
0000
0000
0000
,
0000
0000
0000
0000
,
0000
0000
0000
0000
,
0000
1000
0000
1000
,
0000
0001
0000
0001
,
0000
0100
0000
0100
,
0000
0010
0000
0010
,
1002
0000
0000
2003
,
0000
0000
0010
0010
,
3100
1000
0010
0100
0000
0010
1000
0000
,
0001
0010
0001
1000
,
0200
0000
0000
2300
0000
0000
3020
0000
,
0000
0000
0100
0130
,
0010
1000
0001
0010
0000
0100
0010
0001
,
1000
0100
1000
0010
,
1002
1000
1000
1003
,
2001
0001
0001
3001
,
0120
0100
0100
0130
,
0210
0010
0010
0310
,
1010
1010
0101
0101
,
2002
0000
3003
0000
,
0110
1000
0101
1000
,
0011
1000
0101
0011
,
1100
0001
1010
0001
,
1100
0020
0130
0001
,
1001
0010
1001
0100
,
1001
0110
1001
1010
,
0002
0100
0100
0100
,
1003
0000
0100
1000
0000
0100
0010
0000
0100
1000
0000
0100
,
0010
0002
0103
0020
,
1030
0020
0130
0001
,
2000
3100
0020
0031
,
0101
1010
1001
1100
,
1002
0000
0000
0013
,
0000
0000
0100
0010
,
0001
0000
0001
0100
0000
0010
0000
0000
1000
0010
0000
0010
,
0100
0010
1000
0001
,
1001
0000
0000
0110
0000
0000
1000
0000
0001
0010
0000
0010
,
0200
1300
0200
0310
,
0021
0130
0010
0001
,
2000
0000
0000
3010
0000
0000
0100
0000
0010
1000
0000
1000
,
0001
1010
0001
0200
,
0310
2000
3001
0010
,
0200
0000
0000
0320
,
0031
0000
1000
0010
0000
0100
0001
0000
0010
0100
0000
0100
,
1000
1000
0010
0010
,
0100
0100
0001
0001
,
0010
0010
0100
0100
,
1000
0000
0010
0000
0100
0000
0001
0000
1000
0000
0001
0000
,
1000
1000
0001
0001
,
0100
0100
0010
0010
,
1000
0000
0010
0000
0100
0000
0001
0000
0010
0000
0100
0000
,
0010
0000
0001
0010
0000
0100
1000
0000
1000
0010
0000
0100
,
0001
0000
0000
0010
,
0000
0000
0001
0001
,
1000
0010
0100
0001
0000
0010
0100
0000
,
1000
0010
0100
0001
,
1000
0001
0000
0001
,
0000
0001
0010
0001
,
0100
0010
1000
0010
0000
0100
0001
0000
,
1000
0100
0010
0001
,
1002
0000
0000
0203
,
0000
0000
0301
0100
,
0020
0000
0000
2030
0000
0000
3200
0000
,
0000
2300
0000
0000
3002
0000
2003
0000
,
3020
0000
0000
0230
0000
0000
0302
0000
,
0000
1000
0000
1000
,
0203
0310
1000
0002
,
0013
0000
0000
0001
0000
0000
0100
0000
0000
0010
1000
0001
,
2000
0000
0000
0000
,
0000
0000
0000
0000
,
3000
0000
0000
0000
;

//---------------dance-single - ----------------
#NOTEDATA:;
#CHARTNAME:;
#STEPSTYPE:dance-single;
#DESCRIPTION:;
#CHARTSTYLE:;
#DIFFICULTY:Easy;
#METER:3;
#RADARVALUES:0.228019,0.298742,0.051213,0.110961,0.000000,187.000000,181.000000,6.000000,13.000000,0.000000,0.000000,0.000000,0.000000,0.000000,0.228019,0.298742,0.051213,0.110961,0.000000,187.000000,181.000000,6.000000,13.000000,0.000000,0.000000,0.000000,0.000000,0.000000;
#CREDIT:;
#NOTES:
0000
0000
0000
0000
,
0000
0000
0000
0000
,
0000
0000
0000
0000
,
0000
0000
0000
0000
,
0000
1000
0000
1000
,
0000
1000
0000
1000
,
0000
0001
0000
0001
,
0000
0001
0000
0001
,
0200
0000
0000
0301
,
0000
0000
0010
0010
,
0001
1000
0100
1000
,
0001
0100
0010
1000
,
0200
0000
0000
1300
,
0000
0000
0100
0010
,
0001
0001
1000
0001
,
0100
0010
1000
0010
,
0100
0000
0000
0000
,
0100
0000
0000
0000
,
0010
0000
0000
0000
,
0010
0000
0000
0000
,
1000
0010
0100
0001
,
2002
0000
3003
0000
,
1001
0000
0001
0000
,
1000
0000
0010
1000
,
0100
0000
1000
0000
,
0001
0000
0100
0010
,
1000
0000
0001
0000
,
0010
0000
0001
0000
,
0200
0000
0000
0301
,
1000
0100
0001
0100
,
1000
0000
0010
0000
,
0100
0000
0010
1000
,
0100
0000
1000
0000
,
0001
0000
0100
0001
,
0010
0000
0000
0001
,
0000
0000
1000
0001
,
0100
0010
1000
0001
,
2000
0000
0000
0000
,
3001
1010
0001
1000
,
0100
0000
1000
0010
,
0100
0000
0001
0000
,
0010
0000
0001
1000
,
0100
0000
1000
0000
,
0010
0000
0100
0001
,
0010
0000
0001
0000
,
1000
0100
0010
0001
,
1001
0000
0001
0000
,
0100
0000
0010
1000
,
0010
0000
0100
0000
,
0001
0010
0001
1000
,
0100
0000
1000
0000
,
0010
0000
0100
0000
,
0001
0000
1000
0000
,
0010
0100
0001
1000
,
1001
0000
0000
0010
,
0000
0000
0100
0100
,
0001
0100
0001
1000
,
0100
0010
0001
1000
,
0001
0000
0000
0010
,
0000
0000
0001
0001
,
1000
0001
0100
0001
,
1000
0100
0010
0001
,
2000
3010
0100
0001
,
0020
0031
0100
0001
,
2000
3001
0010
0001
,
0200
0310
1000
0100
,
2000
3001
0100
0010
,
2000
3010
0100
0001
,
0020
0031
0010
0001
,
1000
0001
0100
0010
,
1001
0000
0000
0000
;

//---------------dance-single - ----------------
#NOTEDATA:;
#CHARTNAME:;
#STEPSTYPE:dance-single;
#DESCRIPTION:;
#CHARTSTYLE:;
#DIFFICULTY:Beginner;
#METER:2;
#RADARVALUES:0.113400,0.179245,0.076819,0.000000,0.000000,93.000000,84.000000,9.000000,0.000000,0.000000,0.000000,0.000000,0.000000,0.000000,0.113400,0.179245,0.076819,0.000000,0.000000,93.000000,84.000000,9.000000,0.000000,0.000000,0.000000,0.000000,0.000000,0.000000;
#CREDIT:;
#NOTES:
0000
0000
0000
0000
,
0000
0000
0000
0000
,
0000
0000
0000
0000
,
0000
0000
0000
0000
,
0000
0000
0000
0000
,
0000
0000
0000
0000
,
0000
0000
0000
0000
,
0000
0000
0000
0000
,
0010
0000
0000
1000
,
0000
0000
0001
0000
,
1000
0000
0000
0000
,
0001
0000
1000
0000
,
0010
0000
0000
0100
,
0000
0000
0001
0000
,
1000
0000
0000
0000
,
0001
0000
0000
0000
,
0110
0000
0000
0000
,
0100
0000
0000
0000
,
0110
0000
0000
0000
,
0010
0000
0000
0000
,
1000
0000
0001
0000
,
1001
0000
0000
0000
,
0110
0000
0000
0000
,
0100
0000
0000
0000
,
0001
0000
0000
0000
,
1000
0000
0000
0000
,
0100
0000
0000
0000
,
1000
0000
0000
0000
,
0001
0000
0000
0000
,
1000
0000
0010
0000
,
0100
0000
0010
0000
,
0100
0000
0000
0000
,
0001
0000
0001
0000
,
1000
0000
0000
0001
,
0001
0000
0000
0000
,
1000
0000
0000
0000
,
0010
0000
0000
0000
,
0100
0000
0010
0000
,
1001
0000
0001
0000
,
0000
0000
1000
0000
,
0001
0000
0000
0000
,
0100
0000
0000
0000
,
0010
0000
0000
0000
,
1000
0000
0000
0000
,
0001
0000
0000
1000
,
0010
0000
0100
0000
,
1001
0000
0000
0000
,
1000
0000
0000
0000
,
0010
0000
0000
0000
,
0100
0000
0010
0000
,
1000
0000
0000
0000
,
0001
0000
0000
0000
,
0010
0000
0000
0000
,
0001
0000
1000
0000
,
0110
0000
0000
0010
,
0000
0000
0100
0100
,
0100
0000
0000
0000
,
0010
0000
0000
0000
,
1001
0000
0000
1000
,
0000
0000
0001
0001
,
1000
0000
0000
0000
,
0010
0000
0100
0000
,
0001
0000
0000
1000
,
0000
0000
0000
0000
,
0100
0000
0000
1000
,
0000
0000
0001
0000
,
1000
0000
0000
0000
,
0010
0000
0000
0000
,
0100
0000
0000
0000
,
0001
0000
1000
0000
,
0110
0000
0000
0000
;
