#TITLE:マグネット;
#SUBTITLE:;
#ARTIST:minato(流星P) feat. 初音ミク・巡音ルカ;
#TITLETRANSLIT:Magnet;
#SUBTITLETRANSLIT:;
#ARTISTTRANSLIT:minato(Ryuusei-P) feat. Hatsune Miku, Megurine Luka;
#GENRE:;
#CREDIT:;
#BANNER:;
#BACKGROUND:;
#LYRICSPATH:;
#CDTITLE:;
#MUSIC:[Round C] - Magnet.ogg;
#OFFSET:-2.383000;
#SAMPLESTART:64.181000;
#SAMPLELENGTH:15.000000;
#SELECTABLE:YES;
#BPMS:0.000000=108.000000
;
#STOPS:
;
#BGCHANGES:;
#KEYSOUNDS:;
#ATTACKS:;

//---------------dance-single - ----------------
#NOTES:
     dance-single:
     :
     Challenge:
     9:
     0.550360,0.669415,0.318390,0.358189,0.907412,484.000000,444.000000,40.000000,45.000000,0.000000,0.000000,0.550360,0.669415,0.318390,0.358189,0.907412,484.000000,444.000000,40.000000,45.000000,0.000000,0.000000:
// measure 0
0000
0000
0000
0000
,  // measure 1
0000
0000
0000
0000
,  // measure 2
0000
0000
0000
0000
,  // measure 3
0000
0000
0000
0000
,  // measure 4
1000
0000
0001
0010
0001
1000
0000
0010
0000
0100
0000
0001
0000
1000
0001
0010
,  // measure 5
0100
0000
1000
0100
1000
0001
0000
0010
0000
0100
0000
0010
0000
0001
0100
0010
,  // measure 6
1000
0000
0010
0100
0010
1000
0000
0100
0000
0010
0000
0001
0000
0100
0010
0000
,  // measure 7
1020
0000
0000
0000
0130
0000
0000
0000
0101
0000
0000
0110
0000
0000
1010
0000
,  // measure 8
1001
0000
0000
0000
1000
0000
0100
0000
1000
0000
0001
0000
0010
0000
0100
0000
0000
0000
0100
0000
1000
0010
0100
0000
0000
0000
0000
0000
0010
0000
1000
0000
,  // measure 9
0001
0000
0100
0000
0001
0000
0010
0000
0001
0000
1000
0000
0001
0000
0100
0000
0010
0000
1000
0000
0010
1000
0010
0000
0100
0000
0001
0000
1000
0000
0100
0000
,  // measure 10
0010
0000
0000
0000
0001
0010
0001
0000
2000
0000
0000
0000
0000
0000
0000
0000
3001
0000
0000
0000
0100
0000
0010
0000
0100
0000
0000
0000
0001
0000
0010
0000
,  // measure 11
0100
0000
1000
0001
0000
0010
0000
0100
1100
0000
0000
0110
0000
0000
0011
0000
,  // measure 12
2000
0000
3010
0100
0000
0010
0000
1000
0000
0100
0000
1000
0001
0000
0010
0000
,  // measure 13
0200
0000
0310
0001
0000
0100
0000
0001
0000
1000
0020
0000
0100
0000
0130
0000
,  // measure 14
0002
0000
0013
0100
0000
0010
0000
0001
0000
1000
0000
0100
1000
0000
0010
0000
,  // measure 15
0200
0000
0301
1000
0000
0001
0000
0010
0200
0010
0000
0010
0300
0000
1001
0000
,  // measure 16
0002
0000
0103
1000
0000
0100
0000
0001
0000
1000
0000
0100
0010
0000
0001
0000
,  // measure 17
2000
0000
3100
0001
0000
0100
0000
1000
0000
0001
0200
0000
0310
0000
0100
0000
,  // measure 18
0002
0000
0013
1000
0000
0010
0000
0001
0000
1000
0000
0010
0100
0000
0010
0000
,  // measure 19
2000
0000
0001
0000
3002
0000
0010
0000
0013
0000
0100
2000
0000
0000
3000
0000
,  // measure 20
1010
0000
0000
0000
0110
0000
0000
1000
0000
0002
0000
0000
0013
0000
0100
0000
,  // measure 21
1000
0000
0100
0010
0000
0100
0000
2000
0001
0000
0000
3020
0000
0000
0130
0010
,  // measure 22
2000
0000
0010
0000
3010
0000
0100
0000
0001
0000
0000
0011
0000
0000
1010
0000
,  // measure 23
0001
0000
1000
0200
0000
0000
0310
0000
0110
0000
0000
1000
0001
0000
0100
0000
,  // measure 24
0101
0000
0000
0000
0110
0000
0000
0001
0000
2000
0000
0000
3100
0000
0010
0000
,  // measure 25
0001
0000
0010
0100
0000
0010
0001
1000
0010
0000
0100
0010
0100
0000
0001
0000
,  // measure 26
2000
0000
0000
0000
0010
0000
0000
0010
0000
0000
3001
0000
0100
0000
0010
0000
,  // measure 27
2000
0000
0000
0000
3001
0000
0010
0100
0110
0000
1001
0000
0000
1000
0100
0010
,  // measure 28
0001
0000
0010
0100
0000
0020
0000
1030
0000
0010
0000
0100
0010
0100
0000
2000
,  // measure 29
0000
3010
0000
0100
0000
0020
0000
0031
0000
0010
0000
0100
0010
0100
0000
0002
,  // measure 30
0000
0013
0000
0100
0000
0010
0002
0000
0000
0000
1003
0000
0001
0000
0100
0000
,  // measure 31
0010
0000
0000
0000
0010
0000
1000
0001
1000
0000
0000
1100
0000
0000
0110
0000
,  // measure 32
0001
0000
1000
0100
0000
1000
0000
0020
0000
0031
0000
0010
0100
0010
0000
2000
,  // measure 33
0000
3100
0000
0010
0000
0200
0000
0301
0000
0100
0000
0010
0100
0010
0000
0002
,  // measure 34
0000
1003
0000
0010
0000
0100
0002
0000
0000
0000
0013
0000
0100
0000
1000
0000
,  // measure 35
1001
0000
0000
0000
1100
0000
0001
1000
0010
0000
0000
0101
0000
0000
1100
0000
,  // measure 36
0001
0000
0010
0100
0000
0010
0000
2000
0000
3010
0000
0001
0100
0010
0000
0002
,  // measure 37
0000
0013
0000
0100
0000
0020
0000
1030
0000
0001
0000
1000
0100
0010
0000
0002
,  // measure 38
0000
1003
0000
0010
0000
0100
0002
0000
0000
0000
1003
0000
0001
0000
0010
0000
,  // measure 39
0110
0000
0000
0000
0011
0000
1000
0001
0100
0000
0000
0110
0000
0000
1001
0000
,  // measure 40
1000
0000
0001
0100
0000
0010
0000
0200
0000
1300
0000
0100
0001
0010
0000
0200
,  // measure 41
0000
0310
0000
1000
0000
0020
0000
0031
0000
0010
0000
0100
1000
0010
0000
0002
,  // measure 42
0000
0013
0000
0100
0000
0001
2000
0000
0000
0000
3100
0000
0010
0000
0001
0000
,  // measure 43
0011
0000
0000
0000
0110
0000
0001
0100
0010
0000
0000
1010
0000
0000
0110
0000
,  // measure 44
0001
0000
1000
0100
1000
0001
0000
0100
0000
0010
0000
1000
0000
0001
1000
0100
,  // measure 45
0010
0000
0001
0010
0001
1000
0000
0100
0000
0010
0000
0100
0000
1000
0010
0100
,  // measure 46
0001
0000
0100
0010
0100
0001
0000
0010
0000
0100
0000
1000
0000
0010
0100
0000
,  // measure 47
0201
0000
0000
0000
0310
0000
0000
0000
1010
0000
0000
0110
0000
0000
0101
0000
,  // measure 48
1001
0000
0000
0000
0001
0000
0010
0000
0001
0000
1000
0000
0100
0000
0010
0000
0000
0000
0010
0000
0001
0100
0010
0000
0000
0000
0000
0000
0100
0000
0001
0000
,  // measure 49
1000
0000
0010
0000
1000
0000
0100
0000
1000
0000
0001
0000
1000
0000
0010
0000
0100
0000
0001
0000
0100
0001
0100
0000
0010
0000
1000
0000
0001
0000
0010
0000
,  // measure 50
0100
0000
0000
0000
1000
0100
1000
0000
0002
0000
0000
0000
0000
0000
0000
0000
1003
0000
0000
0000
0010
0000
0100
0000
0010
0000
0000
0000
1000
0000
0100
0000
,  // measure 51
0010
0000
0001
1000
0000
0100
0000
0010
0011
0000
0000
0110
0000
0000
1100
0000
,  // measure 52
0001
0100
0010
1000
0000
0000
1000
0100
0010
0001
0000
0000
0000
0000
0000
0000
;

//---------------dance-single - ----------------
#NOTES:
     dance-single:
     :
     Hard:
     7:
     0.337721,0.421867,0.007960,0.350229,0.477585,297.000000,296.000000,1.000000,44.000000,0.000000,0.000000,0.337721,0.421867,0.007960,0.350229,0.477585,297.000000,296.000000,1.000000,44.000000,0.000000,0.000000:
0000
0000
0000
0000
,
0000
0000
0000
0000
,
0000
0000
0000
0000
,
0000
0000
0000
0000
,
0001
0000
1000
0000
0100
0000
0000
1000
0000
0001
0000
0010
0000
0100
0010
0000
,
0001
0000
1000
0000
0010
0000
0000
0100
0000
0010
0000
1000
0000
0001
0100
0000
,
0010
0000
1000
0000
0001
0000
0000
1000
0000
0100
0000
1000
0000
0001
0010
0000
,
0200
0000
0000
0000
1300
0000
0000
0000
0010
0000
0000
0010
0000
0000
0010
0000
,
1000
0000
0001
0000
0100
0000
0001
0000
0010
0000
0001
1000
0000
0000
0001
0000
,
1000
0100
1000
0010
0100
0001
0010
0001
,
1000
0000
0010
1000
0200
0000
0000
0000
1300
0000
0001
0010
0001
0000
1000
0010
,
1000
0000
0001
0100
0000
0010
0000
1000
0100
0000
0000
0100
0000
0000
0010
0000
,
0002
0000
0000
0000
,
0203
0000
0000
0000
,
0320
0000
0000
0000
,
2030
0000
3200
0000
,
0320
0000
0000
0000
,
0032
0000
0000
0000
,
2003
0000
0000
0000
,
3020
0000
0000
0000
0100
0000
0000
0000
1030
0000
0001
2000
0000
0000
3000
0000
,
0002
0000
0000
0000
0023
0000
0000
0031
0000
2000
0000
0000
3001
0000
0100
0000
,
0010
0000
1000
0100
0000
1000
0000
0002
0000
0000
0000
0000
0003
0000
1000
0100
,
2000
0000
0000
0000
3000
0000
0001
0000
0010
0000
0000
0010
0000
0000
0001
0000
,
1000
0000
0010
0200
0000
0000
0000
0000
0000
0000
0000
0000
0301
0000
0000
0000
,
0002
0000
0000
0000
0203
0000
0000
0301
0000
1000
0000
0000
0010
0000
0100
0000
,
0001
0000
1000
0100
0000
1000
0000
0200
0000
0000
0310
0000
0001
0000
1000
0000
,
0020
0000
0000
0000
0000
0130
0001
1000
,
0200
0000
0000
0000
0300
0000
0010
0001
1000
0000
1001
0000
0000
1000
0100
0010
,
0001
0000
1000
0001
0000
2000
0000
0000
0000
3000
0000
0001
0100
0001
0000
1000
,
0000
0100
0000
1000
0000
0020
0000
0000
0030
0000
0000
0010
1000
0010
0000
0100
,
0000
0001
0000
1000
0000
0000
0002
0000
0000
0000
0013
0000
0100
0000
1000
0000
,
0002
0000
0000
0000
0003
0000
0100
0010
0100
0000
0000
0100
0000
0000
0100
0000
,
0010
0000
1000
0001
0000
1000
0000
0200
0000
0300
0000
0010
0001
0010
0000
0001
,
0000
1000
0000
0001
0000
2000
0000
0000
0000
0000
3000
0001
0100
0001
0000
1000
,
0000
0001
0000
1000
0000
0000
0020
0000
0000
0000
0130
0000
0010
0000
1000
0000
,
0200
0000
0000
0000
0300
0000
0010
0100
0010
0000
0000
0001
0000
0000
1000
0000
,
0001
0000
0100
0010
0000
1000
0000
0002
0000
0000
0003
1000
0100
1000
0000
0001
,
0000
0010
0000
0100
0000
0010
0000
0200
0000
0000
0300
0010
0100
1000
0000
0001
,
0000
0100
0000
0010
0000
0000
2000
0000
0000
0000
3001
0000
1000
0000
0100
0000
,
0020
0000
0000
0000
0030
0000
0001
1000
0001
0000
0000
0100
0000
0000
0010
0000
,
1000
0000
0010
0100
0000
0010
0000
2000
0000
3000
0000
0001
1000
0001
0000
0010
,
0000
0100
0000
0010
0000
0002
0000
0000
0000
0000
0003
1000
0001
0100
0000
0010
,
0000
1000
0000
0100
0000
0000
0020
0000
0000
0000
0130
0000
1000
0000
0010
0000
,
0200
0000
0000
0000
0300
0000
0001
1000
0001
0000
0000
0010
0000
0000
0010
0000
,
0100
0000
1000
0200
0000
0000
0000
0000
0000
0000
0000
0000
0000
0000
0300
0000
,
1000
0000
0001
0000
0100
0000
0000
0010
0000
0100
0000
0001
0000
1000
0010
0000
,
0100
0000
0001
0000
1000
0000
0000
0001
0000
0010
0000
0001
0000
1000
0100
0000
,
0020
0000
0000
0000
0031
0000
0000
0000
0100
0000
0000
0100
0000
0000
0100
0000
,
0001
0000
1000
0000
0010
0000
1000
0000
0100
0000
1000
0001
0000
0000
1000
0000
,
0001
0010
0001
0100
0010
1000
0100
1000
,
0001
0000
0010
0001
0200
0000
0000
0000
0301
0000
1000
0100
1000
0000
0001
0100
,
0001
0000
1000
0010
0000
0100
0000
0001
0010
0000
0000
0010
0000
0000
0100
0000
,
2000
0000
0000
0002
0000
0000
0000
0000
,
3003
0000
0000
0000
;
