#TITLE:Little Star;
#SUBTITLE:(YUC'e Remix);
#ARTIST:REDALiCE feat. Ayumi Nomiya;
#TITLETRANSLIT:;
#SUBTITLETRANSLIT:;
#ARTISTTRANSLIT:;
#GENRE:;
#CREDIT:;
#BANNER:[Your Name] - Little Star (YUC'e Remix).png;
#BACKGROUND:[Your Name] - Little Star (YUC'e Remix)-bg.png;
#LYRICSPATH:;
#CDTITLE:cdtitle.png;
#MUSIC:[Your Name] - Little Star (YUC'e Remix).ogg;
#OFFSET:0.000000;
#SAMPLESTART:71.148003;
#SAMPLELENGTH:15.000000;
#SELECTABLE:YES;
#BPMS:0.000000=183.000000
;
#STOPS:
;
#BGCHANGES:;
#KEYSOUNDS:;
#ATTACKS:;

//---------------dance-single - ----------------
#NOTES:
     dance-single:
     9646_ESP:
     Hard:
     8:
     0.482640,0.646219,0.506394,0.476162,0.068023,447.000000,380.000000,67.000000,63.000000,0.000000,0.000000,0.482640,0.646219,0.506394,0.476162,0.068023,447.000000,380.000000,67.000000,63.000000,0.000000,0.000000:
0000
0000
0000
0000
,
0000
0000
0000
0000
,
0000
0000
0000
0000
,
0000
0000
0000
0000
,
0000
0000
0000
0000
,
0000
0000
0000
0000
,
0000
0000
0000
0000
,
0000
0000
0000
0000
,
0000
0000
0000
0000
0000
0000
0100
1000
,
0002
0000
0013
0001
0000
0000
1000
0100
,
2000
0000
3001
0100
0000
0000
0010
1000
,
0010
0000
0100
0002
0000
0000
1003
0000
,
0020
0000
0130
0001
0000
0000
0100
0010
,
2000
0000
3100
0010
0000
0000
0100
1000
,
0020
0000
0130
0001
0000
0000
0010
0000
,
0200
0000
0000
2300
0000
0000
3002
0000
0000
0000
0000
0000
0003
0000
0000
0000
,
2000
0000
0000
3200
0000
0000
0320
0000
0000
0000
0000
0000
0030
0000
0000
0000
,
0002
0000
0000
0203
0000
0000
0320
0000
0000
0000
0000
0000
0030
0000
0000
0000
,
0200
0000
0000
0302
0000
0000
0013
0100
,
0020
1000
0100
1000
,
0032
0000
0000
0003
,
1001
0000
0101
0000
0001
0000
0001
1000
,
0001
0000
0001
0100
0010
1000
0001
0000
,
0010
0000
0100
1000
0001
1000
0010
0200
,
0010
0000
1000
0000
0310
0100
0001
1000
,
0001
0100
0010
1000
0000
1000
0100
0010
,
0001
1000
0100
1000
0001
1000
0010
0000
,
0100
0000
0100
0001
1000
0010
0100
0010
,
1000
0100
0001
0100
0010
0000
0010
0000
,
0110
0110
0011
1001
,
1010
1010
0110
1001
,
1100
1100
0101
0101
,
0110
1001
1100
0110
,
1000
0010
0100
0001
1000
0010
0100
0001
,
0010
0100
1000
0001
0010
0100
1000
0001
,
0020
2030
3200
0302
,
0013
0000
0000
0000
,
0210
0000
0000
0000
0310
0000
0000
0000
1100
0000
0000
1000
0000
0000
1000
0000
,
0002
0000
0000
0000
0013
0000
0000
0000
0100
0000
0000
1000
0000
0000
0001
0000
,
1000
0000
0000
0000
1010
0000
0000
0000
0100
0000
0000
0010
0000
0000
1000
0000
,
0001
0010
0001
0010
0100
0000
0101
0000
,
2100
0000
0000
0000
3100
0000
0000
0000
0011
0000
0000
0001
0000
0000
0001
0000
,
2000
0000
0000
0000
3010
0000
0000
0000
0100
0000
0000
0001
0000
0000
0010
0000
,
0100
0000
0000
0000
0110
0000
0000
0000
0010
0000
0000
0001
0000
0000
0100
0000
,
0010
0001
0010
0100
0002
0000
0013
0000
,
0200
0000
0000
0000
0320
0000
0000
0000
0130
0000
0000
0001
0000
0000
0001
0000
,
0100
0000
0000
0000
1100
0000
0000
0000
0001
0000
0000
1000
0000
0000
0010
0000
,
0010
0000
0000
0000
0101
0000
0000
0000
0001
0000
0000
0100
0000
0000
0010
0000
,
1000
0001
1000
0001
0010
0000
1001
0000
,
1100
0000
0000
0000
0100
0000
0000
0000
0101
0000
0000
0100
0000
0000
0100
0000
,
1000
0000
0000
0000
0001
0000
0000
0000
0011
0000
0000
0100
0000
0000
0010
0000
,
1000
0000
0000
0000
0010
0000
0000
0000
1100
0000
0000
0001
0000
0000
1000
0000
,
0010
0100
0010
0001
1000
0100
0010
0001
,
0020
0000
0000
0000
,
0000
0000
0030
0000
,
2000
0000
0100
0000
,
3002
0000
0100
0000
,
2003
0000
0100
0000
,
3020
0000
0230
0000
,
0302
0000
0100
0000
,
0023
0000
0100
0000
,
0032
0000
0100
0000
,
2000
0000
0000
3003
,
1001
1100
0110
0101
,
0011
0110
1010
1001
,
1100
1100
0101
0101
,
1001
1010
0110
1001
,
1000
0100
0010
0001
1000
0100
0010
0001
,
0100
0010
1000
0001
0100
0010
1000
0001
,
0020
2030
3200
0302
,
0013
0000
0000
0000
,
0210
0000
0310
0000
0110
0100
1000
0001
,
1000
0010
0000
0010
0100
0001
1000
0000
,
1020
0000
0130
0001
0000
0010
0100
0020
,
0000
0200
0000
0330
0110
0000
0110
0000
,
1001
0001
0101
0011
,
0100
1000
0000
1000
0001
0010
0100
0000
,
0101
0000
0010
0000
1100
0100
0000
1000
,
0000
0001
0000
0010
0000
0100
1000
0001
,
0100
0010
0000
0100
0010
0000
0110
0000
,
1000
0001
0000
0001
0010
0100
0010
0000
,
1100
1000
1001
1010
,
0100
0001
0010
0001
0001
0000
0110
0000
,
1010
0000
0000
0000
0010
0000
0000
0000
0011
0000
0000
0001
0000
0000
1000
0000
,
0010
0000
0000
0000
0010
0000
0000
0000
0110
0000
0000
0100
0000
0000
0001
0000
,
1000
0000
0000
0000
0100
0000
0000
0000
1100
0000
0000
1000
0000
0000
0010
0000
,
0100
1000
0100
0010
1000
0100
0001
0100
,
2000
0000
0100
0000
,
3002
0000
0100
0000
,
0023
0000
0100
0000
,
0032
0023
0230
2300
,
3002
0000
0100
0000
,
2003
0000
0100
0000
,
3020
0000
0100
0000
,
2030
3200
0302
0023
,
0030
0000
0000
0000
;

//---------------dance-single - ----------------
#NOTES:
     dance-single:
     9646_DSP:
     Medium:
     7:
     0.399501,0.538516,0.340115,0.302325,0.011337,370.000000,325.000000,45.000000,40.000000,0.000000,0.000000,0.399501,0.538516,0.340115,0.302325,0.011337,370.000000,325.000000,45.000000,40.000000,0.000000,0.000000:
0000
0000
0000
0000
,
0000
0000
0000
0000
,
0000
0000
0000
0000
,
0000
0000
0000
0000
,
0000
0000
0000
0000
,
0000
0000
0000
0000
,
0000
0000
0000
0000
,
0000
0000
0000
0000
,
0000
0000
0000
1000
,
0002
0000
0103
0001
0000
0000
0001
0000
,
2000
0000
3100
1000
0000
0000
1000
0000
,
0001
0000
0100
0020
0000
0000
0130
0000
,
0002
0000
1003
0100
0000
0000
0010
0001
,
2000
0000
3100
1000
0000
0000
1000
0000
,
0002
0000
0103
0001
0000
0000
0001
0000
,
0010
0000
0000
0100
0000
0000
0020
0000
0000
0000
0000
0000
0030
0000
0000
0000
,
0100
0000
0000
1000
0000
0000
0002
0000
0000
0000
0000
0000
0003
0000
0000
0000
,
1000
0000
0000
0010
0000
0000
0200
0000
0000
0000
0000
0000
0300
0000
0000
0000
,
0020
0000
0000
2030
0000
0000
3100
0020
,
0002
0000
0000
0000
,
0033
0000
0000
0000
,
1001
0001
0001
0001
,
1000
1000
1000
1000
,
0010
0010
0010
0010
,
0100
0001
0100
0001
0010
0000
0100
0000
,
1001
1000
1000
1000
,
0001
0001
0001
0001
,
0100
0100
0100
0100
,
0010
0000
0010
0000
0010
0000
0200
0300
,
0110
0010
0011
0010
,
1010
0010
0011
0010
,
1100
0100
0101
0100
,
0110
0100
0001
1000
,
0100
0001
0100
0000
1000
0100
1000
0000
,
0010
0001
0010
0000
1000
0010
1000
0000
,
0002
0023
0230
2300
,
3001
0000
0000
0000
,
0110
0000
0100
0000
1001
0000
0010
0100
,
0010
0000
0010
0000
1100
0000
0010
0001
,
1000
0010
0110
0001
,
0010
0100
0010
0100
0010
0000
0110
0000
,
1001
0000
0001
0000
0110
0000
1000
0001
,
1000
0000
1000
0000
0101
0000
1000
0010
,
0100
1000
1001
0010
,
1000
0001
1000
0001
0020
0000
1030
0000
,
0002
0000
0203
0000
1300
0000
0100
0010
,
0100
0000
0001
0000
0110
0000
0001
1000
,
0100
0100
0101
1000
,
0001
0010
0100
1000
0010
0000
0011
0000
,
0110
0000
0100
0000
1001
0000
0010
0100
,
0010
0000
0010
0000
0101
0000
0010
1000
,
0001
0010
0110
1000
,
0010
0100
0010
1000
0100
0001
1000
0010
,
0002
0000
0000
0000
,
0000
0000
0003
0000
,
2000
0000
0100
0000
,
0000
0000
0100
0000
,
3002
0000
0010
0000
,
0000
0000
0010
0000
,
2003
0000
0010
0000
,
0000
0000
0010
0000
,
3002
0000
0100
0000
,
2000
0000
0000
3003
,
1001
0001
0101
0001
,
0011
0001
0101
0001
,
1010
1000
1100
1000
,
1010
0010
0100
0002
,
0013
1000
0010
0000
0001
0010
0001
0000
,
0100
1000
0100
0000
0001
0100
0001
0000
,
2000
3200
0320
0032
,
0203
0000
0000
0300
,
1010
0100
0110
0001
,
1000
0100
0000
0100
0010
0000
0001
0000
,
0101
0000
0001
1000
0000
0100
1000
0002
,
0000
0203
0000
0300
1100
0000
0010
0000
,
0101
0010
0110
1000
,
0001
0010
0000
0010
0100
0000
1000
0000
,
1020
0000
0230
0000
0301
0010
0000
0100
,
0000
1000
0000
0010
0000
0100
0010
0000
,
0100
0010
0000
0010
1000
0000
1001
0000
,
0001
0100
0101
0001
,
0010
0010
0110
0001
,
1000
0100
1000
0100
1000
0000
0001
0000
,
0100
0000
0001
0000
1001
0000
0100
0010
,
0001
0010
0110
0001
,
0100
0100
0110
0001
,
1000
0100
0010
0000
0010
0100
1000
0000
,
0002
0000
0010
0000
,
0000
0000
0010
0000
,
0000
0000
0010
0000
,
0103
0001
0010
0100
,
2000
0000
0100
0000
,
0000
0000
0100
0000
,
0000
0000
0100
0000
,
3010
0100
0001
0020
,
0030
0000
0000
0000
;

//---------------dance-single - ----------------
#NOTES:
     dance-single:
     9646_BSP:
     Easy:
     4:
     0.278571,0.394912,0.272092,0.445929,0.000000,258.000000,222.000000,36.000000,59.000000,0.000000,0.000000,0.278571,0.394912,0.272092,0.445929,0.000000,258.000000,222.000000,36.000000,59.000000,0.000000,0.000000:
// measure 0
0000
0000
0000
0000
,  // measure 1
0000
0000
0000
0000
,  // measure 2
0000
0000
0000
0000
,  // measure 3
0000
0000
0000
0000
,  // measure 4
0000
0000
0000
0000
,  // measure 5
0000
0000
0000
0000
,  // measure 6
0000
0000
0000
0000
,  // measure 7
0000
0000
0000
0000
,  // measure 8
0000
0000
0000
0000
,  // measure 9
0002
0000
0103
0000
,  // measure 10
2000
0000
3100
0000
,  // measure 11
0002
0000
1003
0000
,  // measure 12
0002
0000
0003
0000
,  // measure 13
2000
0000
3100
0000
,  // measure 14
0002
0000
0103
0000
,  // measure 15
0020
0000
0030
0000
,  // measure 16
0200
0000
0300
0000
,  // measure 17
0020
0000
0030
0000
,  // measure 18
0001
0000
2000
0000
,  // measure 19
0002
0000
0000
0000
,  // measure 20
3003
0000
0000
0000
,  // measure 21
1001
0100
0100
0100
,  // measure 22
0100
0100
0100
0100
,  // measure 23
0010
0010
0010
0010
,  // measure 24
1000
0100
0001
0010
,  // measure 25
0110
1000
1000
1000
,  // measure 26
1000
1000
1000
1000
,  // measure 27
0001
0001
0001
0001
,  // measure 28
0010
1000
0100
0001
,  // measure 29
0110
0001
0010
0001
,  // measure 30
0010
0100
0010
0100
,  // measure 31
1000
0010
1000
0010
,  // measure 32
0100
0001
0010
0100
,  // measure 33
0010
0010
1000
1000
,  // measure 34
0001
0001
0100
0100
,  // measure 35
2000
3002
0023
0230
,  // measure 36
1300
0000
0000
0000
,  // measure 37
0220
0330
0110
0000
,  // measure 38
0101
0010
0010
0000
,  // measure 39
2020
3030
0110
0000
,  // measure 40
0110
0001
1000
0000
,  // measure 41
2200
3300
1100
0000
,  // measure 42
0011
0100
0010
0000
,  // measure 43
0022
0033
0011
0000
,  // measure 44
0100
1000
0002
0003
,  // measure 45
2000
0000
3002
0000
,  // measure 46
0103
0001
1010
0000
,  // measure 47
0220
0330
1001
0000
,  // measure 48
0100
0100
0010
0000
,  // measure 49
2200
3300
1100
0000
,  // measure 50
0001
1000
0001
0000
,  // measure 51
0202
0303
1010
0000
,  // measure 52
0100
0001
0010
1000
,  // measure 53
0020
0000
0000
0000
,  // measure 54
0000
0000
0030
0000
,  // measure 55
0002
0000
0010
0000
,  // measure 56
0000
0000
0010
0000
,  // measure 57
2003
0000
0100
0000
,  // measure 58
0000
0000
0010
0000
,  // measure 59
3002
0000
0100
0000
,  // measure 60
0000
0000
0100
0000
,  // measure 61
2003
0000
0100
0000
,  // measure 62
0002
0000
0000
3003
,  // measure 63
1001
0100
0001
0100
,  // measure 64
0001
1000
0001
1000
,  // measure 65
0010
0001
0010
0001
,  // measure 66
1000
0100
0001
1000
,  // measure 67
0001
0001
0010
0010
,  // measure 68
0100
0100
1000
1000
,  // measure 69
0020
0230
0302
2003
,  // measure 70
3020
0000
0000
0030
,  // measure 71
0110
0001
1000
0010
,  // measure 72
0002
0003
2000
3000
,  // measure 73
1001
1000
0100
0001
,  // measure 74
2000
0000
3010
0010
,  // measure 75
0110
1000
0100
1000
,  // measure 76
0002
0003
0020
0030
,  // measure 77
1010
0101
0001
1000
,  // measure 78
0200
0000
0310
0010
,  // measure 79
0200
0000
0310
0010
,  // measure 80
1000
0010
0011
0000
,  // measure 81
2200
3300
1001
0000
,  // measure 82
0110
0001
0100
0001
,  // measure 83
2002
3003
1100
0000
,  // measure 84
0101
1000
0100
0010
,  // measure 85
0220
0330
0110
0000
,  // measure 86
0100
1000
0010
0001
,  // measure 87
0020
0000
0100
0000
,  // measure 88
0000
0000
0100
0000
,  // measure 89
0000
0000
0100
0000
,  // measure 90
0000
0000
0130
0001
,  // measure 91
0020
0000
0100
0000
,  // measure 92
0000
0000
0100
0000
,  // measure 93
0000
0000
1000
0000
,  // measure 94
0000
0000
0002
0000
,  // measure 95
0033
0000
0000
0000
;

//---------------dance-single - ----------------
#NOTES:
     dance-single:
     9646_BEG:
     Beginner:
     2:
     0.116611,0.179505,0.015116,0.188953,0.000000,108.000000,106.000000,2.000000,25.000000,0.000000,0.000000,0.116611,0.179505,0.015116,0.188953,0.000000,108.000000,106.000000,2.000000,25.000000,0.000000,0.000000:
0000
0000
0000
0000
,
0000
0000
0000
0000
,
0000
0000
0000
0000
,
0000
0000
0000
0000
,
0000
0000
0000
0000
,
0000
0000
0000
0000
,
0000
0000
0000
0000
,
0000
0000
0000
0000
,
0000
0000
0000
0000
,
0020
0000
0000
0000
,
0030
0000
0000
0000
,
2000
0000
0000
0000
,
3000
0000
0000
0000
,
0200
0000
0000
0000
,
0300
0000
0000
0000
,
0001
0000
0000
0000
,
0100
0000
0000
0000
,
1000
0000
0000
0000
,
0100
0000
0000
0000
,
0020
0000
0000
0000
,
0030
0000
0000
0000
,
0001
0000
0000
0000
,
0010
0000
0000
0000
,
0010
0000
0100
0000
,
0010
0000
0000
0000
,
1000
0000
0000
0000
,
0010
0000
0000
0000
,
0010
0000
0100
0000
,
0010
0000
0000
0000
,
0001
0000
0001
0000
,
0001
0000
0001
0000
,
1000
0000
1000
0000
,
1000
0000
1000
0000
,
0100
0000
0001
0000
,
0010
0000
1000
0000
,
0002
0000
0000
0000
,
0003
0000
0000
0000
,
2002
0000
0000
0000
,
3003
0000
0001
0000
,
2000
0000
3000
0000
,
0010
0000
0100
0000
,
0020
0000
0000
0000
,
0030
0000
0010
0000
,
0001
0000
0001
0000
,
1000
0000
0001
0000
,
0020
0000
0000
0000
,
0030
0000
0010
0000
,
1000
0000
0001
0000
,
1000
0000
1000
0000
,
0001
0000
0010
0000
,
1000
0000
1000
0000
,
0001
0000
0001
0000
,
0100
0000
1000
0000
,
0020
0000
0000
0000
,
0000
0000
0030
0000
,
2000
0000
0000
0000
,
0000
0000
3000
0000
,
0002
0000
0000
0000
,
0000
0000
0003
0000
,
0200
0000
0000
0000
,
0000
0000
0300
0000
,
0020
0000
0000
0000
,
0000
0000
0000
0030
,
0010
0000
0010
0000
,
0010
0000
0010
0000
,
0100
0000
0100
0000
,
0100
0000
0100
0000
,
0001
0000
0010
0000
,
1000
0000
0100
0000
,
0020
0000
0000
0000
,
0030
0000
0000
0000
,
0220
0000
0330
0000
,
0100
0000
0010
0000
,
0200
0000
0300
0000
,
0001
0000
1000
0000
,
0002
0000
0003
0000
,
0010
0000
0100
0000
,
0010
0000
0010
0000
,
0100
0000
1000
0000
,
0020
0000
0030
0000
,
1000
0000
0010
0000
,
0001
0000
0001
0000
,
1000
0000
1000
0000
,
0100
0000
0001
0000
,
1000
0000
0010
0000
,
0001
0000
0001
0000
,
0010
0000
1000
0000
,
0200
0000
0000
0000
,
0000
0000
0300
0000
,
0020
0000
0000
0000
,
0000
0000
0030
0000
,
0002
0000
0000
0000
,
0000
0000
0003
0000
,
2000
0000
0000
0000
,
0000
0000
0000
0000
,
3000
0000
0000
0000
;
