#TITLE:Kundalini;
#SUBTITLE:;
#ARTIST:Headhunterz & Skytech;
#TITLETRANSLIT:;
#SUBTITLETRANSLIT:;
#ARTISTTRANSLIT:;
#GENRE:;
#CREDIT:;
#BANNER:Kundalini.png;
#BACKGROUND:Kundalini-bg.png;
#LYRICSPATH:;
#CDTITLE:cdtitle.png;
#MUSIC:Kundalini.ogg;
#OFFSET:-0.010000;
#SAMPLESTART:75.009995;
#SAMPLELENGTH:15.000000;
#SELECTABLE:YES;
#DISPLAYBPM:128.000000;
#BPMS:0.000000=128.000000
,154.000000=256.000000
,158.000000=128.000000
;
#STOPS:
;
#BGCHANGES:;
#KEYSOUNDS:;
#ATTACKS:;

//---------------dance-single - ----------------
#NOTES:
     dance-single:
     :
     Easy:
     4:
     0.256386,0.310066,0.120181,0.128193,0.000000,224.000000,209.000000,15.000000,16.000000,0.000000,0.000000,0.256386,0.310066,0.120181,0.128193,0.000000,224.000000,209.000000,15.000000,16.000000,0.000000,0.000000:
// measure 0
0000
0000
0000
0000
,  // measure 1
0000
0000
0000
0000
,  // measure 2
0000
0000
0000
0000
,  // measure 3
0000
0000
0000
0000
,  // measure 4
1000
0000
0100
0000
,  // measure 5
0010
0000
0001
0000
,  // measure 6
0100
0000
0010
0000
,  // measure 7
1000
0001
1000
0001
,  // measure 8
1000
1000
1000
1000
,  // measure 9
1000
1000
1000
1000
,  // measure 10
0001
0001
0001
0001
,  // measure 11
0001
0001
0001
0001
,  // measure 12
0100
0100
0100
0100
,  // measure 13
0100
0100
0100
0100
,  // measure 14
0010
0010
0010
0010
,  // measure 15
0010
0010
0010
0010
,  // measure 16
2000
3000
0002
0003
,  // measure 17
2000
0100
3100
0000
,  // measure 18
0002
0100
0103
0000
,  // measure 19
2000
0001
3001
0000
,  // measure 20
0002
0003
2000
3000
,  // measure 21
0002
0010
0013
0000
,  // measure 22
2000
0010
3010
0000
,  // measure 23
0002
1000
1003
0000
,  // measure 24
1001
1000
0010
0100
,  // measure 25
0001
0001
0001
0000
,  // measure 26
1000
0100
0010
0000
,  // measure 27
0010
0100
1000
0000
,  // measure 28
0001
0010
0100
1000
,  // measure 29
0001
0001
0001
0000
,  // measure 30
0100
0010
1000
0000
,  // measure 31
1000
0010
0100
0000
,  // measure 32
0001
0001
1000
1000
,  // measure 33
0001
0001
1000
1000
,  // measure 34
0010
0010
0100
0100
,  // measure 35
0010
0010
0100
0100
,  // measure 36
0001
0000
1000
0000
,  // measure 37
0001
0000
1000
0000
,  // measure 38
0020
0000
0200
0000
,  // measure 39
0000
0000
0330
0000
,  // measure 40
0000
0010
1001
1000
,  // measure 41
0010
0100
0010
1000
,  // measure 42
0100
1100
1000
0001
,  // measure 43
0100
0101
0001
0010
,  // measure 44
0100
1100
1001
0001
,  // measure 45
0100
0010
1000
0100
,  // measure 46
0010
0110
0100
1000
,  // measure 47
0010
0110
0100
0100
,  // measure 48
0100
0100
1001
0001
,  // measure 49
0100
0010
0100
0001
,  // measure 50
0010
0011
0001
1000
,  // measure 51
0010
1010
1000
0100
,  // measure 52
0010
0011
1001
1000
,  // measure 53
0010
0100
0001
0010
,  // measure 54
0100
0110
0010
0001
,  // measure 55
0100
0110
0010
0010
,  // measure 56
0010
0010
1000
0100
,  // measure 57
0010
0100
2000
0001
,  // measure 58
0001
0001
3001
0100
,  // measure 59
0010
0100
0002
1000
,  // measure 60
1000
1000
1003
0100
,  // measure 61
0001
0100
2000
0001
,  // measure 62
0001
0001
3001
0010
,  // measure 63
1000
0010
0002
1000
,  // measure 64
1000
1000
0003
0000
;

//---------------dance-single - ----------------
#NOTES:
     dance-single:
     :
     Hard:
     9:
     0.472711,0.540513,0.328494,0.352530,0.176265,413.000000,372.000000,41.000000,44.000000,3.000000,0.000000,0.472711,0.540513,0.328494,0.352530,0.176265,413.000000,372.000000,41.000000,44.000000,3.000000,0.000000:
// measure 0
0000
0000
0000
0000
,  // measure 1
0000
0000
0000
0000
,  // measure 2
0000
0000
0000
0000
,  // measure 3
0000
0000
0000
0000
0000
0000
1010
1010
,  // measure 4
0100
0001
1000
0100
0010
0100
1000
0000
,  // measure 5
1000
0010
0100
0001
0010
0001
0101
0000
,  // measure 6
0001
0010
0100
0010
0001
1000
1010
0000
,  // measure 7
1010
0100
1001
0100
0011
1000
0110
0000
,  // measure 8
0001
0000
0001
0100
1000
0100
0001
0100
,  // measure 9
0010
0100
0001
0100
0010
0000
0010
0000
,  // measure 10
0010
1000
0100
0010
0002
0000
1000
0000
,  // measure 11
1003
0000
0000
0010
0001
0000
0010
0000
1000
0000
0000
0000
1000
0000
0000
0000
,  // measure 12
1000
0000
1000
0100
0010
1000
0010
0100
,  // measure 13
0010
0001
0010
0100
0010
0000
0010
0000
,  // measure 14
0010
0001
0100
0001
0020
0000
1000
0000
,  // measure 15
1030
0000
0000
0010
0001
0000
0100
0000
0100
0001
1000
0100
0010
0000
0000
0000
,  // measure 16
1002
0000
0000
0000
0000
0000
0003
0000
2000
0000
0000
0000
0000
0000
3000
0100
,  // measure 17
0000
0000
0100
0000
0010
0000
0001
0000
2000
0000
3000
0000
0000
0000
0000
0001
,  // measure 18
0000
0000
0001
0000
1000
0000
0001
0000
0200
0000
0300
0000
0000
0000
0000
0001
,  // measure 19
0000
0001
1000
0010
0200
0300
0000
0001
,  // measure 20
2000
0000
0000
0000
0000
0000
3000
0000
0002
0000
0000
0000
0000
0000
0003
0100
,  // measure 21
0000
0000
0100
0000
0010
0000
1000
0000
0002
0000
0003
0000
0000
0000
0000
1000
,  // measure 22
0000
0000
1000
0000
0001
0000
1000
0000
0200
0000
0300
0000
0000
0000
0000
2000
,  // measure 23
3000
0000
2000
3000
0002
0003
0020
0030
0200
0000
0300
0000
0000
0000
0000
0000
,  // measure 24
1001
0000
1000
0010
0001
0010
1000
0010
,  // measure 25
0100
0010
1000
0010
0100
0000
0100
0000
,  // measure 26
0100
0001
0010
0100
2000
0000
0001
0000
,  // measure 27
3001
0000
0000
0100
1000
0000
0100
0000
0001
0000
0000
0000
0001
0000
0000
0000
,  // measure 28
0001
0000
0001
0010
0100
0001
0100
0010
,  // measure 29
0100
1000
0100
0010
0100
0000
0100
0000
,  // measure 30
0100
1000
0010
1000
0200
0000
0001
0000
,  // measure 31
0301
0000
0000
0100
1000
0000
0010
0000
0010
0000
0000
0000
0100
0000
0000
0000
,  // measure 32
0011
0000
0000
0000
0100
0000
0000
0000
1000
0000
0000
0000
0010
0000
0000
0100
,  // measure 33
0000
0000
0100
0000
0001
0000
1000
0000
0100
0000
0000
0000
1000
0000
0000
0001
,  // measure 34
0000
0000
0001
0000
0100
0000
0010
0000
0100
0000
0000
0000
0001
0000
0000
0010
,  // measure 35
0000
0010
0100
1000
0100
0000
1000
0010
,  // measure 36
0100
0001
0000
0001
0000
0000
1000
0000
0010
0100
0000
0100
0000
0000
0001
0000
,  // measure 37
1000
0010
0000
0010
0000
0000
0100
0000
0001
1000
0000
1000
0000
0000
0100
0000
,  // measure 38
0010
0001
0100
0010
0100
0001
0010
0100
0040
0000
0000
0000
0000
0000
0000
0000
,  // measure 39
0000
0000
MM3M
0000
,  // measure 40
0001
0010
1000
0000
0120
0000
0032
0000
,  // measure 41
2003
0000
0000
0000
3200
0000
0000
2300
0000
3000
0010
0000
0001
0000
0010
0000
,  // measure 42
1000
0000
0100
0000
0110
0000
0000
0002
0000
0003
0100
0000
1000
0000
0100
0000
,  // measure 43
0010
0000
0100
0000
0101
0000
0000
2000
0000
3000
0001
0000
0010
0000
0001
0000
,  // measure 44
0100
0001
4000
3000
0021
0000
2030
0000
,  // measure 45
3020
0000
0000
0000
0230
0000
0000
2300
0000
3000
0001
0000
0010
0000
0100
0000
,  // measure 46
0010
0000
0001
0000
1001
0000
0000
0020
0000
0030
1000
0000
0001
0000
0100
0000
,  // measure 47
1000
0100
0101
0000
1001
0010
1100
0010
,  // measure 48
0101
1000
0110
0000
1002
0000
0203
0000
,  // measure 49
2300
0000
0000
0000
3002
0000
0000
0023
0000
0030
1000
0000
0001
0000
0010
0000
,  // measure 50
0100
0000
1000
0000
1010
0000
0000
0002
0000
0003
0100
0000
0001
0000
1000
0000
,  // measure 51
0100
0000
0010
0000
0011
0000
0000
0200
0000
0300
1000
0000
0010
0000
0100
0000
,  // measure 52
1000
0100
0040
0030
2001
0000
3200
0000
,  // measure 53
0302
0000
0000
0000
2003
0000
0000
3020
0000
0030
0001
0000
0100
0000
0010
0000
,  // measure 54
1000
0000
0100
0000
0110
0000
0000
0002
0000
0003
0100
0000
0010
0000
1000
0000
,  // measure 55
0100
1000
1001
0000
1010
0001
0110
1000
,  // measure 56
0101
0000
0010
0000
1001
0000
0000
0000
1000
0000
0000
0100
1000
0000
0001
0000
,  // measure 57
0100
0000
0000
0000
0010
0000
0000
0000
0100
0000
0000
0001
0010
0000
0100
0000
,  // measure 58
0001
0000
0100
0000
0110
0000
0000
0000
0010
0000
0000
0001
0010
0000
1000
0000
,  // measure 59
0010
0000
0000
0000
0011
0000
0000
0000
0010
0000
0000
0100
0010
0000
0001
0000
,  // measure 60
0100
0000
0001
0000
1001
0000
1001
0000
1000
0000
0000
0010
1000
0000
0001
0000
,  // measure 61
0010
0000
0000
0000
0100
0000
0000
0000
0010
0000
0000
0001
0100
0000
0010
0000
,  // measure 62
0001
0000
0010
0000
0110
0000
0000
0000
0100
0000
0000
0001
0100
0000
1000
0000
,  // measure 63
0100
0000
0101
0000
0011
0100
1001
0100
,  // measure 64
1010
0001
0110
0000
0000
0000
0000
0000
;

//---------------dance-single - ----------------
#NOTES:
     dance-single:
     :
     Medium:
     8:
     0.353675,0.438409,0.152229,0.512771,0.020030,309.000000,290.000000,19.000000,64.000000,0.000000,0.000000,0.353675,0.438409,0.152229,0.512771,0.020030,309.000000,290.000000,19.000000,64.000000,0.000000,0.000000:
// measure 0
0000
0000
0000
0000
,  // measure 1
0000
0000
0000
0000
,  // measure 2
0000
0000
0000
0000
,  // measure 3
0000
0000
0000
0000
,  // measure 4
0001
0100
0010
1010
,  // measure 5
1000
0100
0010
1001
,  // measure 6
0001
0100
0010
1010
,  // measure 7
0010
0100
0010
0100
0010
0100
0110
0000
,  // measure 8
1000
1000
0001
0001
,  // measure 9
1000
0100
0010
0100
1000
0000
1000
0000
,  // measure 10
0010
0010
0100
0100
,  // measure 11
0001
0000
0001
0010
0100
0000
0100
0000
,  // measure 12
0010
0010
0001
0001
,  // measure 13
1000
0010
0100
0010
1000
0000
1000
0000
,  // measure 14
0010
0010
0100
0100
,  // measure 15
0001
0000
0000
0001
0000
0000
0001
0000
0010
0000
0100
0000
1000
0000
0000
0000
,  // measure 16
0002
0000
0000
0003
0200
0000
0000
0300
,  // measure 17
0020
0001
1030
0000
,  // measure 18
0200
0001
1300
0000
,  // measure 19
0002
0100
0013
0000
,  // measure 20
0002
0000
0000
0003
0200
0000
0000
0300
,  // measure 21
0020
0000
1000
1000
1030
0000
0000
0000
,  // measure 22
0200
0000
0010
0010
0310
0000
0000
0000
,  // measure 23
0002
0000
0100
0100
0103
0000
0000
0000
,  // measure 24
0001
0001
1000
1000
,  // measure 25
0001
0010
0100
0010
0001
0000
0001
0000
,  // measure 26
0100
0100
0010
0010
,  // measure 27
1000
0000
1000
0100
0010
0000
0010
0000
,  // measure 28
0100
0100
1000
1000
,  // measure 29
0001
0100
0010
0100
0001
0000
0001
0000
,  // measure 30
0100
0100
0010
0010
,  // measure 31
1000
0000
1000
0100
0010
0000
0100
0000
,  // measure 32
1001
0100
0010
1000
,  // measure 33
0100
0010
0001
1000
,  // measure 34
0010
0100
0001
0010
,  // measure 35
0100
1000
0001
0100
,  // measure 36
0010
0000
0000
0010
0000
0000
0010
0000
0100
0000
0000
0100
0000
0000
0100
0000
,  // measure 37
0001
0000
0000
0001
0000
0000
0001
0000
1000
0000
0000
1000
0000
0000
1000
0000
,  // measure 38
0002
0000
0020
0000
,  // measure 39
0000
0000
0033
0000
,  // measure 40
0001
0001
0100
0000
2001
0000
3020
0000
,  // measure 41
0230
0000
0302
0000
1003
0001
0100
0001
,  // measure 42
0020
0030
0110
0000
0100
1000
0100
0010
,  // measure 43
0200
0300
1100
0000
0001
0100
0010
1000
,  // measure 44
0200
1300
0020
0030
1002
0000
0203
0000
,  // measure 45
2300
0000
3200
0000
0301
0010
0100
0010
,  // measure 46
0002
0003
0101
0000
0010
1000
0001
1000
,  // measure 47
0200
0300
0110
0000
1000
1000
0001
0001
,  // measure 48
0100
0100
0110
0000
1002
0000
0023
0000
,  // measure 49
0230
0000
2300
0000
3001
1000
0100
1000
,  // measure 50
0020
0030
0110
0000
0100
0001
0100
0010
,  // measure 51
0200
0300
0101
0000
1000
0100
0010
0001
,  // measure 52
0200
0301
0020
0030
2001
0000
3200
0000
,  // measure 53
0302
0000
0203
0000
1300
0010
0100
0010
,  // measure 54
2000
3000
1100
0000
0010
0001
1000
0001
,  // measure 55
0200
0300
0110
0000
0001
0001
1000
1000
,  // measure 56
0100
0100
0110
0000
1000
0000
0100
0000
,  // measure 57
0001
0000
0100
0000
1000
0020
2030
3020
,  // measure 58
2030
3020
2030
3000
0100
0000
0010
0000
,  // measure 59
0100
0000
1000
0000
0001
0200
0302
0203
,  // measure 60
0302
0203
0302
0003
1000
0000
0010
0000
,  // measure 61
0001
0000
0010
0000
1000
0200
2300
3200
,  // measure 62
2300
3200
2300
3000
0010
0000
0100
0000
,  // measure 63
0010
0000
1000
0000
0001
0020
0032
0023
,  // measure 64
0032
0023
0032
0003
0000
0000
0000
0000
;
