#TITLE:FLASH IN THE NIGHT;
#SUBTITLE:;
#ARTIST:FLASHMAN;
#TITLETRANSLIT:;
#SUBTITLETRANSLIT:;
#ARTISTTRANSLIT:;
#GENRE:;
#CREDIT:;
#MUSIC:[Your Name] - FLASH IN THE NIGHT.ogg;
#BANNER:[Your Name] - FLASH IN THE NIGHT.png;
#BACKGROUND:[Your Name] - FLASH IN THE NIGHT-bg.png;
#CDTITLE:;
#SAMPLESTART:50.988;
#SAMPLELENGTH:25.642;
#SELECTABLE:YES;
#OFFSET:-0.178;
#BPMS:0.000=155.703
,227.000=156.615
,228.000=155.703
,291.000=161.189
,292.000=155.703
,343.500=158.703
,344.500=157.203
,346.000=155.703
,355.000=155.203
,359.000=155.703
;
#STOPS:;
#DISPLAYBPM:155.000;
#BGCHANGES:;
#FGCHANGES:;

//--------------- dance-single - forcednature ----------------
#NOTES:
     dance-single:
     forcednature:
     Beginner:
     1:
     0,0,0,0,0:
0000
0000
0000
0000
,
0010
0000
0100
0000
,
0001
0000
1000
0000
,
0100
0000
1000
0000
,
0001
0000
0010
0000
,
0001
0000
0100
0000
,
0010
0000
1000
0000
,
0100
0000
0010
0000
,
0001
0000
0000
0000
,
0001
0000
0001
0000
,
0100
0000
0100
0000
,
1000
0000
1000
0000
,
0100
0000
0100
0000
,
0010
0000
0000
0000
,
0100
0000
0100
0000
,
0010
0000
0000
0000
,
0100
0000
0100
0000
,
1000
0000
1000
0000
,
0010
0000
0010
0000
,
0001
0000
0001
0000
,
0010
0000
0010
0000
,
0100
0000
0000
0000
,
0010
0000
0010
0000
,
0100
0000
0000
0000
,
0010
0000
0010
0000
,
1000
0000
1000
0000
,
0001
0000
0001
0000
,
0100
0000
0100
0000
,
0001
0000
0001
0000
,
0001
0000
0001
0000
,
1000
0000
1000
0000
,
0100
0000
0100
0000
,
0010
0000
0000
0000
,
1001
0000
0001
0000
,
0100
0000
0010
0000
,
0100
0100
0100
0000
,
0010
0000
1000
0000
,
1001
0000
1000
0000
,
0100
0000
0001
0000
,
0100
0100
0100
0000
,
0020
0000
0030
0000
,
1001
0000
0001
0000
,
0100
0000
1000
0000
,
0100
0100
0100
0000
,
0010
0000
0000
0000
,
1001
0000
1000
0000
,
0010
0000
0001
0000
,
0010
0010
0010
0000
,
0100
0000
0000
0000
,
1000
0000
0001
0000
,
0100
0100
0100
0000
,
0001
0000
1000
0000
,
0100
0100
0100
0000
,
0010
0000
1000
0000
,
0010
0010
0010
0000
,
0010
0000
0001
0000
,
0010
0010
0010
0000
,
0100
0100
0000
1000
,
0000
0010
0000
0001
,
0000
0100
0000
0001
,
0000
0010
0000
1000
,
0000
0100
0000
0010
,
0000
0001
0000
1000
,
0000
0010
0000
0100
,
0000
0001
0000
1000
,
0010
0000
0000
0000
,
0100
0000
0100
0000
,
0010
0000
0000
0000
,
0100
0000
0100
0000
,
1001
0000
0000
0000
,
0100
0000
0100
0000
,
1001
0000
0000
0000
,
0010
0000
0010
0000
,
1001
0000
0001
0000
,
0100
0000
0010
0000
,
0100
0100
0100
0000
,
0010
0000
0000
0000
,
1001
0000
1000
0000
,
0100
0000
1000
0000
,
0010
0010
0010
0000
,
0100
0000
0000
0000
,
1001
0000
0001
0000
,
1000
0000
0010
0000
,
0100
0100
0100
0000
,
0010
0000
0000
0000
,
1001
0000
1000
0000
,
0001
0000
0010
0000
,
0100
0100
0100
0000
,
1001
0000
0000
0000
,
1000
0000
0010
0000
,
1000
1000
1000
0000
,
0001
0000
0010
0000
,
0001
0001
0001
0000
,
1000
0000
0100
0000
,
1000
1000
1000
0000
,
0001
0000
0100
0000
,
0001
0001
0001
0000
,
0010
0000
0000
0000
;

//--------------- dance-single - forcednature ----------------
#NOTES:
     dance-single:
     forcednature:
     Easy:
     4:
     0,0,0,0,0:
0000
0000
0000
0000
,
0001
0100
0001
1000
,
0100
1000
0001
1000
,
0010
1000
0001
0010
,
0100
1000
0001
0100
,
1001
0010
1000
0100
,
1001
0010
0001
0100
,
0110
1000
0010
0001
,
0010
0010
0010
0010
,
0100
0000
0100
1000
,
0100
0001
0100
1000
,
0100
0001
0100
1000
,
0100
0001
0100
0000
,
2002
0000
3003
2002
0000
3003
2002
0000
,
0000
3003
0000
0000
0010
0000
0010
0000
,
2002
0000
3003
2002
0000
3003
2002
0000
,
0000
3003
0000
0000
0100
0000
0100
0000
,
1001
0010
1000
0001
,
1001
0010
0001
1000
,
0110
1000
0001
0100
,
0110
0001
1000
0000
,
0220
0000
0330
2002
0000
3003
0220
0000
,
0000
0330
0000
0000
0010
0000
0010
0000
,
2002
0000
3003
0220
0000
0330
2002
0000
,
0000
3003
0000
0000
0100
0000
0100
0000
,
2002
0000
3003
2002
0000
3003
2002
0000
,
0000
3003
0000
0000
0001
0000
0100
0000
,
0220
0000
0330
0220
0000
0330
0220
0000
,
0000
0330
0010
0000
1000
0000
0001
0000
,
2002
0000
3003
2002
0000
3003
2002
0000
,
0000
3003
0000
0000
1000
0000
0001
0000
,
0220
0000
0330
0220
0000
0330
0220
0000
,
0000
0330
0000
0000
0000
0000
0000
0000
,
1001
0001
0100
1000
,
0100
0001
1000
0100
,
0001
0100
0010
0010
,
0001
0001
0001
0000
1000
0000
0000
0000
,
1001
0001
0100
1000
,
0100
0010
1000
0100
,
0010
0100
1000
0001
,
1000
1000
1000
0000
0010
0000
0000
0000
,
1001
0100
0001
1000
,
0100
0010
0001
1000
,
0010
0100
1000
0001
,
0010
0010
0010
0000
0100
0000
0000
0000
,
1001
0010
1000
0001
,
0100
0001
1000
0100
,
0010
0001
0100
0010
,
1001
0000
0100
0010
,
1001
0100
1000
0010
,
0100
0001
0010
0001
,
0110
0001
0100
1000
,
0001
0010
1000
0001
,
1001
1000
0010
0001
,
0100
0001
1000
0010
,
0110
0001
1000
0010
,
1000
0001
0100
0010
,
1001
1000
0001
1000
,
0001
1000
0001
1000
,
0001
0100
0001
0100
,
0001
0100
0001
0100
,
0010
1000
0010
1000
,
0010
1000
0010
1000
,
0001
0010
0001
0010
,
0001
0000
0010
0000
0010
0010
0010
0000
,
2002
0000
3003
0220
0000
0330
2002
0000
,
0000
3003
0000
0000
1000
0000
0001
0000
,
0220
0000
0330
2002
0000
3003
0220
0000
,
0000
0330
1000
0000
0001
0000
0100
0000
,
2002
0000
3003
0220
0000
0330
2002
0000
,
0000
3003
0000
0000
0010
0000
0100
0000
,
0220
0000
0330
2002
0000
3003
0220
0000
,
0000
0330
0000
0000
0010
0010
0010
0000
,
1001
1000
0010
0100
,
0001
0010
0100
1000
,
0001
0100
0010
1000
,
0001
0010
0100
1000
,
1001
1000
0010
0100
,
0001
1000
0100
0010
,
0001
0100
0010
0100
,
0010
0010
0010
0000
0000
0000
0000
0000
,
1001
0001
0100
1000
,
0100
0001
1000
0010
,
0100
0001
0010
1000
,
0100
0100
0100
0000
0010
0000
0000
0000
,
1001
0001
0100
1000
,
0100
0001
1000
0100
,
0010
0000
0001
0000
0010
0010
0010
0000
,
1001
0000
0100
0010
,
1001
0100
1000
0010
,
0110
0001
0010
1000
,
1001
0100
0001
1000
,
1001
0001
0100
1000
,
0110
1000
0010
0001
,
0110
0001
0100
1000
,
0110
1000
0010
0001
,
0100
0100
0100
0000
0010
0000
1000
0000
,
1001
0000
0000
0000
;

//--------------- dance-single - forcednature ----------------
#NOTES:
     dance-single:
     forcednature:
     Medium:
     7:
     0,0,0,0,0:
0000
0000
0000
0000
,
0001
0100
0001
0000
1000
0000
0100
0000
,
0010
0001
0010
0000
0100
1000
0100
0000
,
1000
0010
1000
0000
0001
0000
0100
0000
,
0001
0100
0001
0000
1000
0010
1000
0000
,
0001
0010
0001
0000
1000
0000
0100
0000
,
1000
0010
1000
0000
0001
0010
0001
0000
,
1000
0100
1000
0000
0001
0000
0100
0000
,
0001
0010
0001
0000
1000
0100
1000
0000
,
1001
1000
0010
0100
,
1001
0001
0010
0100
,
1000
0010
1000
0000
0001
0000
0010
0000
,
0001
0010
0001
0000
1000
0000
0010
0000
,
2002
0000
3003
0220
0000
0330
2002
0000
,
0000
3003
0000
0000
0001
0100
0001
0000
,
2002
0000
3003
0220
0000
0330
2002
0000
,
0000
3003
0000
0000
1000
0100
1000
0000
,
0110
0000
1000
0000
0001
0010
0001
0000
,
0110
0000
0010
0000
1000
0010
1000
0000
,
0110
0000
0001
0000
1000
0100
1000
0000
,
0110
0000
0100
0000
0001
0100
0001
0000
,
2002
0000
0000
0000
3003
0000
0220
0000
0000
0000
0330
0000
2002
0000
0000
3003
,
1000
0010
1000
0000
0001
0010
0001
0000
,
2002
0000
0000
0000
3003
0000
0220
0000
0000
0000
0330
0000
2002
0000
0000
3003
,
0001
0100
0001
0000
1000
0100
1000
0000
,
2200
0000
0000
0000
3300
0000
0022
0000
0000
0000
0033
0000
2002
0000
0000
3003
,
0001
0100
0010
1000
,
2002
0000
0000
0000
3003
0000
0202
0000
0000
0000
0303
0000
2200
0000
0000
3300
,
0100
1000
0001
0100
,
0022
0000
0000
0000
0033
0000
2020
0000
0000
0000
3030
0000
2002
0000
0000
3003
,
1000
0001
0010
0100
,
0220
0000
0000
0000
0330
0000
2002
0000
0000
0000
3003
0000
0220
0000
0000
0330
,
0010
0001
0000
0110
0000
0001
1000
0000
,
1001
0000
1000
0010
1000
0001
1000
0000
,
1001
0000
0001
0010
0001
1000
0001
0000
,
0110
0000
1000
0100
0001
0100
0010
0000
,
0110
0000
0100
1000
0001
0100
0010
0000
,
1001
0000
1000
0010
1000
0001
0010
0000
,
1001
0000
0001
0100
1000
0100
0010
0000
,
1001
0000
1000
0010
0100
0001
0010
0000
,
0110
0100
0100
0000
,
1001
0000
0001
0010
0001
1000
0010
0000
,
1001
0000
1000
0100
1000
0001
0100
0000
,
0110
0000
0010
1000
0001
0010
0100
0000
,
0110
0000
0010
0001
1000
0010
0000
0000
,
1001
0000
0100
0001
1000
0100
0010
0000
,
0110
0000
0100
1000
0001
0100
0010
0000
,
1001
0000
1000
0010
1000
0001
0010
0000
,
0110
0010
0110
1001
,
1000
0100
1000
0000
0010
0000
0100
0000
,
0001
0010
0001
0000
1000
0010
1000
0000
,
0001
0100
0001
0000
1000
0000
0100
0000
,
1000
0010
1000
0000
0001
0010
0001
0000
,
1000
0010
1000
0000
0001
0000
0100
0000
,
0010
0100
0010
0000
1000
0001
1000
0000
,
0100
0010
0100
0000
1000
0000
0001
0000
,
0010
0001
0000
1000
0000
0001
0100
0000
,
1001
0000
1000
0010
1000
0000
0001
0010
,
0001
1000
0001
1000
,
0001
0000
1000
0100
1000
0000
0001
0100
,
0001
1000
0001
1000
,
0001
0000
1000
0010
1000
0000
0001
0010
,
0001
1000
0001
1000
,
0001
0000
1000
0100
1000
0000
0001
0100
,
0001
0000
0100
0000
0010
0010
0010
0000
,
0220
0000
0330
2002
0000
3003
0220
0000
,
0000
0330
0000
0000
1000
0000
0001
0000
,
2200
0000
3300
0022
0000
0033
0202
0000
,
0000
0303
0001
0000
0100
0000
1000
0000
,
0220
0000
0330
2002
0000
3003
0220
0000
,
0000
0330
0000
0000
1000
0000
0010
0000
,
2002
0000
3003
0220
0000
0330
2002
0000
,
0000
3003
0000
0000
0010
0010
0010
0000
,
1001
0000
1000
0010
1000
0001
0010
0000
,
0110
0000
0100
1000
0001
0010
0100
0000
,
1001
0000
0010
0001
1000
0010
0100
0000
,
1001
0000
0001
0100
0010
1000
0100
0000
,
1001
0000
1000
0100
0010
0100
1000
0000
,
1001
0000
0001
0010
0100
0010
0001
0000
,
1001
0000
0001
0100
0001
1000
0010
0000
,
1001
0000
1000
0010
0001
1000
1000
0000
,
0110
0000
1000
0100
0001
0010
0100
0000
,
1001
0000
0001
1000
0100
1000
0001
0000
,
0110
0000
0010
0001
0010
1000
0010
0000
,
0110
0000
0001
0100
1000
0100
0001
0000
,
1001
0000
1000
0100
0001
0100
0010
0000
,
0110
0000
0100
1000
0001
0010
0100
0000
,
1001
0000
1000
0010
1000
0001
0010
0000
,
0110
0000
0100
0001
0100
1000
0100
0000
,
1001
0000
0001
0100
0001
0000
1001
0000
,
1000
0100
1000
0000
0001
0010
0001
0000
,
1001
0000
0001
0100
0001
0000
1001
0000
,
1000
0010
1000
0000
0001
0010
0001
0000
,
0110
0000
0001
0100
1000
0000
0110
0000
,
1000
0010
0001
0000
0001
0010
1000
0000
,
0110
0000
1000
0100
0001
0000
0110
0000
,
0001
0100
1000
0100
0001
1000
0001
0000
,
0010
0000
0000
0000
;

//--------------- dance-single - forcednature ----------------
#NOTES:
     dance-single:
     forcednature:
     Hard:
     9:
     0,0,0,0,0:
0000
0000
0000
0000
,
1000
0100
0010
0000
0010
0000
0001
0100
0010
0000
0010
0000
1000
0010
0100
0000
,
0100
0000
0001
0010
0100
0000
0100
0000
1000
0001
1000
0000
0001
1000
0001
0000
,
1000
0001
0100
0000
0100
0000
0001
1000
0100
0000
0100
0000
1000
0001
0010
0000
,
0010
0000
0001
1000
0010
0000
0010
0000
1000
0010
1000
0000
0001
0100
0001
0000
,
1000
0100
0010
0000
0010
0000
0001
0100
0010
0000
0010
0000
1000
0010
0100
0000
,
0100
0000
0001
0010
0100
0000
0100
0000
1000
0100
1000
0000
0001
0010
0001
0000
,
1000
0010
0100
0000
0100
0000
0001
0010
0100
0000
0100
0000
1000
0010
0100
0000
,
0001
1000
0100
0010
0001
1000
0001
0100
,
0010
1000
0001
1000
0100
1000
0001
0010
,
0100
1000
0100
0010
0001
1000
0001
0010
,
0100
0010
0001
0100
0010
1000
0001
1000
,
0010
0100
0001
0100
0001
1000
0010
1000
,
1001
0000
0000
0110
0000
0000
1001
0000
,
1000
0001
1000
0001
1000
0100
0010
0001
,
0011
0000
0000
1010
0000
0000
1100
0000
,
0001
1000
0001
0100
0010
1000
0100
0010
,
0100
1000
0001
0010
0001
1000
0100
0010
,
0001
1000
0001
0100
0001
1000
0010
1000
,
0001
0010
0100
1000
0001
1000
0100
0010
,
0001
0100
0010
1000
0001
1000
0010
0100
,
1001
0000
0000
0110
0000
0000
1001
0000
,
0001
0100
0001
1000
0100
1000
0010
0100
,
1001
0000
0000
0110
0000
0000
1001
0000
,
0001
0100
0001
1000
0100
1000
0010
0100
,
0220
0000
0330
2002
0000
3003
0220
0000
,
0000
0330
0000
0000
0101
0000
0011
0000
,
2002
0000
3003
0220
0000
0330
2002
0000
,
0000
3003
1000
0000
1010
0000
1001
0000
,
0202
0000
0303
2002
0000
3003
2200
0000
,
0000
3300
0000
0000
0110
0000
1001
0000
,
0202
0000
0303
2200
0000
3300
2002
0000
,
0000
0000
3003
0000
,
0001
0100
0001
1000
0100
0010
0001
0100
,
0010
1000
0001
0010
0100
1000
0001
1000
,
0100
0100
1001
0000
0100
0100
1001
0000
,
0001
0100
0010
1000
0100
1000
1000
1000
,
0001
0100
0010
1000
0100
0010
0001
1000
,
0010
0100
0001
0010
0100
1000
0001
1000
,
0100
0100
1001
0000
0100
0100
1001
0000
,
1000
0010
1000
0100
0010
0001
0001
0001
,
0100
0001
0010
0100
1000
0001
0100
0001
,
1000
0100
0010
0001
0100
0010
1000
0001
,
0100
0100
1100
0000
0010
0010
0101
0000
,
0001
1000
0010
0100
0001
1000
1000
1000
,
0010
1000
0100
0010
0001
0100
0010
1000
,
0001
0010
0100
1000
0001
0100
0010
1000
,
0010
0010
1001
0000
0100
0100
1001
0000
,
0110
0000
1010
0101
,
0001
0100
0010
0000
0010
0000
1000
0100
0010
0000
0010
0000
0001
1000
0100
0000
,
0100
0000
1000
0001
0100
0000
0100
0000
0010
1000
0010
0000
0100
0001
0100
0000
,
0001
0010
0100
0000
0100
0000
1000
0010
0100
0000
0100
0000
0001
0100
0010
0000
,
0010
0000
1000
0100
0010
0000
0010
0000
0001
0010
0001
0000
1000
0100
1000
0000
,
0001
1000
0100
0000
0100
0000
1000
0001
0100
0000
0100
0000
0001
1000
0010
0000
,
0010
0000
1000
0001
0010
0000
0010
0000
0001
1000
0001
0000
1000
0001
1000
0000
,
0001
1000
0100
0000
0100
0000
1000
0001
0100
0000
0100
0000
0001
0010
0100
0000
,
1000
0001
1000
0010
1000
0100
0010
0001
,
1001
0000
0001
0100
0001
0000
1000
0100
,
1000
0000
0001
0010
0001
0000
1000
0010
,
1000
0000
0100
0010
0001
0000
0100
0010
,
1000
0000
0100
0010
0001
0000
1000
0010
,
0100
0000
0001
0010
0100
0000
1000
0001
,
0100
0000
0001
1000
0010
0000
1000
0100
,
0010
0000
0001
1000
0010
0000
0100
0001
,
0010
0000
0100
0000
1000
0001
1000
0001
,
2002
0000
3003
2200
0000
3300
0202
0000
,
0000
0303
0000
0000
0101
0000
1100
0000
,
2020
0000
3030
0022
0000
0033
2002
0000
,
0000
3003
1000
0000
1010
0000
0101
0000
,
0022
0000
0033
2200
0000
3300
2002
0000
,
0000
3003
0000
0000
0110
0000
1001
0000
,
2020
0000
3030
0022
0000
0033
2002
0000
,
0000
0000
3003
0000
,
0001
1000
0100
0010
0001
1000
0001
0100
,
0010
1000
0100
0010
0001
1000
0010
0100
,
0010
0010
1001
0000
0010
0010
1001
0000
,
1000
0010
0100
0001
0010
0001
0001
0001
,
1000
0001
0100
0001
1000
0100
0010
0001
,
0010
0100
1000
0001
0100
0010
1000
0100
,
0010
0010
1001
0000
0010
0010
1001
0000
,
0001
0010
0100
1000
0010
1000
1000
1000
,
0100
1000
0001
0100
0001
1000
0100
0010
,
0001
1000
0010
0100
0001
0010
0100
1000
,
0100
0100
1001
0000
0100
0100
1001
0000
,
1000
0010
0100
0001
1000
0001
0001
0001
,
0010
0001
1000
0100
0010
0100
1000
0001
,
0100
0001
1000
0010
1000
0100
0010
0001
,
0100
0100
1001
0000
0100
0100
1001
0000
,
0001
0010
0100
1000
0010
1000
1000
1000
,
0100
1000
0010
0000
0010
0000
0100
0001
0010
0000
0010
0000
0001
1000
0100
0000
,
0100
0000
1000
0001
0100
0000
0100
0000
0001
1000
0001
0000
1000
0001
1000
0000
,
0001
0010
0100
0000
0100
0000
1000
0010
0100
0000
0100
0000
0001
0100
0010
0000
,
0010
0000
1000
0100
0010
0000
0010
0000
0001
0010
0001
0000
1000
0100
1000
0000
,
0001
1000
0100
0000
0100
0000
1000
0001
0100
0000
0100
0000
0001
1000
0010
0000
,
0010
0000
1000
0001
0010
0000
0010
0000
0001
0100
0001
0000
1000
0010
1000
0000
,
0001
1000
0010
0000
0010
0000
1000
0001
0010
0000
0010
0000
0001
1000
0100
0000
,
0010
0001
1000
0010
0100
0001
0010
0100
,
1001
0000
0000
0000
;

//--------------- dance-single - forcednature ----------------
#NOTES:
     dance-single:
     forcednature:
     Challenge:
     11:
     0,0,0,0,0:
0000
0000
0000
0000
,
1000
0100
0010
0001
1000
0000
0001
0100
0010
1000
0001
0000
1000
0100
0010
0001
,
1000
0000
0100
0010
0100
1000
0001
0000
1000
0010
1000
0001
0010
0001
1000
0100
,
0010
0100
1000
0001
0010
0000
0001
1000
0001
0100
0010
0000
1000
0100
1000
0010
,
0100
0000
0001
0010
0001
0100
0001
0000
1000
0100
0010
0001
1000
0001
0100
0010
,
1000
0001
0100
0001
0010
0000
0100
1000
0010
1000
0001
0000
0010
0001
0100
0010
,
1000
0000
0100
1000
0010
1000
0100
0000
0010
0001
1000
0100
0010
0001
0010
0100
,
1000
0001
0100
0001
1000
0000
0010
1000
0001
0100
0010
0000
1000
0001
0010
0001
,
1000
0100
1000
0001
0100
0001
1000
0100
0010
0100
1000
0001
0010
0100
0010
0001
,
0100
0001
0100
1000
0100
0001
0100
1000
,
0100
0010
0100
1000
0100
0001
0100
0010
,
0100
0001
1000
0100
0010
1000
0010
0001
,
0010
0100
0010
0001
0010
1000
0010
0001
,
2002
0000
0000
0000
3003
0000
0220
0000
0000
0000
0330
0000
2002
0000
0000
3003
,
0001
0100
1000
0100
0001
0010
1000
0010
,
2002
0000
0000
0000
3003
0000
0220
0000
0000
0000
0330
0000
2002
0000
0000
3003
,
1000
0000
0100
0000
1000
0000
0001
0000
0100
0001
1000
0001
0100
0001
1000
0001
,
0100
0000
0010
1000
0001
1000
0100
0010
,
0001
0010
1000
0010
0001
1000
0010
0100
,
0001
0100
1000
0100
0001
1000
0100
0010
,
0100
1000
0001
0010
1000
0010
0001
0100
,
2002
0000
0000
0000
3003
0000
0220
0000
0000
0000
0330
0000
2002
0000
0000
3003
,
1000
0010
1000
0001
0010
0100
1000
0001
,
2002
0000
0000
0000
3003
0000
0220
0000
0000
0000
0330
0000
2002
0000
0000
3003
,
0001
0000
0100
0000
0001
0000
1000
0000
0100
1000
0001
0010
0100
1000
0001
0020
,
0200
0000
0330
2002
0000
3003
0220
0000
,
0000
0330
0000
0000
2020
3030
0202
0303
,
0022
0000
0033
2200
0000
3300
2002
0000
,
0000
3003
0220
0330
2020
3030
0022
0033
,
2002
0000
3003
0220
0000
0330
2002
0000
,
0000
0000
3003
0000
2200
3300
0202
0303
,
2002
0000
3003
0220
0000
0330
2002
3003
,
0100
0000
0100
0000
0000
0000
1001
0000
0000
0000
1000
0000
0001
0100
0001
0100
,
0010
1000
0010
0001
0010
1000
0100
0010
,
0001
1000
0100
0001
0100
0010
0001
1000
,
0010
0100
0001
1000
0100
0001
0100
1000
,
0001
0100
0010
1000
0100
0010
0001
0000
,
1001
0001
0100
1000
0100
0001
1000
0100
,
0010
1000
0010
0001
1000
0010
0100
0001
,
1000
0100
0010
0100
1000
0001
0010
0100
,
0010
0000
0010
0000
0000
0000
1001
0000
0000
0000
0001
0000
1000
0100
1000
0100
,
0010
0001
0010
1000
0010
0001
1000
0001
,
0100
0010
1000
0100
0010
0100
1000
0001
,
0010
0100
1000
0001
0100
0001
1000
0010
,
1000
0001
0100
0010
1000
0100
0010
0001
,
1001
0001
0100
0001
1000
0100
0010
0100
,
1000
0001
0010
1000
0010
0001
0100
0010
,
1000
0001
0100
0010
1000
0100
0010
0000
,
1001
0010
1001
0110
,
1000
0100
0010
0001
1000
0000
0001
0010
0100
1000
0001
0000
1000
0010
0100
0001
,
1000
0000
0001
0100
0010
1000
0001
0000
1000
0100
0010
0100
1000
0001
0010
0100
,
1000
0001
0010
0001
1000
0000
0001
0100
0010
0100
0001
0000
1000
0010
0100
0010
,
1000
0000
0001
0010
0100
0010
0001
0000
1000
0100
0010
0100
1000
0001
0010
0001
,
1000
0001
0100
0010
1000
0000
0001
0100
0010
1000
0001
0000
1000
0010
1000
0001
,
0100
0000
0010
1000
0010
0100
0010
0000
1000
0100
0010
0100
1000
0001
0010
0001
,
1000
0001
0100
0001
1000
0000
0010
1000
0001
0100
0010
0000
1000
0100
0010
0100
,
1000
0001
0100
0001
1000
0001
0100
0001
1000
0010
1000
0001
0100
0001
0010
0100
,
1000
0100
0001
0100
1000
0100
0001
0100
,
1000
0100
0001
0100
1000
0100
0001
0100
,
1000
0010
0001
0010
1000
0010
0001
0010
,
1000
0010
0001
0010
1000
0010
0001
0010
,
1000
0100
1000
0010
1000
0100
1000
0010
,
1000
0100
1000
0010
1000
0100
1000
0010
,
0100
0001
0010
0001
0100
0001
0010
0001
,
0100
0000
0001
0000
0010
0000
0001
0000
0100
0001
0100
0001
1000
0100
1000
0200
,
0020
0000
0330
2002
0000
3003
0220
0000
,
0000
0330
0000
0000
0022
0033
2020
3030
,
2200
0000
3300
0202
0000
0303
2002
0000
,
0000
3003
0202
0303
2002
3003
2200
3300
,
0220
0000
0330
2002
0000
3003
0220
0000
,
0000
0000
0330
0000
2020
3030
0022
0033
,
2002
0000
3003
0220
0000
0330
2002
0000
,
0000
0000
0000
0000
3003
0000
0000
0000
0000
0000
0000
0000
0001
1000
0001
1000
,
0010
1000
0100
0010
0100
1000
0001
0010
,
1000
0010
0001
0100
0010
1000
0100
0001
,
0100
1000
0010
0100
0001
0100
1000
0100
,
0001
0100
1000
0100
0010
1000
0100
0010
,
1001
0001
0100
0001
1000
0100
0010
0100
,
1000
0001
0010
1000
0010
0001
1000
0100
,
0010
0100
1000
0001
0010
0001
1000
0001
,
0100
0000
0010
0000
0000
0000
1001
0000
0000
0000
1000
0000
0001
0100
0001
0100
,
0010
1000
0100
0010
0100
1000
0001
0010
,
0100
1000
0001
0100
0001
1000
0010
1000
,
0100
0001
0100
1000
0100
0001
0100
1000
,
0010
0100
0001
0010
1000
0010
0001
1000
,
1001
1000
0010
1000
0100
0010
0001
0100
,
0001
1000
0010
1000
0100
0010
0100
1000
,
0001
0010
0001
1000
0010
0100
0001
1000
,
1001
0100
0110
1001
,
0001
0100
0001
1000
0010
0000
1000
0100
0010
0100
1000
0000
0001
0010
0001
1000
,
0010
0000
0100
0001
1000
0010
0100
0000
0001
1000
0100
0010
0100
1000
0001
0010
,
0001
1000
0001
0100
0010
0000
1000
0100
1000
0010
0100
0000
0001
1000
0010
1000
,
0001
0000
0100
0010
1000
0100
0010
0000
0100
1000
0001
0010
0001
1000
0001
0100
,
0010
1000
0001
1000
0100
0000
0010
0100
1000
0001
0010
0000
0001
1000
0001
0100
,
0001
0000
1000
0010
1000
0001
1000
0000
0100
1000
0001
0010
0001
1000
0001
0100
,
0010
1000
0100
0010
0100
0000
1000
0001
0010
0001
1000
0000
0001
0100
0001
1000
,
0010
1000
0100
0010
0001
1000
0010
0100
0001
0010
0100
1000
0001
0100
0010
1000
,
0100
0000
0000
0000
;

//--------------- dance-double - forcednature ----------------
#NOTES:
     dance-double:
     forcednature:
     Easy:
     4:
     0,0,0,0,0:
00000000
00000000
00000000
00000000
,
00011000
01000000
00110000
10000000
,
01000000
00010000
00001000
00000010
,
00000101
00001000
00001100
00000001
,
00000010
00001000
00010000
01000000
,
00110000
00100000
10100000
00100000
,
00010000
01000000
00001000
00010000
,
00001100
00000100
00000101
00000100
,
00001000
00000001
00000000
00000100
00000000
00000010
00001000
00000000
,
00000101
00000010
00010000
01000000
,
10010000
01000000
00010000
00000100
,
00001001
00000100
00010000
01000000
,
10010000
01000000
00010000
00000100
,
00002002
00003003
00000000
00000220
00000330
00000000
00002002
00003003
,
00000000
00000000
00010000
00100000
,
20020000
30030000
00000000
02200000
03300000
00000000
20020000
30030000
,
00000000
00000000
00000000
00000000
,
01100000
10000000
00100000
00010000
,
00011000
00001000
00000100
00000001
,
00000110
00001000
00000001
00000010
,
00001001
00000100
00001000
00000001
,
00002002
00003003
00000000
00000220
00000330
00000000
00002002
00003003
,
00000000
00000000
00001000
00010000
,
20020000
30030000
00000000
02200000
03300000
00000000
20020000
30030000
,
00000000
00000000
00000000
00000000
,
02200000
03300000
00000000
02020000
03030000
00000000
02002000
03003000
,
00000000
00000000
00001000
00000010
,
00002002
00003003
00000000
00000220
00000330
00000000
00002002
00003003
,
00000000
00000001
00000010
00000100
,
00000220
00000330
00000000
00022000
00033000
00000000
02200000
03300000
,
00000000
00000000
10000000
00010000
,
20020000
30030000
00000000
00022000
00033000
00000000
00002002
00003003
,
00000000
00000000
00000000
00000000
,
00001001
00000000
00000001
00000100
,
00001000
00010000
00100000
10000000
,
01000000
00100000
00010000
01000000
,
00100000
00100000
00100000
00000000
01000000
00000000
00000000
00000000
,
10010000
00000000
00100000
00010000
,
00001000
00000010
00000100
00001000
,
00010000
01000000
00100000
00010000
,
00000010
00000010
00000010
00000000
00000100
00000000
00000000
00000000
,
00001001
00000000
00000001
00000100
,
00001000
00010000
00100000
10000000
,
01000000
00010000
00100000
01000000
,
00001000
00001000
00001000
00000000
00000010
00000000
00000000
00000000
,
00001001
00000010
00001000
01000000
,
00100000
00010000
00000010
00000100
,
00001000
01000000
00100000
00010000
,
01000000
01000000
01000000
00000000
00100000
00000000
00000000
00000000
,
10000000
01000000
00010000
00000100
,
00000001
00000010
00000100
00000001
,
00001000
00010000
00000100
00010000
,
00100000
01000000
00010000
10000000
,
00100000
01000000
00010000
00001000
,
00000010
00000001
00000100
00000010
,
00001000
00000001
00001000
00010000
,
01000000
00100000
10000000
00010000
,
10010000
10000000
00100000
00010000
,
00001000
00010000
00100000
10000000
,
01000000
00010000
00001000
00000010
,
00000001
00000100
00001000
00010000
,
00001000
00000010
00000001
00000010
,
00001000
00010000
01000000
00010000
,
00001000
00010000
00100000
10000000
,
01000000
00010000
00011000
00000000
,
00002200
00003300
00000000
00022000
00033000
00000000
02020000
03030000
,
00000000
00000000
00100000
00010000
,
00220000
00330000
00000000
00022000
00033000
00000000
00002020
00003030
,
00000000
00000010
00001000
00000100
,
00002020
00003030
00000000
00022000
00033000
00000000
02020000
03030000
,
00000000
00000000
10000000
00010000
,
00220000
00330000
00000000
00022000
00033000
00000000
00002200
00003300
,
00000000
00000000
00000000
00000000
,
00011000
00000000
01000000
00010000
,
00100000
01000000
10000000
00100000
,
00010000
00001000
00000100
00000001
,
00000010
00000010
00000010
00000000
00000100
00000000
00000000
00000000
,
00001001
00000000
00000001
00000010
,
00001000
00010000
00000100
00001000
,
00010000
00100000
00010000
01000000
,
00100000
00100000
00100000
00000000
01000000
00000000
00000000
00000000
,
10010000
00000000
10000000
00100000
,
00010000
00001000
01000000
00010000
,
00001000
00000010
00001000
00000100
,
00000010
00000010
00000010
00000000
00000100
00000000
00000000
00000000
,
00001001
00000000
00000010
00000001
,
00000100
00000010
00010000
00001000
,
00100000
00010000
01000000
00100000
,
01000000
01000000
01000000
00000000
00100000
00000000
00000000
00000000
,
10000000
00010000
01000000
00001000
,
00010000
00000100
00000010
00010000
,
00001000
00100000
00010000
00000100
,
00001000
01000000
10000000
00100000
,
00010000
00001000
00000010
00000001
,
00000001
00000100
00001000
00010000
,
00100000
10000000
10000000
01000000
,
00010000
00001000
00000010
00001000
,
00011000
00000000
00000000
00000000
;

//--------------- dance-double - forcednature ----------------
#NOTES:
     dance-double:
     forcednature:
     Medium:
     7:
     0,0,0,0,0:
00000000
00000000
00000000
00000000
,
00010000
00001000
01000000
00000000
00010000
00100000
01000000
00000000
,
10000000
00100000
10000000
10000000
01000000
00010000
00001000
00000000
,
00000010
00000001
00000100
00000000
00000001
00000100
00000010
00000000
,
00000001
00000010
00000100
00000100
00001000
00010000
00100000
00000000
,
01000000
00010000
10000000
00000000
01000000
10000000
00010000
00000000
,
10000000
01000000
00010000
00010000
00001000
00000010
00000001
00000000
,
00000001
00000100
00001000
00000000
00010000
01000000
10000000
00000000
,
00100000
01000000
00000000
00011000
00000000
00000010
00000100
00000000
,
00000001
00000100
00001000
00000000
00000100
00000000
00000010
00000000
,
00010000
00001000
00100000
00000000
00010000
00000000
10000000
00000000
,
00100000
01000000
00001000
00000000
00010000
00000100
00000010
00000000
,
00000001
00000000
00001000
00000000
00000001
00000100
00000001
00000000
,
00000220
00000000
00000330
00002002
00000000
00003003
00000220
00000330
,
00000001
00000010
00001000
00000000
00010000
01000000
10000000
00000000
,
20020000
00000000
30030000
02200000
00000000
03300000
20020000
30030000
,
10000000
00100000
00010000
00000000
00001000
00000100
00000001
00000000
,
00001001
00000000
00000001
00000100
00000001
00000010
00001000
00000000
,
00001001
00000000
00000001
00000010
00000100
00001000
00010000
00000000
,
00011000
00000000
00010000
00001000
00100000
00010000
01000000
00000000
,
10010000
00000000
01000000
00100000
10000000
01000000
00100000
00000000
,
20020000
00000000
30030000
02200000
00000000
03300000
20020000
30030000
,
10000000
00100000
00010000
00000000
00001000
00000100
00000001
00000000
,
00002002
00000000
00003003
00000220
00000000
00000330
00002002
00003003
,
00000001
00000010
00001000
00000000
00010000
01000000
10000000
00000000
,
20020000
00000000
30030000
02200000
00000000
03300000
20020000
00000000
,
30030000
00000000
01001000
00010100
,
00002002
00000000
00003003
00000220
00000000
00000330
00002002
00000000
,
00003003
00000101
00001010
00011000
,
00202000
00000000
00303000
02020000
00000000
03030000
00202000
00000000
,
00303000
00000000
10100000
01010000
,
22000000
00000000
33000000
00220000
00000000
00330000
22000000
33000000
,
00010000
00100000
00000000
00011000
00000000
00000010
00001000
00000000
,
00001001
00000000
00000001
00000100
00001000
00000100
00000010
00000000
,
00011000
00000000
00100000
00010000
00100000
10000000
00100000
00000000
,
10010000
00000000
10000000
01000000
00010000
00001000
00000010
00000000
,
00000100
00001001
00000010
00001001
,
00000110
00000000
00000001
00000010
00001000
00010000
01000000
00000000
,
00110000
00000000
10000000
01000000
00010000
00001000
00100000
00000000
,
01010000
00000000
01000000
00010000
00001000
00000000
00001100
00000000
,
00001000
00000010
00000000
00000101
00000000
00000010
00001000
00000000
,
00001001
00000000
00000001
00000010
00000100
00010000
00001000
00000000
,
01010000
00000000
10000000
01000000
00100000
10000000
00100000
00000000
,
10010000
00000000
00100000
01000000
00001000
00010000
00100000
00000000
,
00011000
00000100
00011000
01000000
,
00011000
00000000
00000010
00001000
00000001
00000100
00000010
00000000
,
00001001
00000000
00000001
00000010
00001000
00010000
00000010
00000000
,
00001000
00000100
00010000
00000000
00001000
00010000
01000000
00000000
,
00110000
01000000
10100000
00110000
,
10000000
00100000
00010000
00000000
01000000
00100000
00010000
00000000
,
10000000
01000000
01000000
00010000
00001000
00000010
00000100
00000000
,
00000001
00000100
00001000
00000000
00000001
00000010
00001000
00000000
,
00000001
00000100
00000100
00000010
00001000
00010000
01000000
00000000
,
00100000
10000000
00010000
00000000
00100000
00010000
10000000
00000000
,
10000000
01000000
01000000
00010000
00001000
00000010
00000001
00000000
,
00000001
00000100
00001000
00000000
00000001
00000010
00001000
00000000
,
00000001
00000100
00000000
00011000
00000000
01000000
10000000
00000000
,
00100000
10000000
01000000
00000000
00100000
00000000
00010000
00000000
,
01000000
00010000
00001000
00000000
00000010
00000000
00000001
00000000
,
00000100
00001000
00010000
00000000
00100000
00000000
10000000
00000000
,
01000000
00010000
00001000
00000000
00000010
00000000
00000001
00000000
,
00001001
00000000
00000010
00000100
00010000
00000000
00011000
00000000
,
00100000
00001000
01000000
00000000
00010000
00100000
00001000
00000000
,
00011000
00000000
00010000
00000010
00001000
00000000
00000001
00000000
,
00000100
00000010
00001000
00000000
00000100
00000010
00000001
00000000
,
00002002
00000000
00003003
00000220
00000000
00000330
00002002
00000000
,
00003003
00000000
00000101
00001100
,
02020000
00000000
03030000
20200000
00000000
30300000
02020000
00000000
,
03030000
11000000
00110000
00001100
,
00000022
00000000
00000033
00002002
00000000
00003003
00000022
00000000
,
00000033
00000000
00000101
00001010
,
02020000
00000000
03030000
20200000
00000000
30300000
20020000
30030000
,
10000000
00010000
00000000
00011000
00000000
00001000
00000001
00000000
,
00001001
00000000
00000001
00000100
00001000
00000100
00000010
00000000
,
00011000
00000000
00100000
00010000
00100000
10000000
00100000
00000000
,
01000000
00010000
01000000
00000000
01000000
10000000
01000000
00000000
,
00100000
00010000
00001000
00000010
00000001
00000100
00001000
00000000
,
00001001
00000000
00000001
00000010
00001000
00010000
01000000
00000000
,
00110000
00000000
10000000
01000000
00010000
00001000
00100000
00000000
,
00010000
01000000
10000000
00000000
10000000
01000000
00010000
00000000
,
00100000
10010000
00000010
00001001
,
00000101
00000000
00000001
00000010
00001000
00010000
01000000
00000000
,
01100000
00000000
10000000
01000000
00010000
00000100
00000010
00000000
,
00001001
00000100
00001001
00000010
,
00000001
00000100
00001000
00000000
00010000
00100000
10000000
00000000
,
00011000
00000000
00010000
01000000
10000000
01000000
00010000
00000000
,
00011000
00000000
00000010
00001000
00000001
00000010
00001000
00000000
,
00000010
00001001
00000100
00001001
,
00000101
00000010
00001100
00011000
,
00010000
00001000
01000000
00000000
00010000
00100000
10000000
00000000
,
01000000
00010000
00001000
00000010
00000001
00000100
00001000
00000000
,
00000001
00000010
00001000
00000000
00010000
00100000
10000000
00000000
,
10000000
01000000
00010000
00001000
00000010
00000001
00000100
00000000
,
00000001
00000010
00000100
00000000
10000000
01000000
00100000
00000000
,
10000000
00100000
00010000
10000000
01000000
00010000
00001000
00000000
,
00000010
00001000
00000100
00000000
00000010
00000001
00000100
00000000
,
00000001
00000010
00000000
00011000
00000000
00100000
10000000
00010000
,
01000000
00000000
00000000
00000000
;

//--------------- dance-double - forcednature ----------------
#NOTES:
     dance-double:
     forcednature:
     Hard:
     9:
     0,0,0,0,0:
00000000
00000000
00000000
00000000
,
00001000
00010000
00010000
00000010
00001000
00001000
00000001
00000010
,
00000010
00000100
00010000
00010000
00001000
00100000
00010000
01000000
,
00100000
10000000
10000000
01000000
00100000
00100000
00010000
01000000
,
01000000
00001000
00010000
00010000
00000100
00001000
00000001
00000100
,
00000010
00001000
00001000
00000100
00010000
00010000
00001000
01000000
,
01000000
00010000
00100000
00100000
01000000
10000000
00010000
01000000
,
00001000
00010000
00010000
00000010
00001000
00001000
00000001
00000010
,
00000100
00010000
00001000
00010000
01000000
00100000
00010000
01000000
,
00100000
00000000
01000000
00001000
00010000
00000100
00000010
00000001
,
00000100
00000010
00010000
00001000
00010000
00100000
00010000
00001000
,
00010000
01000000
00010000
00001000
00100000
00010000
10000000
01000000
,
00010000
00001000
00000010
00000001
00000100
00001000
00010000
00100000
,
00022000
00000000
00033000
02020000
00000000
03030000
20200000
00000000
,
00000000
30300000
00000000
00000000
10000000
01000000
00010000
00001000
,
00022000
00000000
00033000
00002020
00000000
00003030
00000022
00000000
,
00000000
00000033
00000000
00000000
00000000
00000000
00000000
00000000
,
00001001
00000000
00000001
00000100
00000010
00010000
00100000
01000000
,
00010000
00100000
10000000
00100000
00010000
01000000
00001000
00010000
,
00001000
00000100
00001000
00010000
00000010
00001000
00000001
00000010
,
00001000
00000010
00000001
00000100
00010000
00000100
00000010
00010000
,
00022000
00000000
00033000
02020000
00000000
03030000
00002200
00000000
,
00003300
00000000
00000000
00000000
00000001
00000010
00001000
00010000
,
00022000
00000000
00033000
00002200
00000000
00003300
02020000
00000000
,
03030000
00000000
00000000
00000000
,
00022000
00000000
00033000
00220000
00000000
00330000
22000000
00000000
,
00000000
33000000
00000000
00000000
10100000
00000000
01010000
00000000
,
00022000
00000000
00033000
00002200
00000000
00003300
00000022
00000000
,
00000000
00000033
00000101
00000000
00001010
00000000
00000110
00000000
,
00020020
00000000
00030030
00022000
00000000
00033000
00202000
00000000
,
00000000
00303000
00000000
00000000
10010000
00000000
01100000
00000000
,
22000000
00000000
00000000
00000000
33000000
00000000
00220000
00000000
00000000
00000000
00330000
00000000
00022000
00000000
00000000
00033000
,
00010000
00001000
00000000
00011000
00000000
00001000
00010000
00000000
,
00022000
00000000
00000000
00033000
,
00001000
00010000
01000000
10000000
00100000
00010000
00001000
00000100
,
00000001
00000010
00001000
00000010
00010000
00100000
00010000
01000000
,
00010000
00000100
00001000
00000100
00000010
00001000
00000001
00000000
,
00002002
00000000
00000000
00003003
,
00000001
00000010
00000100
00001000
00000010
00000100
00001000
00010000
,
00000100
00001000
00010000
00100000
00001000
00010000
00100000
01000000
,
00010000
00100000
01000000
10000000
00100000
01000000
10000000
00000000
,
20020000
00000000
00000000
30030000
,
10000000
00010000
01000000
00010000
00001000
00000010
00000001
00000010
,
00001000
00010000
01000000
00100000
00010000
00001000
00000100
00001000
,
00010000
01000000
00100000
00010000
10000000
01000000
00010000
00000000
,
00022000
00000000
00000000
00033000
,
00000100
00001000
00000001
00000010
00001000
00010000
01000000
00100000
,
00010000
01000000
10000000
01000000
00010000
00001000
00000010
00000100
,
00000001
00000100
00001000
00010000
00000010
00001000
00000100
00000000
,
00010000
00001000
00001000
00100000
01000000
01000000
10000000
00010000
,
00010000
01000000
00001000
00001000
00010000
00000100
00001000
00000010
,
00000100
00000001
00000001
00000010
00000100
00000100
00001000
00000010
,
00000010
00010000
00001000
00001000
00100000
00010000
10000000
00100000
,
01000000
00010000
00010000
00100000
01000000
01000000
10000000
00010000
,
00010000
01000000
00001000
00001000
00010000
00000100
00001000
00000100
,
00000010
00000001
00000001
00001000
00000010
00000010
00001000
00000100
,
00010000
00001000
00010000
01000000
00010000
00001000
00100000
00010000
,
10010000
00000000
10000000
01000000
00001000
00000000
10000000
00100000
,
00001000
00000000
10000000
01000000
00001000
00000000
10000000
00100000
,
00001000
00000000
00010000
00000100
00000001
00000000
00010000
00000010
,
00000001
00000000
00010000
00000100
00000001
00000000
00010000
00000010
,
00000001
00000000
00000001
00000100
00010000
00000000
00000001
00000010
,
00010000
00000000
00000001
00000100
00010000
00000000
00000001
00000010
,
00010000
00000000
00001000
01000000
10000000
00000000
00001000
00100000
,
10000000
00000000
00001000
01000000
10000000
00000000
00001000
00000000
,
20020000
00000000
30030000
00022000
00000000
00033000
00002002
00000000
,
00000000
00003003
00000000
00000000
00000101
00000000
00001100
00000000
,
00022000
00000000
00033000
02020000
00000000
03030000
22000000
00000000
,
00000000
33000000
10100000
00000000
00110000
00000000
00011000
00000000
,
00002020
00000000
00003030
00000022
00000000
00000033
00000202
00000000
,
00000000
00000303
00000000
00000000
00001100
00000000
00011000
00000000
,
02020000
00000000
00000000
00000000
03030000
00000000
00220000
00000000
00000000
00000000
00330000
00000000
00022000
00000000
00000000
00033000
,
00001000
00010000
00000000
00011000
00000000
00001000
00010000
00000000
,
00022000
00000000
00000000
00033000
,
00001000
00010000
01000000
10000000
00100000
00010000
00001000
01000000
,
00010000
00001000
00000010
00001000
00000100
00010000
01000000
00010000
,
00001000
00000010
00000001
00000100
00001000
00010000
00100000
00000000
,
00022000
00000000
00000000
00033000
,
00010000
00001000
00000010
00000001
00000100
00001000
00000001
00000010
,
00001000
00010000
01000000
00100000
00010000
00001000
01000000
00010000
,
00100000
10000000
00100000
00010000
00001000
00000100
00000001
00000000
,
00022000
00000000
00000000
00033000
,
00001000
00010000
01000000
00001000
00000100
00000010
00000001
00001000
,
00000100
00010000
00100000
00010000
00001000
00000010
00001000
00010000
,
00000001
00000010
00001000
00010000
01000000
00100000
10000000
00000000
,
00022000
00000000
00000000
00033000
,
00001000
00010000
01000000
00100000
00010000
00000010
00000100
00010000
,
00000001
00001000
00000100
00010000
01000000
00100000
00010000
01000000
,
10000000
00010000
00001000
00000100
00001000
00010000
00100000
00000000
,
10000000
01000000
01000000
00010000
00001000
00001000
00000010
00000001
,
00000001
00000100
00001000
00001000
00010000
00100000
10000000
00100000
,
01000000
00001000
00001000
00010000
00000100
00000100
01000000
00001000
,
00001000
00010000
00000010
00000010
00001000
00000100
00010000
01000000
,
00100000
00001000
00001000
01000000
00010000
00010000
10000000
01000000
,
01000000
00100000
00001000
00001000
00010000
00000100
00000010
00000100
,
00001000
00000001
00000001
00000100
00000001
00000001
00000010
00000001
,
00001000
00000010
00010000
00001000
00010000
01000000
00100000
00001000
,
01000000
00000000
00000000
00000000
;

//--------------- dance-double - forcednature ----------------
#NOTES:
     dance-double:
     forcednature:
     Challenge:
     11:
     0,0,0,0,0:
00000000
00000000
00000000
00000000
,
00001000
00010000
00001000
01000000
00001000
00000000
00100000
00010000
00100000
01000000
00100000
00000000
00010000
10000000
01000000
10000000
,
00100000
00000000
10000000
00010000
00100000
00010000
01000000
00000000
00001000
00010000
00000100
00010000
00000100
00001000
00000100
00000010
,
00000001
00000010
00000001
00000100
00000001
00000000
00001000
00000001
00001000
00000100
00001000
00000000
00000010
00010000
00000010
00000100
,
00000010
00000000
00010000
00001000
00010000
00000100
00010000
00000000
00001000
01000000
00001000
00100000
00010000
01000000
00010000
10000000
,
01000000
10000000
00010000
10000000
00100000
00000000
10000000
01000000
00100000
01000000
10000000
00000000
00010000
01000000
00100000
01000000
,
00001000
00000000
00010000
00000100
00001000
00000100
00000010
00000000
00000001
00000100
00000001
00001000
00000001
00000010
00000100
00000010
,
00000100
00010000
00000100
00001000
00000100
00000000
00010000
00001000
00010000
00000100
00010000
00000000
00001000
01000000
00001000
00100000
,
00010000
00100000
01000000
00100000
01000000
10000000
00010000
10000000
00100000
10000000
00100000
01000000
00010000
01000000
00001000
01000000
,
00001000
00000000
00010000
00000100
00001000
00000010
00000001
00000010
,
00000000
00000000
00001000
00000100
00000010
00000001
00000100
00001000
,
00000000
00001100
00000000
00011000
00000000
01010000
00000000
10010000
,
00000000
00000000
00000000
00000000
10000000
01000000
00100000
00001000
,
02000000
00000000
00000000
10000000
00000000
00000000
00002000
00000000
,
00000000
00000000
03003000
00000000
01000000
00001000
00010000
00000100
,
00002000
00000000
00000000
01000000
00000000
00000000
00000200
00003300
,
00001000
00000100
00010000
00001000
01000000
00010000
10000000
00100000
,
10000000
00000000
00010000
00000000
00100000
10000000
00100000
00010000
,
00000000
10000000
01000000
00010000
00001000
00000010
00000001
00000100
,
00000000
00000101
00000000
00001100
00000000
00001010
00000000
00000011
,
00000000
00001001
00000000
00000000
00000001
00000100
00001000
00010000
,
00200000
00000000
00000000
00001000
00000000
00000000
20000000
00000000
,
00000000
00000000
30300000
00000000
10000000
01000000
00010000
00001000
,
00000020
00000000
00000000
00010000
00000000
00000000
00000002
00000033
,
00000001
00000000
00000100
00000000
00000001
00000000
00001000
00000000
00000100
00000010
00000100
00000010
00000100
00001000
00000100
00001000
,
00000200
00000000
00000000
00020000
00000000
00000300
02000000
00000000
,
00000000
03030000
00000000
00000000
10100000
00000000
00110000
00000000
,
02000000
00000000
00000000
00002000
00000000
03000000
00000200
00000000
,
00000000
00003300
00001010
00000000
00000011
00000000
00000101
00000000
,
00001200
00000000
00000000
00002000
00000000
00000300
02000000
00000000
,
00000000
03003000
00000000
00000000
10100000
00000000
00110000
00000000
,
02010000
00000000
00000000
00002000
00000000
03000000
00000200
00003300
,
00001000
00000000
00001000
00000000
00000000
00000000
00011000
00000000
00000000
00000000
00100000
00000000
00010000
01000000
00010000
01000000
,
00100000
00000000
10000000
01000000
00010000
01000000
10000000
00100000
,
01000000
00010000
01000000
00001000
00010000
00000100
00001000
00000100
,
00000010
00000100
00010000
00000001
00000010
00000100
00001000
00000001
,
00000100
00000001
00001000
00000010
00010000
00001000
00100000
00000000
,
10010000
00000000
00010000
01000000
00010000
10000000
01000000
00010000
,
00001000
00000010
00000001
00000100
00000010
00001000
00000001
00000010
,
00000100
00010000
00000010
00010000
00000100
00000010
00000001
00001000
,
00000010
00001000
00010000
01000000
,
10010000
00000000
10000000
01000000
10000000
00100000
00010000
00001000
,
00000100
00000001
00000100
00000010
00001000
00000100
00000010
00000001
,
00000100
00010000
00001000
00100000
10000000
00010000
10000000
01000000
,
00100000
00001000
00010000
00000010
00000100
00010000
00000100
00000000
,
00001001
00000000
00000001
00000100
00000010
00010000
00100000
10000000
,
01000000
00100000
00010000
10000000
01000000
00010000
10000000
00100000
,
00010000
00001000
00000100
00000001
00001000
00000010
00000001
00000000
,
00001001
00000010
00011000
01010000
,
10000000
01000000
00100000
01000000
10000000
00000000
00010000
01000000
00100000
01000000
00001000
00000000
00010000
00000100
00001000
00000100
,
00000010
00000000
00000001
00000100
00000001
00000100
00000010
00000000
00001000
00000010
00001000
00000001
00001000
00000100
00010000
00000100
,
00010000
00001000
01000000
00010000
00100000
00000000
00001000
00100000
01000000
10000000
00010000
00000000
01000000
00010000
01000000
00001000
,
01000000
00000000
00010000
10000000
00010000
01000000
00010000
00000000
00100000
00010000
00100000
00001000
00010000
00001000
00010000
00000010
,
00001000
00000010
00001000
00000100
00000010
00000000
00000001
00000100
00000010
00000100
00000001
00000000
00010000
00001000
01000000
00001000
,
00100000
00000000
00010000
00100000
01000000
00100000
00010000
00000000
10000000
00100000
10000000
00010000
01000000
00010000
00100000
00010000
,
01000000
00001000
00010000
00001000
00100000
00000000
00001000
00010000
00000010
00010000
00001000
00000000
00010000
00000100
00001000
00000100
,
00000010
00000100
00001000
00000001
00000100
00000001
00001000
00000010
00001000
00000001
00001000
00000100
00010000
00000100
00010000
00001000
,
01000000
00000000
00010000
00100000
01000000
00000000
10000000
01000000
,
00100000
00000000
00010000
01000000
00001000
00000000
00010000
00000010
,
00001000
00000000
00000001
00000010
00000100
00000000
00001000
00000001
,
00000100
00000000
00000010
00010000
00001000
00000000
00100000
00010000
,
01000000
00000000
00000000
01100000
00000000
00000000
10010000
00000000
,
10000000
01000000
00010000
00001000
00000010
00000001
00001000
00000000
,
00001001
00000000
00000100
00000001
00000010
00000000
00000100
00001000
,
00000010
00000000
00010000
00001000
00100000
00010000
01000000
00000000
,
10020000
00000000
00000000
00000200
00000000
00030000
00000020
00000000
,
00000000
00000330
00000000
00000000
00000101
00000000
00001100
00000000
,
00002001
00000000
00000000
02000000
00000000
00003000
20000000
00000000
,
00000000
33000000
10100000
00000000
10010000
00000000
00110000
00000000
,
10020000
00000000
00000000
00000200
00000000
00030000
00000002
00000000
,
00000000
00000303
00000000
00000000
00000101
00000000
00001100
00000000
,
00002001
00000000
00000000
02000000
00000000
00003000
20000000
33000000
,
10000000
00000000
10000000
00000000
00000000
00000000
10010000
00000000
00000000
00000000
00010000
00000000
01000000
00001000
01000000
00001000
,
01000000
00000000
00000010
00010000
00000001
00001000
00000010
00010000
,
00001000
00100000
00010000
00100000
10000000
00100000
00010000
10000000
,
01000000
00010000
01000000
10000000
00100000
01000000
00001000
00010000
,
00000010
00000100
00000001
00001000
00000100
00000010
00000001
00000000
,
00001001
00000000
00000001
00000100
00000010
00010000
00001000
00100000
,
01000000
10000000
00010000
01000000
00001000
00010000
00000100
00001000
,
00000100
00000010
00000100
00001000
00000001
00000100
00000001
00001000
,
00000010
00010000
00001000
01000000
00010000
00100000
01000000
00000000
,
10010000
00000000
10000000
00100000
10000000
01000000
00010000
00001000
,
00000010
00000001
00000100
00000010
00001000
00000001
00000100
00001000
,
00010000
00100000
10000000
00010000
10000000
01000000
00100000
01000000
,
10000000
00010000
00100000
00001000
00010000
00000010
00001000
00000000
,
00001001
00000000
00000001
00000100
00000001
00000010
00000100
00010000
,
00001000
00100000
01000000
10000000
00010000
01000000
00001000
00010000
,
00000100
00001000
00000100
00000010
00000100
00010000
00001000
00000000
,
00011000
01010000
00011000
00001100
,
00010000
00001000
01000000
00010000
00100000
00000000
00010000
10000000
00100000
01000000
00001000
00000000
00100000
00010000
00100000
01000000
,
10000000
00000000
00010000
00100000
00010000
01000000
00001000
00000000
00010000
00001000
00010000
00000100
00001000
00000010
00010000
00000100
,
00000010
00000001
00001000
00000001
00000100
00000000
00000010
00001000
00000100
00010000
00001000
00000000
01000000
00001000
00100000
01000000
,
10000000
00000000
00010000
01000000
00001000
00010000
00000010
00000000
00001000
00000001
00000010
00000100
00001000
00000001
00000010
00000100
,
00010000
00000010
00000100
00000001
00001000
00000000
00000100
00010000
00001000
00100000
00010000
00000000
10000000
00100000
10000000
00010000
,
00100000
00000000
01000000
00100000
00001000
00100000
00010000
00000000
10000000
00010000
01000000
00001000
00010000
00000100
00001000
00000001
,
00000100
00000001
00001000
00000100
00010000
00000000
00001000
01000000
00001000
00100000
00010000
00000000
10000000
00100000
10000000
00010000
,
10000000
01000000
00100000
00001000
00010000
00000010
00000100
00000001
00000010
00000100
00010000
00000010
00000100
00000001
00000010
00000100
,
00010000
00000000
00000000
00000000
;
