#VERSION:0.83;
#TITLE:Dr.;
#SUBTITLE:;
#ARTIST:安室奈美恵;
#TITLETRANSLIT:;
#SUBTITLETRANSLIT:;
#ARTISTTRANSLIT:Amuro Namie;
#GENRE:;
#ORIGIN:;
#CREDIT:;
#BANNER:[Your Name] - Dr-bn.png;
#BACKGROUND:[Your Name] - Dr-bg.png;
#PREVIEWVID:;
#JACKET:[Your Name] - Dr-jacket.png;
#CDIMAGE:;
#DISCIMAGE:;
#LYRICSPATH:;
#CDTITLE:;
#MUSIC:[Your Name] - Dr.mp3;
#OFFSET:-8.553000;
#SAMPLESTART:101.526993;
#SAMPLELENGTH:13.521000;
#SELECTABLE:YES;
#BPMS:0.000=142.000,
124.000=71.000,
140.000=142.000,
268.000=71.000,
279.000=142.000;
#STOPS:;
#DELAYS:;
#WARPS:;
#TIMESIGNATURES:0.000=4=4;
#TICKCOUNTS:0.000=4;
#COMBOS:0.000=1;
#SPEEDS:0.000=1.000=0.000=0;
#SCROLLS:0.000=1.000;
#FAKES:;
#LABELS:0.000=Song Start;
#BGCHANGES:;
#KEYSOUNDS:;
#ATTACKS:
;

//---------------dance-single - ----------------
#NOTEDATA:;
#CHARTNAME:;
#STEPSTYPE:dance-single;
#DESCRIPTION:;
#CHARTSTYLE:;
#DIFFICULTY:Hard;
#METER:9;
#RADARVALUES:0.542382,0.672546,0.370578,0.279681,0.227241,543.000000,490.000000,53.000000,40.000000,0.000000,0.000000,0.000000,0.000000,0.000000,0.542382,0.672546,0.370578,0.279681,0.227241,543.000000,490.000000,53.000000,40.000000,0.000000,0.000000,0.000000,0.000000,0.000000;
#CREDIT:;
#NOTES:
0000
0000
0002
2003
,
3010
0010
1000
1001
,
0100
0100
0001
1001
,
0010
0010
1000
1001
,
1000
0001
0010
0100
1000
0010
0100
0001
,
0100
0100
0010
1010
,
0001
0001
1000
1010
,
0100
0100
0001
1001
,
0001
1000
0100
0010
0001
0100
0010
1000
,
0001
0000
1000
0100
0010
0100
1000
0002
,
0000
0013
0100
1000
0001
0100
0010
1000
,
0001
0100
0110
0000
1000
0010
0110
0000
,
0001
0010
1000
0010
0001
0100
1000
0100
,
0001
0000
0001
0010
0100
0010
0001
2000
,
0000
3002
0000
0013
1000
0001
0100
1000
,
0001
0100
0110
0000
1000
0010
0110
0000
,
0001
0100
1000
0100
0001
0010
1000
0010
,
0001
0000
1000
0100
0010
0100
1000
0002
,
0000
0203
0000
0310
1000
0001
0010
0100
,
1000
0001
0110
0000
0001
1000
0110
0000
,
0001
1000
0010
0001
1000
0100
0001
0100
,
1000
0000
0001
0010
0100
0010
0001
2000
,
0000
3020
0000
0130
0001
0100
0010
1000
,
0001
0100
0110
0000
1000
0010
0110
0000
,
0001
0000
0100
0000
1000
0000
0100
0000
0001
0010
0001
0010
0100
1000
0100
1000
,
0001
0000
0000
1000
0010
0100
0101
0000
0000
0001
0100
0000
,
0101
0000
0000
1010
0000
0000
0101
0000
0000
0001
0100
0010
,
1010
0000
0000
0010
0100
0001
0101
0000
0000
0110
0000
0000
,
1010
0000
0000
1000
0100
0010
0011
0000
0000
0001
0100
0000
,
0101
0000
0000
1100
0000
0000
0011
0000
0000
1100
0000
0001
,
0011
0000
0000
1000
0100
0000
0011
0000
0000
1010
0000
0000
,
0001
0000
0001
0020
0000
0032
0000
1003
0010
0100
0001
0000
0001
0100
0001
1000
,
0100
0000
1000
0200
0000
1300
0001
0010
0100
0010
0001
0100
0010
1000
0001
0000
,
0000
0000
0010
0000
0100
0000
0001
0000
0010
0000
0000
0010
0000
0000
0020
0000
0000
0000
0130
0000
1000
0000
0001
0000
0010
0000
0000
0010
0000
0000
0020
0000
,
0000
0130
1000
0001
0010
0100
1000
0010
0100
0001
1000
0001
0100
0010
1000
0000
,
0001
0000
0001
1000
2010
0000
3001
0000
,
0012
1003
2010
3001
,
0102
1003
2100
3001
,
1000
0001
0010
0100
1000
0010
0100
0001
,
1000
1000
0012
0103
,
2010
0000
3100
0000
0012
0000
0103
0010
,
2000
3001
0002
0100
,
1003
0001
0010
0001
1000
0010
0100
0001
,
1000
0000
0001
0100
1000
0000
0001
0100
,
1000
0100
0001
0010
0110
0100
1000
0000
,
1010
0000
1000
0010
0001
0000
1000
0010
,
0001
0010
1000
0100
0110
0010
0001
0000
,
0011
0000
0001
0010
1000
0000
0001
0010
,
1000
0010
0001
0010
0110
0100
1000
0000
,
1000
0010
0100
0001
0101
0001
0100
0010
,
1010
0000
0010
0000
0100
0000
0001
0000
1000
0100
1000
0100
0010
0001
0010
0001
,
1000
0001
0010
0200
0010
0302
0010
1003
,
1000
0001
0010
1000
0001
0100
1000
0001
,
0010
0100
1000
0200
0010
0302
0010
0013
,
1000
0010
0001
0010
1000
0010
0001
1000
,
0010
0100
0001
0101
0000
0100
0010
1000
,
0010
1010
0000
0001
0010
0100
2000
0000
,
3001
0100
0101
0000
1000
0010
1010
0000
,
0101
0000
0010
0000
0100
0000
1000
0000
0100
0000
0010
0100
0001
0000
1000
0000
,
0001
1000
0100
0020
0100
2030
0010
3001
,
0001
1000
0010
0001
1000
0100
0001
1000
,
0100
0010
0001
0020
0100
2030
0010
3010
,
0001
0010
1000
0010
0001
0010
1000
0001
,
0102
0000
1003
0010
0200
0000
0301
0000
,
2010
0000
3001
0010
0200
0000
1300
0001
,
1000
0000
0000
1000
0100
0000
0010
0100
0010
0000
0001
0000
0002
0000
0100
0000
,
1003
0000
1000
0000
0010
0000
0010
0000
1000
0010
1000
0010
0100
0001
0100
0001
,
0100
0000
0000
0001
0001
0000
0000
1000
1000
0000
0000
0010
0010
0000
0000
0100
,
0100
0000
0000
0001
0001
0000
0000
1000
1000
0000
0000
0010
0010
0000
0000
0100
,
0100
0000
0000
0001
0001
0000
0000
1000
1000
0000
0000
0001
0202
0000
0000
0000
,
0000
0000
0000
0000
,
0000
0303
0000
0000
;

//---------------dance-single - ----------------
#NOTEDATA:;
#CHARTNAME:;
#STEPSTYPE:dance-single;
#DESCRIPTION:;
#CHARTSTYLE:;
#DIFFICULTY:Medium;
#METER:7;
#RADARVALUES:0.392552,0.414540,0.426514,0.237729,0.017480,393.000000,332.000000,61.000000,34.000000,0.000000,0.000000,0.000000,0.000000,0.000000,0.392552,0.414540,0.426514,0.237729,0.017480,393.000000,332.000000,61.000000,34.000000,0.000000,0.000000,0.000000,0.000000,0.000000;
#CREDIT:;
#NOTES:
0000
0000
0000
0000
,
0010
0000
1000
1001
,
0100
0000
0001
1001
,
0010
0000
1000
1001
,
0001
0100
0001
0000
1000
0010
1000
0000
,
1010
0000
0100
0110
,
0010
0000
0010
1010
,
1000
0000
0001
1001
,
0001
1000
0001
0000
1000
0010
1000
0000
,
0000
0000
1000
0100
0010
0000
0001
2000
,
0000
3010
0000
0100
0001
0100
0010
0000
,
1100
0110
1100
0110
,
0001
0010
1000
0000
0001
0100
1000
0000
,
0000
0000
0001
0010
0100
0000
0001
2000
,
0000
3001
0000
1000
0100
1000
0010
0000
,
0110
0011
0110
0011
,
0001
0010
1000
0000
0001
0100
1000
0000
,
0000
0000
1000
0100
0010
0000
0001
2000
,
0000
3100
0000
0010
0001
0010
0100
0000
,
1100
0110
0011
0110
,
1000
0010
0001
0000
1000
0100
0001
0000
,
0000
0000
0001
0010
0100
0000
1000
0002
,
0000
0013
0000
1000
0001
1000
0001
0000
,
1001
0110
1001
0110
,
0101
1010
0102
2003
,
3001
0001
1001
0001
,
1001
1001
0101
0100
,
0101
0100
0101
0101
,
1010
0010
1010
0010
,
1010
1010
0101
0001
,
0101
0001
0101
0101
,
0001
0000
0100
0000
0010
0000
0000
0000
1000
0010
1000
0000
0010
0000
0000
0000
,
1000
0000
0010
0000
0100
0000
0000
0000
0001
0100
0001
0000
0100
0000
0110
0000
,
0000
0001
0001
0000
0000
1000
1000
0000
,
0000
0100
0010
0000
0001
0000
1000
0000
0001
1000
0001
0000
1000
0001
1000
0000
,
0001
0001
2000
3010
,
0002
0013
0200
0310
,
0020
0130
0200
0301
,
0001
1000
0100
0000
0010
0001
1000
0000
,
0001
0001
2000
3010
,
0002
0013
2000
3100
,
0200
0310
0020
0031
,
0001
1000
0100
0000
0010
0001
1000
0000
,
1010
0000
1000
0010
0001
0000
0001
0010
,
0000
0010
0000
0010
1000
0000
1010
0000
,
0101
0000
0001
0100
1000
0000
1000
0100
,
0000
0100
0000
0100
0001
0000
0101
0000
,
1100
0000
1000
0100
0001
0000
0001
0100
,
0000
0100
0000
0100
1000
0000
1001
0000
,
0100
0100
0110
1001
,
0110
1001
0110
1001
,
0001
1000
0001
0020
0000
0230
0000
1300
,
0001
0010
0100
0010
0001
0000
0001
0000
,
1000
0010
1000
0200
0000
0320
0000
0130
,
1000
0100
0010
0100
1000
0000
1000
0000
,
0001
0100
0001
0100
0000
0000
0010
1000
,
0010
1000
0000
1000
0010
1000
0010
0000
,
0020
2030
3002
0103
,
1010
0101
2010
3001
,
1000
0001
1000
0200
0000
0320
0000
0031
,
1000
0100
0010
0100
1000
0000
1000
0000
,
0001
0100
0001
0020
0000
0230
0000
0310
,
0001
0010
0100
0010
0001
0000
1000
0010
,
0200
0000
0300
0001
0200
0000
0300
0000
,
0020
0000
0030
1000
0020
0000
0030
1000
,
0001
0000
0001
0020
0000
0130
2000
0000
,
0001
3001
1001
0110
,
1001
0100
0010
0100
,
0010
0100
0010
0100
,
0010
0100
0010
0110
;

//---------------dance-single - ----------------
#NOTEDATA:;
#CHARTNAME:;
#STEPSTYPE:dance-single;
#DESCRIPTION:;
#CHARTSTYLE:;
#DIFFICULTY:Easy;
#METER:3;
#RADARVALUES:0.189784,0.242973,0.118864,0.153825,0.000000,190.000000,173.000000,17.000000,22.000000,0.000000,0.000000,0.000000,0.000000,0.000000,0.189784,0.242973,0.118864,0.153825,0.000000,190.000000,173.000000,17.000000,22.000000,0.000000,0.000000,0.000000,0.000000,0.000000;
#CREDIT:;
#NOTES:
0000
0000
0000
0000
,
0010
0000
1000
0000
,
0001
0000
0100
0000
,
0010
0000
1000
0000
,
0001
0001
0001
0001
,
1000
0000
0010
0000
,
0100
0000
0001
0000
,
1000
0000
0010
0000
,
0100
0100
0100
0100
,
0100
0000
0010
0000
,
1000
0000
0001
0000
,
1001
0000
0110
0000
,
1001
0000
0110
0000
,
0001
0000
0100
0000
,
0010
0000
1000
0000
,
1010
0000
0101
0000
,
1010
0000
0101
0000
,
0000
1000
0000
0010
,
0000
0100
0000
0001
,
0002
0000
1003
0000
,
2000
0000
3001
0000
,
0000
0001
0000
0100
,
0000
0010
0000
1000
,
2000
0000
3001
0000
,
0002
1003
2000
3001
,
1001
0000
0001
0000
,
0101
0000
1010
0000
,
1000
0000
1010
0000
,
0101
0000
0001
0000
,
0101
0000
1010
0000
,
1000
0000
1001
0000
,
0001
0100
0001
0100
,
0010
1000
0010
1000
,
0000
0001
0001
0000
0000
1000
1000
0000
,
0000
0001
0001
0000
0100
0010
1000
0010
,
0000
0000
2000
3000
,
0002
0003
0200
0300
,
0020
0030
0200
0300
,
0002
0003
2000
0000
,
3000
0000
0002
0003
,
2000
3000
0020
0030
,
0200
0000
0020
0000
,
0000
0000
0000
0330
,
0000
0001
0000
0001
,
0000
1000
1000
1000
,
0000
0010
0000
0010
,
0000
0100
0100
0100
,
0000
0001
0000
0001
,
0000
1000
1000
1000
,
0000
0001
1000
0001
,
1000
0001
1000
0001
,
1000
0010
0100
0000
,
0001
0100
0010
0000
,
1000
0010
0100
0000
,
0001
0001
0001
0000
,
1000
0100
0000
0010
,
0001
0000
1000
1000
,
0001
0010
0100
1000
,
0002
0023
0230
1300
,
0001
0100
0010
0000
,
1000
0010
0100
0000
,
0001
0100
0010
0000
,
1000
1000
1000
0000
,
0002
0000
1003
0000
,
2000
0000
3001
0000
,
0001
0100
0010
1000
,
0001
0100
0110
0000
,
0100
0000
0010
0000
,
0100
0000
0010
0000
,
0100
0000
0010
0000
;

//---------------dance-single - ----------------
#NOTEDATA:;
#CHARTNAME:;
#STEPSTYPE:dance-single;
#DESCRIPTION:;
#CHARTSTYLE:;
#DIFFICULTY:Beginner;
#METER:2;
#RADARVALUES:0.138842,0.185988,0.069920,0.027968,0.000000,139.000000,129.000000,10.000000,4.000000,0.000000,0.000000,0.000000,0.000000,0.000000,0.138842,0.185988,0.069920,0.027968,0.000000,139.000000,129.000000,10.000000,4.000000,0.000000,0.000000,0.000000,0.000000,0.000000;
#CREDIT:;
#NOTES:
// measure 0
0000
0000
0000
0000
,  // measure 1
0010
0000
0010
0000
,  // measure 2
1000
0000
1000
0000
,  // measure 3
0001
0000
0001
0000
,  // measure 4
1000
0000
1000
0000
,  // measure 5
0010
0000
0010
0000
,  // measure 6
0100
0000
0100
0000
,  // measure 7
0001
0000
0001
0000
,  // measure 8
0100
0000
0100
0000
,  // measure 9
0001
0000
0001
0000
,  // measure 10
1000
0000
1000
0000
,  // measure 11
1001
0000
0000
0000
,  // measure 12
1001
0000
0000
0000
,  // measure 13
0001
0000
0001
0000
,  // measure 14
0100
0000
0100
0000
,  // measure 15
0110
0000
0000
0000
,  // measure 16
0110
0000
0000
0000
,  // measure 17
1000
0000
1000
0000
,  // measure 18
0010
0000
0010
0000
,  // measure 19
0110
0000
0000
0000
,  // measure 20
0110
0000
0000
0000
,  // measure 21
1000
0000
1000
0000
,  // measure 22
0001
0000
0001
0000
,  // measure 23
1000
0000
1000
0000
,  // measure 24
1001
0000
1001
0000
,  // measure 25
1001
0000
0000
0000
,  // measure 26
0001
0000
1000
0000
,  // measure 27
0000
0000
1000
0000
,  // measure 28
0001
0000
0000
0000
,  // measure 29
0001
0000
1000
0000
,  // measure 30
1000
0000
1001
0000
,  // measure 31
0001
0000
0100
0000
,  // measure 32
0010
0000
1000
0000
,  // measure 33
0001
0000
1000
0000
,  // measure 34
0001
0000
1000
1000
,  // measure 35
1000
0000
1000
0000
,  // measure 36
0001
0000
0100
0000
,  // measure 37
0010
0000
0100
0000
,  // measure 38
0001
0000
1000
0000
,  // measure 39
0001
0000
0000
0000
,  // measure 40
1000
0000
0010
0000
,  // measure 41
0100
0000
0001
0000
,  // measure 42
0002
0000
0000
0003
,  // measure 43
0000
0001
0000
0001
,  // measure 44
0000
1000
1000
0000
,  // measure 45
0000
0010
0000
0010
,  // measure 46
0000
0100
0100
0000
,  // measure 47
0000
0001
0000
0001
,  // measure 48
0000
1000
1000
0000
,  // measure 49
0000
0000
0001
0000
,  // measure 50
0001
1000
0001
1000
,  // measure 51
0001
0000
0100
0000
,  // measure 52
0001
0100
0010
0000
,  // measure 53
1000
0000
0010
0000
,  // measure 54
1000
0010
0100
0000
,  // measure 55
0001
0001
0000
0010
,  // measure 56
0010
0000
0100
0100
,  // measure 57
1000
0100
1000
0000
,  // measure 58
0001
0010
0001
0000
,  // measure 59
1000
0000
0010
0000
,  // measure 60
1000
0010
0100
0000
,  // measure 61
0001
0000
0100
0000
,  // measure 62
0001
0100
0010
0000
,  // measure 63
0002
0000
0003
0000
,  // measure 64
2000
0000
3000
0000
,  // measure 65
0002
0000
0003
0000
,  // measure 66
1000
0001
1000
0000
;
