#VERSION:0.82;
#TITLE:Devide Zero;
#SUBTITLE:;
#ARTIST:ASTROID;
#TITLETRANSLIT:;
#SUBTITLETRANSLIT:;
#ARTISTTRANSLIT:;
#GENRE:;
#ORIGIN:;
#CREDIT:;
#BANNER:[Your Name] - Devide Zero.png;
#BACKGROUND:[Your Name] - Devide Zero-bg.png;
#PREVIEWVID:;
#JACKET:[Your Name] - Devide Zero-jacket.png;
#CDIMAGE:;
#DISCIMAGE:;
#LYRICSPATH:;
#CDTITLE:;
#MUSIC:[Your Name] - Devide Zero.ogg;
#OFFSET:-0.044000;
#SAMPLESTART:14.455027;
#SAMPLELENGTH:15.000000;
#SELECTABLE:YES;
#BPMS:0.000=133.000;
#STOPS:28.000=1.353,
121.000=1.353,
185.750=1.353;
#DELAYS:;
#WARPS:;
#TIMESIGNATURES:0.000=4=4;
#TICKCOUNTS:0.000=4;
#COMBOS:0.000=1;
#SPEEDS:0.000=1.000=0.000=0;
#SCROLLS:0.000=1.000;
#FAKES:;
#LABELS:0.000=Song Start;
#BGCHANGES:;
#KEYSOUNDS:;
#ATTACKS:
;

//---------------dance-single - ----------------
#NOTEDATA:;
#CHARTNAME:;
#STEPSTYPE:dance-single;
#DESCRIPTION:;
#CHARTSTYLE:;
#DIFFICULTY:Hard;
#METER:8;
#RADARVALUES:0.538247,0.493255,0.377612,0.201393,0.276915,380.000000,45.000000,24.000000,0.000000,0.000000,0.000000,0.000000,0.000000,0.538247,0.493255,0.377612,0.201393,0.276915,380.000000,45.000000,24.000000,0.000000,0.000000,0.000000,0.000000,0.000000;
#CREDIT:;
#NOTES:
0000
0000
0000
0000
,
0000
0000
0000
0000
,
0000
0000
0000
0000
,
0000
0000
0000
0000
,
1000
0000
0000
0000
0100
0000
0000
0000
0010
0000
0000
1000
0000
0000
0010
0000
,
0000
0001
0000
0000
0100
0000
0000
0000
0010
0000
0000
0001
0000
0000
0010
0000
,
0200
0000
0000
0000
0001
0000
0000
0000
1000
0000
0000
0001
0300
0000
0001
0000
,
0010
0000
0000
0000
0001
0000
0000
0000
1100
0000
0000
0000
0001
0000
1000
0010
,
0000
0000
1000
0000
0000
0100
0010
0000
0100
0000
1000
0000
0001
0000
0100
0020
,
0000
0000
0130
0000
0001
0000
0000
0000
1010
0000
0000
0000
0001
0000
1000
0100
,
0000
0000
0010
0000
0000
0001
1000
0000
0001
0000
0100
0000
0010
0000
1000
0200
,
0000
0310
0100
1000
0001
0010
0100
0010
,
0001
0000
1000
0000
0100
0000
1000
0000
0001
0000
1000
0000
1000
0000
0001
0200
,
0000
0310
0100
0001
1000
0010
0100
0010
,
1000
0000
0001
0000
0100
0000
0001
0000
1000
0000
0001
0000
0001
0000
1000
0200
,
0000
1300
2100
0010
,
3000
0000
0100
0000
0000
0100
0010
0000
0002
0000
0000
0000
0010
0000
0000
0000
,
1003
0010
0102
0010
,
0003
0000
0100
0000
0000
0100
0010
0000
2000
0000
0000
0000
0010
0000
0000
0000
,
3001
0000
1000
0100
0010
0000
2002
0000
,
3003
0000
0001
0000
0000
0001
0100
0000
0010
0000
0000
0000
1001
0000
1000
0000
,
0010
1000
0001
0100
0010
0000
2002
0000
,
3003
0000
1000
0000
0000
1000
0001
0000
0020
0000
0000
0000
0000
0000
0000
0000
,
0000
0000
0000
0000
0031
0000
0000
0000
0101
0000
0000
0000
1010
0000
0000
0101
,
0000
0000
1001
0000
0000
1100
0000
0000
0011
0000
0000
0000
1100
0000
0000
1001
,
0000
0000
0101
0000
1000
0000
0000
0000
1100
0000
0000
0000
0011
0000
0000
1100
,
0000
0000
1001
0000
0000
0101
0000
0000
1010
0000
0000
0000
0101
0000
0000
1001
,
0000
0000
0011
0000
0010
0000
0000
0000
0001
0000
0000
0000
0100
0000
0000
0010
,
0000
0000
0100
0000
0000
0001
0000
0000
1000
0000
0000
0000
0100
0000
0000
0010
,
0000
0000
0100
0000
1000
0000
0000
0000
0001
0000
0000
0000
0001
0000
0000
1000
,
0000
1000
0010
0000
1000
0100
1000
0001
,
0100
0000
0001
0000
1000
0000
0100
0000
0010
0000
0100
0000
1000
0000
0001
0100
,
0000
0100
0010
0000
0020
0000
1030
0000
0001
0000
0010
0000
0001
0000
1000
0000
,
0010
0000
1000
0000
0001
0000
0010
0000
0100
0000
0010
0000
0001
0000
1000
0010
,
0000
0010
0100
0000
0200
0000
0301
0000
1000
0000
0100
0000
0001
0000
1000
0000
,
0010
0000
0001
0000
0100
0000
0001
0000
0100
0000
1000
0000
0001
0000
0010
0100
,
0000
0100
0010
0000
2000
0000
3001
0000
0001
0000
0100
0000
1000
0000
0100
0000
,
0001
0000
0010
0000
1000
0000
0010
0000
0001
0100
0001
0000
1000
0100
1000
0000
,
0001
0100
0010
0000
0010
0000
1000
0001
1000
0000
0001
0000
0010
0000
0001
0000
,
1000
0000
0001
0000
0100
0000
0001
0000
1000
0000
0100
0000
0010
0000
0001
0010
,
0000
0100
0010
0000
0002
0000
1003
0000
0001
0000
1000
0000
0010
0000
1000
0000
,
0001
0000
1000
0000
0100
0000
1000
0000
0001
0000
0100
0000
0010
0000
1000
0010
,
0000
0100
0010
0000
2000
0000
3001
0000
1000
0000
0100
0000
0010
0000
0001
0000
,
0100
0000
0001
0000
0010
0000
0100
0000
1000
0000
0100
0000
0010
0000
0001
1000
,
0000
0001
1000
0000
0010
0000
0100
0000
0001
0000
0100
0000
0010
0000
1000
0000
,
0100
0000
1000
0000
0010
0000
0100
0000
0001
0000
0001
0100
0000
0000
0100
0010
,
0000
1000
0010
0000
1000
0000
0200
0000
0300
0000
0000
0000
1000
0000
0001
0000
,
0010
0000
0001
0000
1000
0000
0000
0101
0000
0000
1000
0000
0000
1000
0100
0000
,
0010
0000
0100
0000
1000
0000
0000
1100
0000
0000
0011
0000
0001
0000
1000
0000
,
0010
0000
1000
0000
0001
0000
0000
1100
0000
0000
0001
0000
0000
0001
0100
0000
,
0010
0000
0100
0000
0001
0000
0000
1010
0000
0000
0011
0000
0001
0000
0100
0000
,
0010
0000
1000
0000
0001
0000
0001
0010
0000
0000
0001
0000
0000
0001
1000
0000
,
0020
0000
0000
0000
1030
0000
0000
0110
0000
0000
1001
0000
1000
0000
0100
0000
,
0010
0000
0001
0000
1000
0000
1000
0010
0000
0000
1000
0000
0000
0001
0100
0000
,
0020
0000
0030
1000
,
1100
0000
0000
0000
0110
0000
0000
1100
0000
0000
1000
0000
0000
0001
0100
0000
,
0010
0000
0000
0000
0101
0000
0000
0110
0000
0000
1010
0000
0001
0000
0000
0000
,
0101
0000
0000
0000
0110
0000
0000
0101
0000
0000
0001
0000
0000
1000
0100
0000
,
0010
0000
0100
0000
1100
0000
0000
1001
0000
0000
0011
0000
1000
0000
0000
0000
,
0010
0000
0000
0000
0100
0000
0000
1000
0000
0000
0100
0000
0000
0001
0000
0000
,
0010
0000
0000
0000
0100
0000
0000
0001
0000
0000
0100
0000
0020
0000
0000
0000
,
0001
0000
0000
0000
1000
0000
0000
0001
0030
0000
0001
0000
2000
0000
3000
0000
;

//---------------dance-single - ----------------
#NOTEDATA:;
#CHARTNAME:;
#STEPSTYPE:dance-single;
#DESCRIPTION:;
#CHARTSTYLE:;
#DIFFICULTY:Challenge;
#METER:9;
#RADARVALUES:0.668912,0.649020,0.503482,0.218176,0.650331,472.000000,60.000000,26.000000,0.000000,0.000000,0.000000,0.000000,0.000000,0.668912,0.649020,0.503482,0.218176,0.650331,472.000000,60.000000,26.000000,0.000000,0.000000,0.000000,0.000000,0.000000;
#CREDIT:;
#NOTES:
// measure 0
0000
0000
0000
0000
,  // measure 1
0000
0000
0000
0000
,  // measure 2
0000
0000
0000
0000
,  // measure 3
0000
0000
0000
0000
,  // measure 4
1100
0000
0000
0000
1001
0000
0000
0000
1010
0000
0000
0101
0000
0000
1001
0000
,  // measure 5
0000
0110
0000
0000
1001
0000
0000
0000
0101
0000
0000
0110
0000
0000
1010
0000
,  // measure 6
0001
0000
0000
0000
1000
0000
0000
0000
0001
0000
0000
0100
0000
0000
0100
0000
,  // measure 7
0020
0000
0000
0000
1030
0000
0001
0000
0100
0000
0001
0000
0010
0000
0010
0100
,  // measure 8
0000
0000
1000
0100
0000
1000
0001
0000
0010
0000
0001
0000
1000
0000
0100
0010
,  // measure 9
0000
0010
0001
0000
1000
0000
0001
0000
0010
0000
0001
0000
0100
0000
0100
0010
,  // measure 10
0000
0000
1000
0010
0000
1000
0001
0000
0100
0000
0001
0000
1000
0000
0010
1000
,  // measure 11
0000
0010
0100
0000
0001
0000
1000
0000
0100
0000
1000
0000
0010
0000
0010
0100
,  // measure 12
0000
0000
0001
0100
0000
0001
1000
0000
0010
0000
1000
0000
1000
0000
0100
0020
,  // measure 13
0000
0000
0100
0000
0031
0000
1000
0000
0010
0000
1000
0000
0100
0000
0100
0010
,  // measure 14
0000
0000
0001
0010
0000
0001
1000
0000
0100
0000
1000
0000
1000
0000
0010
0200
,  // measure 15
0000
0000
0000
0000
0310
0000
0000
0000
1002
0000
0000
0000
0013
0000
0000
0010
,  // measure 16
0100
0000
1100
0000
0000
0101
0000
0000
2010
0000
0000
0000
3001
0000
0100
0000
,  // measure 17
1000
0000
0100
0000
0010
0000
0000
0000
2001
0000
0000
0000
3010
0000
0000
0010
,  // measure 18
0100
0000
0101
0000
0000
1010
0000
0000
0012
0000
0000
0000
0013
0100
0000
0100
,  // measure 19
1000
0001
0100
0001
0100
0010
2010
0000
,  // measure 20
3001
0000
1000
0000
0000
1100
0000
0000
1001
0000
0000
1000
0100
0000
0010
0000
,  // measure 21
0100
1000
0000
1000
0100
0000
1000
0000
0100
0000
0010
0000
0012
0000
0000
0000
,  // measure 22
1003
0000
0001
0000
0000
0101
0000
0000
0220
0000
0000
0000
0000
0000
0000
0000
,  // measure 23
0330
0000
0000
0000
0101
0000
0001
0000
1001
0000
1000
0000
1010
0000
1000
0100
,  // measure 24
0000
0000
0110
0000
0000
0010
0001
0000
1000
0001
1000
0001
0100
0000
0001
0010
,  // measure 25
0000
0010
0100
0000
1100
0000
1000
0000
1001
0000
0001
0000
0011
0000
0001
1000
,  // measure 26
0000
1000
0010
0100
0000
0100
0001
0000
0100
0010
0100
0010
1000
0000
0001
1000
,  // measure 27
0000
1000
0010
0000
0200
0000
0000
0000
0001
0000
0000
0000
0010
0000
0000
0301
,  // measure 28
0000
0000
0020
0000
0000
0100
0000
0000
1000
0000
0000
0000
0230
0000
0000
0001
,  // measure 29
0000
0000
0010
0000
0310
0000
0000
0000
1010
0000
0000
0000
0011
0000
0000
1100
,  // measure 30
0000
0000
0100
0000
0020
0000
0000
0000
0031
0000
1000
0100
0000
0000
1000
0000
,  // measure 31
1000
0100
0000
0100
0000
1000
0001
0000
1000
0000
0100
1000
0000
1000
0100
0010
,  // measure 32
0000
0100
0010
0000
0002
0000
1003
0000
0001
0000
0100
0010
0000
0000
0100
0000
,  // measure 33
0100
0010
0000
0100
0000
0001
1000
0000
0010
0000
0010
0100
0000
0100
0010
1000
,  // measure 34
0000
1000
0001
0000
0020
0000
0130
0000
1000
0000
0001
0100
0000
0000
0100
0000
,  // measure 35
0100
0001
0000
0100
0000
0001
1000
0000
0001
0000
0001
0100
0000
0000
0001
0010
,  // measure 36
0000
0100
0010
0000
0200
0000
1300
0000
0001
0010
0100
0000
0010
0100
1000
0000
,  // measure 37
0100
1000
0010
0000
1000
0010
0100
0000
0100
0001
0100
0010
1000
0001
1000
0100
,  // measure 38
0010
0100
0010
0000
0100
0000
0100
1000
0001
0000
0100
0000
1010
0000
0001
0000
,  // measure 39
1000
0100
0000
1000
0000
0100
0010
0000
0001
0000
0001
1000
0000
0001
0010
0100
,  // measure 40
0000
0100
0010
0000
0002
0000
1003
0000
1000
0000
0100
0000
0011
0000
1000
0000
,  // measure 41
0001
0100
0000
0001
0000
1000
0010
0000
1000
0000
1000
0001
0000
0000
1000
0010
,  // measure 42
0000
0100
0010
0000
2000
0000
3001
0000
1000
0000
0100
0000
1001
0000
0001
0000
,  // measure 43
0100
0010
0000
0110
0000
0100
0001
0000
1000
0000
0100
1000
0001
1000
0100
0010
,  // measure 44
0000
0100
0010
0000
0001
0000
1000
0000
0001
0000
0100
0000
1001
0000
1000
0000
,  // measure 45
0100
0010
0000
0110
0000
0100
1000
0000
0001
0000
0001
1000
0000
0000
0001
0010
,  // measure 46
0000
0100
0010
0000
0001
0000
2000
0000
3000
0000
0000
0000
1100
0000
0100
0000
,  // measure 47
0110
0000
1000
0000
1001
0000
0001
0100
0000
0100
0001
1000
0000
1000
0010
0000
,  // measure 48
0100
0010
0100
0010
1000
0000
1000
0010
0000
1000
0001
0000
0101
0000
0100
0000
,  // measure 49
0110
0000
0001
0000
1001
0000
1000
0100
0000
0100
1000
0001
0000
0001
0010
0000
,  // measure 50
0100
1000
0100
1000
0001
0000
1000
0001
0000
0010
0100
0000
1100
0000
1000
0000
,  // measure 51
1010
0000
0001
0000
0001
0000
1000
0010
0000
0010
0100
0001
0000
0001
0100
0000
,  // measure 52
0010
1000
0010
1000
0001
0000
1000
0100
0000
0100
0010
0000
0011
0000
0001
0000
,  // measure 53
0101
0000
1000
0000
1000
0000
0001
0100
0000
0100
0010
1000
0000
1000
0001
0000
,  // measure 54
0020
0000
0000
0031
,  // measure 55
1100
0000
0000
0000
1010
0000
0000
0101
0000
0000
1001
0000
0000
1000
0100
0000
,  // measure 56
0010
0001
0010
0001
1000
0000
1000
0010
0000
0010
0100
0000
0010
0000
0000
0000
,  // measure 57
0101
0000
0000
0000
0011
0000
0000
1100
0000
0000
1000
0001
0000
0001
0010
0000
,  // measure 58
0100
0010
0100
0010
0001
0000
1000
0100
0000
0100
0010
0000
0200
0000
0000
0000
,  // measure 59
1000
0000
0000
0000
0010
0000
0000
1300
0000
0000
0020
0000
0000
0100
0000
0000
,  // measure 60
0001
0000
0000
0000
0230
0000
0000
1000
0000
0000
0010
0000
0310
0000
0000
0000
,  // measure 61
0011
0000
0000
0000
1010
0000
0000
0101
0000
0000
0100
0000
0020
0000
0030
0000
;

//---------------dance-single - ----------------
#NOTEDATA:;
#CHARTNAME:;
#STEPSTYPE:dance-single;
#DESCRIPTION:;
#CHARTSTYLE:;
#DIFFICULTY:Beginner;
#METER:1;
#RADARVALUES:0.118678,0.129542,0.033565,0.000000,0.000000,95.000000,4.000000,0.000000,0.000000,0.000000,0.000000,0.000000,0.000000,0.118678,0.129542,0.033565,0.000000,0.000000,95.000000,4.000000,0.000000,0.000000,0.000000,0.000000,0.000000,0.000000;
#CREDIT:;
#NOTES:
0000
0000
0000
0000
,
0000
0000
0000
0000
,
0000
0000
0000
0000
,
0000
0000
0000
0000
,
0000
0000
0000
0000
,
0000
0000
0000
0000
,
0000
0000
0000
0000
,
1001
1000
1000
0000
,
0000
0000
0000
0000
,
0000
0001
0001
0000
,
0000
0000
0000
0000
,
0000
1000
1000
0000
,
0000
0000
0000
0000
,
0000
0001
0001
0000
,
0000
0000
0000
0000
,
0000
1000
1000
0000
,
0000
0001
0001
0000
,
0000
1000
1000
0000
,
0000
0001
0001
0000
,
0000
0100
0100
0000
,
0000
0010
0010
0000
,
0000
0100
0100
0000
,
0000
0010
0010
0000
,
0000
1000
0000
1000
,
0000
0001
0000
0001
,
0000
1000
0000
1000
,
0000
0001
0000
0001
,
0000
1000
0000
0100
,
0000
0001
0000
0100
,
0000
1000
0000
0000
,
0000
1001
0000
1000
,
0000
1000
0000
0100
,
0000
0100
0000
0010
,
0000
0010
0000
0001
,
0001
0001
0000
0001
,
0000
0001
0000
0100
,
0000
0100
0000
0010
,
0000
0010
0010
0000
,
0000
0000
0000
0001
,
0000
0100
0000
0001
,
0000
0100
0000
0010
,
0000
1000
0000
0010
,
0000
1000
0000
0100
,
0000
1000
0000
0100
,
0000
1000
0000
0001
,
0000
0010
0000
0001
,
0010
0010
0000
1000
,
1000
0000
0000
0000
,
0000
0000
0000
0001
,
0001
0000
0000
0000
,
0000
0000
0000
1000
,
1000
0000
0000
0000
,
0000
0000
0000
0001
,
0001
0000
0000
0000
,
1001
0000
0000
1000
,
0000
1000
0000
0001
,
0000
0001
0000
0100
,
0000
0100
0000
0010
,
0000
0010
0000
1000
,
0000
0100
0000
0001
,
0000
0100
0000
1000
,
0000
0000
0000
1001
;

//---------------dance-single - ----------------
#NOTEDATA:;
#CHARTNAME:;
#STEPSTYPE:dance-single;
#DESCRIPTION:;
#CHARTSTYLE:;
#DIFFICULTY:Easy;
#METER:2;
#RADARVALUES:0.163032,0.181726,0.100696,0.067131,0.000000,116.000000,12.000000,8.000000,0.000000,0.000000,0.000000,0.000000,0.000000,0.163032,0.181726,0.100696,0.067131,0.000000,116.000000,12.000000,8.000000,0.000000,0.000000,0.000000,0.000000,0.000000;
#CREDIT:;
#NOTES:
0000
0000
0000
0000
,
0000
0000
0000
0000
,
0000
0000
0000
0000
,
0000
0000
0000
0000
,
1001
0000
0000
0000
,
0110
0000
0000
0000
,
1000
0000
0001
0000
,
0100
0000
0001
0000
,
0001
0000
1000
0000
,
1000
0000
0001
0000
,
0001
0000
1000
0000
,
1000
1000
0100
0000
,
0100
0000
0010
0000
,
0010
0001
0100
0000
,
0100
0000
0010
0000
,
0010
1000
0002
0003
,
0001
1000
0100
0000
,
0000
0001
2000
3000
,
1000
0001
0010
0000
,
0000
1000
0002
0003
,
0001
0010
0100
0000
,
0000
0001
2000
3000
,
1000
0100
0020
0000
,
0030
1001
0000
0010
,
0000
0110
0000
0001
,
0000
1001
0000
0100
,
0000
0110
0000
1000
,
0000
1001
0000
0000
,
0000
0000
0000
0000
,
0000
0001
0000
1000
,
0000
0100
0000
1000
,
0000
0100
0000
0010
,
0000
0001
0000
1000
,
0000
0100
0000
0010
,
0000
0001
0000
0001
,
0000
0100
0000
0010
,
0000
1000
0000
0001
,
0000
0100
0200
0000
,
0000
0300
0001
0001
,
0000
0010
0000
0100
,
0000
1000
0000
0001
,
0000
0010
0000
0100
,
0000
1000
0000
1000
,
0000
0010
0000
0100
,
0000
0001
0000
1000
,
0000
0010
0000
0100
,
0001
0001
0000
0000
,
1000
0000
1000
0000
,
0001
0000
0001
0000
,
0100
0000
0100
0000
,
0010
0000
0010
0000
,
1000
0000
1000
0000
,
0001
0000
0001
0000
,
0010
0000
0010
0100
,
0200
0000
0300
1001
,
0000
0010
0000
0110
,
0000
1000
0000
1001
,
0000
0100
0000
0110
,
0000
0001
0000
1001
,
0000
0000
0000
0000
,
0000
0000
0000
1000
,
0000
0000
0001
0000
0000
0000
0200
0300
;

//---------------dance-single - ----------------
#NOTEDATA:;
#CHARTNAME:;
#STEPSTYPE:dance-single;
#DESCRIPTION:;
#CHARTSTYLE:;
#DIFFICULTY:Medium;
#METER:5;
#RADARVALUES:0.383606,0.415373,0.125871,0.352438,0.125871,263.000000,15.000000,42.000000,0.000000,0.000000,0.000000,0.000000,0.000000,0.383606,0.415373,0.125871,0.352438,0.125871,263.000000,15.000000,42.000000,0.000000,0.000000,0.000000,0.000000,0.000000;
#CREDIT:;
#NOTES:
0000
0000
0000
0000
,
0000
0000
0000
0000
,
0000
0000
0000
0000
,
0000
0000
0000
0000
,
1000
0000
0000
0000
1000
0000
0000
0000
0100
0000
0000
0100
0000
0000
1000
0000
,
0000
0001
0000
0000
0001
0000
0000
0000
0100
0000
0000
0001
0000
0000
0010
0000
,
0001
0000
0000
0000
0100
0000
0000
0000
1000
0000
0000
0100
0000
0000
0100
0000
,
0010
0000
0000
0000
1000
0000
0000
0000
0001
0000
0000
0000
1000
0000
0000
0100
,
0000
0000
0010
0000
0000
0100
0000
0000
1000
0000
0000
0000
1000
0000
0000
0100
,
0000
0000
0010
0000
0001
0000
0000
0000
1000
0000
0000
0000
0001
0000
0000
0100
,
0000
0000
0010
0000
0000
0100
0000
0000
0001
0000
0000
0000
0001
0000
0000
0100
,
0000
0010
2000
0000
0100
0000
0001
0000
,
3100
0002
0100
1000
,
0103
2000
0100
0001
,
3010
0002
0100
1000
,
0013
1000
1000
0011
,
1000
0001
0100
0001
0010
0000
0001
0000
,
0100
0001
0001
1010
,
0001
0010
0100
1000
0010
0000
1000
0000
,
0100
1000
2100
3001
,
0001
1000
0001
0000
0100
0000
0010
0000
,
0100
0001
0102
1003
,
1000
0100
0000
0100
0020
0000
0000
0000
,
0030
0000
0000
0000
1000
0000
0000
0000
0001
0000
0000
0000
0010
0000
0000
0001
,
0000
0000
0100
0000
0000
0010
0000
0000
1000
0000
0000
0000
1000
0000
0000
0010
,
0000
0000
0100
0000
0001
0000
0000
0000
1000
0000
0000
0000
0010
0000
0000
1000
,
0000
0000
0100
0000
0000
0010
0000
0000
0001
0000
0000
0000
0001
0000
0000
1000
,
0000
0000
0010
0000
0100
0000
0000
0000
0001
0000
0000
0000
1000
0000
0000
0010
,
0000
0000
1000
0000
0000
0001
0000
0000
0100
0000
0000
0000
0100
0000
0000
0001
,
0000
0000
1000
0000
0100
0000
0000
0000
1000
0000
0000
0000
0001
0000
0000
0010
,
0000
0100
0010
0000
0002
0000
0100
0000
,
2003
0010
3002
0100
,
1003
0010
1000
0000
2000
0000
0100
0000
,
3002
0010
2003
0100
,
3001
0010
0100
0010
0002
0000
0100
0000
,
2003
0001
3200
0010
,
1300
0100
1000
0000
2000
0000
0100
0000
,
3002
0000
1000
0000
0103
0001
0100
0000
,
0010
1000
0010
0000
2001
0000
3200
0000
,
0320
0032
1003
1100
,
0001
0101
1002
0203
,
0320
2030
3001
0101
,
0110
1010
2001
3200
,
0320
0230
1300
1010
,
0001
0011
1002
0203
,
0320
0230
0301
0001
,
1000
0000
1000
0100
0000
0000
2000
0000
,
0100
0001
0100
0010
,
0100
0001
3010
0002
,
0100
1000
0100
0010
,
0100
1000
0013
2000
,
3100
0000
0010
0100
0010
0000
0200
0000
,
1000
0001
1300
0002
,
0103
0000
0010
0100
0010
0000
0200
0000
,
0002
0000
0303
0001
,
0100
0000
0000
0000
0010
0000
0000
0100
0000
0000
0001
0000
0000
1000
0000
0000
,
0100
0000
0000
0000
1000
0000
0000
0100
0000
0000
0010
0000
0001
0000
0000
0000
,
0100
0000
0000
0000
0010
0000
0000
1000
0000
0000
0001
0000
0000
0010
0000
0000
,
0100
0000
0000
0000
0100
0000
0000
1000
0000
0000
0010
0000
1000
0000
0000
0000
,
1000
0000
0000
0000
0001
0000
0000
0001
0000
0000
0100
0000
0000
0100
0000
0000
,
0010
0000
0000
0000
0100
0000
0000
0010
0000
0000
1000
0000
0001
0000
0000
0000
,
0001
0000
0000
0000
1000
0000
0000
1000
0000
0000
0100
0000
0020
0000
0030
0000
;
