#VERSION:0.83;
#TITLE:Dally;
#SUBTITLE:(feat. Gray);
#ARTIST:Hyolyn;
#TITLETRANSLIT:;
#SUBTITLETRANSLIT:;
#ARTISTTRANSLIT:;
#GENRE:K-POP;
#ORIGIN:;
#CREDIT:;
#BANNER:[Your Name] - Dally (feat. Gray).png;
#BACKGROUND:[Your Name] - Dally (feat. Gray)-bg.png;
#PREVIEWVID:;
#JACKET:[Your Name] - Dally (feat. Gray)-jacket.png;
#CDIMAGE:;
#DISCIMAGE:;
#LYRICSPATH:;
#CDTITLE:CDTitle.png;
#MUSIC:[Your Name] - Dally (feat. Gray).ogg;
#OFFSET:0.000000;
#SAMPLESTART:53.329498;
#SAMPLELENGTH:13.333336;
#SELECTABLE:YES;
#DISPLAYBPM:72.000000:144.000000;
#BPMS:0.000=144.000,
248.000=288.000,
251.000=144.000,
252.000=288.000,
254.000=72.000,
255.000=144.000,
279.000=288.000,
282.000=144.000,
283.000=288.000,
285.000=144.000,
287.000=72.000;
#STOPS:248.000=0.208,
249.000=0.208,
250.000=0.208,
252.000=0.208,
253.000=0.208,
279.000=0.208,
280.000=0.208,
281.000=0.208,
283.000=0.208,
284.000=0.208;
#DELAYS:;
#WARPS:;
#TIMESIGNATURES:0.000=4=4;
#TICKCOUNTS:0.000=4;
#COMBOS:0.000=1;
#SPEEDS:0.000=1.000=0.000=0;
#SCROLLS:0.000=1.000;
#FAKES:;
#LABELS:0.000=Song Start;
#LASTSECONDHINT:125.786194;
#BGCHANGES:15.854=[Your Name] - Dally (feat. Gray).avi=1.000=0=0=1=====,
99999=-nosongbg-=1.000=0=0=0 // don't automatically add -songbackground-
;
#KEYSOUNDS:;
#ATTACKS:
;

//---------------dance-single - ----------------
#NOTEDATA:;
#CHARTNAME:;
#STEPSTYPE:dance-single;
#DESCRIPTION:;
#CHARTSTYLE:;
#DIFFICULTY:Hard;
#METER:8;
#RADARVALUES:0.465336,0.515488,0.389636,0.826028,0.109098,418.000000,368.000000,50.000000,106.000000,0.000000,0.000000,0.000000,0.000000,0.000000,0.465336,0.515488,0.389636,0.826028,0.109098,418.000000,368.000000,50.000000,106.000000,0.000000,0.000000,0.000000,0.000000,0.000000;
#CREDIT:DDRDAIKENKAI;
#DISPLAYBPM:72.000000:144.000000;
#NOTES:
0000
0000
0000
0000
,
0000
0000
0000
0000
,
0000
0000
0000
0000
,
0000
0000
0000
0000
,
0000
0000
0000
0000
,
0000
0000
0000
0000
,
0000
0000
0000
0000
,
0000
0000
0000
0000
,
2000
0000
0000
3002
0000
0000
0023
0000
0000
0230
0000
0000
2300
0000
0000
3200
,
0000
0000
0320
0000
0000
0032
0000
0000
1003
0000
0001
0000
1000
0000
0000
0000
,
0020
0000
0000
0230
0000
0000
0302
0000
0000
2003
0000
0000
3002
0000
0000
0203
,
0000
0000
0320
0000
0000
2030
0000
0000
3100
0000
0010
0000
0001
0000
2000
0000
,
0100
0000
3100
0010
0000
0010
0100
2000
,
0010
0000
3010
0200
0001
0000
0301
1000
,
0001
0010
1000
0000
1000
0010
0001
0000
,
1000
0001
1000
0010
0100
0000
0100
0010
,
0120
0000
0000
2030
0000
0000
3200
0000
0000
0302
0000
0000
0203
0000
0000
2300
,
0000
0000
3002
0000
0000
0023
0000
0000
0031
0000
1000
0000
0001
0000
0000
0000
,
1001
0000
0001
0200
0000
0000
0320
0000
0000
2030
0000
0000
3020
0000
0000
0230
,
0000
0000
0302
0000
0000
2003
0000
0000
3001
0000
0010
0000
0100
0000
2000
0000
,
0010
0000
3010
0100
0110
0010
1000
0002
,
0010
0000
0013
0001
0202
0000
0303
0001
,
1000
0010
0001
0000
0001
0010
1000
0000
,
1000
0001
1000
0100
0010
0000
0001
1000
,
1010
0000
0011
0000
1010
0000
0001
0100
,
1100
0000
0101
0000
1100
0000
0001
0100
,
0110
0000
1010
0010
0100
0001
1000
0200
,
0010
0320
0001
0032
1000
2003
3100
0000
,
0110
0000
0011
0000
1100
0000
0001
0100
,
0020
0000
0032
0000
0203
0000
1300
0010
,
0100
0010
2000
0000
3001
0100
0010
2000
,
0000
0100
0000
0010
0000
0002
0000
0000
,
3003
0000
0000
0001
0010
1000
0100
0001
,
2000
0000
3001
2000
0000
3002
0000
1003
,
0010
0001
0100
1000
0002
0000
1003
0002
,
0000
1003
1010
0000
1001
0000
0011
0000
,
1200
0000
0000
0000
0000
0000
0310
0000
0002
0000
0000
1003
0000
0000
1000
0000
,
0020
0000
0000
0130
0000
0000
0001
0000
0010
0000
0100
0000
1000
0000
0010
0000
,
1010
0000
0000
0000
0001
0010
0000
0000
1020
0000
0000
0000
1030
0000
0001
0000
,
0011
0000
0000
0000
0001
1000
0000
0000
2002
0000
0000
0000
3003
0000
0000
0000
,
0001
0010
1000
0010
0001
0000
0001
0100
,
1000
0100
0001
0000
2000
0000
3100
0000
,
0010
0001
0100
0001
0010
0000
0010
1000
,
0100
1000
0010
0000
0210
0000
1300
0002
,
0100
0203
0000
0310
1000
0010
0100
0002
,
1000
2003
0000
3100
0001
0100
0010
0100
,
0001
0100
1000
0001
0100
0010
0100
0002
,
0000
1003
0020
0000
0130
0000
0100
0001
,
0011
0000
1010
0000
0012
0000
1003
0100
,
0011
0000
1010
0000
0012
0000
1003
0100
,
0010
0000
0010
1000
0010
0001
1000
0020
,
0100
0230
0001
0302
0010
0023
0130
0000
,
1010
0000
0011
0000
1020
0000
0130
0001
,
0020
0000
2030
0000
3200
0000
0301
0010
,
0100
0010
0001
0000
1000
0100
0010
0002
,
0000
0010
0000
0100
0000
2000
0000
0000
,
3003
0000
0000
0001
0010
0001
0100
0010
,
2000
0000
3100
2000
0000
3001
0000
1000
,
0010
1000
0100
0010
0002
0000
0103
0002
,
0000
0103
0020
0000
2030
0000
3001
0000
,
1002
0000
0000
0000
0000
0000
1003
0000
0020
0000
0000
1030
0000
0000
1000
0000
,
0200
0000
0000
0000
0000
0000
0000
0000
0000
0000
0000
0000
0000
0000
0000
0000
0000
0000
0000
0000
0000
0000
0000
0000
0000
0000
0000
0000
0000
0000
0000
0000
0000
0000
0000
0000
0310
0000
0000
0000
0000
0000
0000
0000
0000
0000
0000
0000
0000
0000
0000
0000
0000
0000
0000
0000
0000
0000
0000
0000
0000
0000
0000
0000
0000
0000
0000
0000
0000
0000
0000
0000
0001
0000
0000
0000
0000
0000
0000
0000
0000
0000
0000
0000
0000
0000
0000
0000
0000
0000
0000
0000
0000
0000
0000
0000
2002
3003
0000
0000
0000
0000
0000
0000
0000
0000
0000
0000
0000
0000
0000
0000
0000
0000
0000
0000
0000
0000
0000
0000
0000
0000
0000
0000
0000
0000
0000
0000
0000
0000
0000
0000
0000
0000
0000
0000
0000
0000
0000
0000
0000
0000
0000
0000
0220
0330
0000
0000
0000
0000
0000
0000
0000
0000
0000
0000
0000
0000
0000
0000
0000
0000
0000
0000
0000
0000
0000
0000
0010
0000
0000
0000
0000
0000
0000
0000
0000
0000
0000
0000
0000
0000
0000
0000
0000
0000
0000
0000
0000
0000
0000
0000
,
1010
0000
0110
0000
0102
0000
0013
0100
,
1100
0011
0002
0003
,
0000
1000
0001
0010
1000
0100
0002
0000
,
1003
0002
0000
2003
0000
3001
1000
0010
,
0001
0100
2000
0000
3001
2000
0000
3001
,
0011
1001
1010
0102
,
0000
0000
1003
0000
0020
0000
0000
0031
0000
0000
1000
0000
0200
0000
0000
0301
,
0000
1000
0100
0010
0001
1000
1100
0000
,
0011
0000
1002
0000
0013
0100
0110
0000
,
1001
0020
0000
2030
,
0000
0001
0000
0001
0000
0000
0000
0000
3000
0000
0000
0000
0002
0000
0000
0000
,
0000
1000
0000
1000
0000
0000
0000
0000
0103
0000
0000
0000
0000
0000
0000
0000
;

//---------------dance-single - ----------------
#NOTEDATA:;
#CHARTNAME:;
#STEPSTYPE:dance-single;
#DESCRIPTION:;
#CHARTSTYLE:;
#DIFFICULTY:Easy;
#METER:3;
#RADARVALUES:0.233781,0.422268,0.132476,0.413014,0.000000,210.000000,193.000000,17.000000,53.000000,0.000000,0.000000,0.000000,0.000000,0.000000,0.233781,0.422268,0.132476,0.413014,0.000000,210.000000,193.000000,17.000000,53.000000,0.000000,0.000000,0.000000,0.000000,0.000000;
#CREDIT:DDRDAIKENKAI;
#DISPLAYBPM:144.000000;
#NOTES:
// measure 0
0000
0000
0000
0000
,  // measure 1
0000
0000
0000
0000
,  // measure 2
0000
0000
0000
0000
,  // measure 3
0000
0000
0000
0000
,  // measure 4
0000
0000
0000
0000
,  // measure 5
0000
0000
0000
0000
,  // measure 6
0000
0000
0000
0000
,  // measure 7
0000
0000
0000
0000
,  // measure 8
0002
0000
0000
0000
,  // measure 9
1000
0000
1003
0000
,  // measure 10
0020
0000
0000
0000
,  // measure 11
0100
0000
0130
0000
,  // measure 12
0020
0000
1030
0000
,  // measure 13
0002
0000
1003
0000
,  // measure 14
0100
0100
0010
0010
,  // measure 15
0001
1000
0001
0000
,  // measure 16
1001
0000
0100
0000
,  // measure 17
0010
0010
0010
0000
,  // measure 18
1000
0000
0001
0000
,  // measure 19
1000
1000
1000
0000
,  // measure 20
0002
0000
0103
0010
,  // measure 21
2000
0000
3002
0000
,  // measure 22
1003
1000
0001
0001
,  // measure 23
0010
0100
1000
0000
,  // measure 24
0010
0010
0010
1000
,  // measure 25
0100
0100
0100
0010
,  // measure 26
0001
0001
0001
0001
,  // measure 27
2000
0000
3002
0000
,  // measure 28
0103
0100
0100
0001
,  // measure 29
0010
0010
0010
0100
,  // measure 30
1000
0000
1000
0000
1000
0000
1000
0002
,  // measure 31
0000
0000
0000
0000
,  // measure 32
1003
0000
0001
0100
,  // measure 33
0020
0000
1030
0000
,  // measure 34
0001
1000
0200
0000
,  // measure 35
0310
0001
0001
1000
,  // measure 36
1002
0000
2003
0000
,  // measure 37
3010
0100
0002
0000
,  // measure 38
1000
1000
2003
0000
,  // measure 39
0100
0100
0200
3300
,  // measure 40
0001
0001
0001
1000
,  // measure 41
1000
1000
0010
0100
,  // measure 42
0010
0010
0010
0100
,  // measure 43
0100
0100
0001
1000
,  // measure 44
0200
0000
1300
0001
,  // measure 45
0200
0000
0310
1000
,  // measure 46
0002
0000
0013
0001
,  // measure 47
2000
0000
0001
3001
,  // measure 48
2000
3002
2003
3100
,  // measure 49
0020
0032
0023
0130
,  // measure 50
1000
0010
0100
0001
,  // measure 51
2000
0100
0200
3300
,  // measure 52
2000
3020
2030
3010
,  // measure 53
0200
0302
2003
3001
,  // measure 54
1000
0000
0100
0000
0010
0000
0001
2000
,  // measure 55
0000
0000
0000
0000
,  // measure 56
3002
0000
1000
0000
,  // measure 57
2003
0000
0010
0000
,  // measure 58
3020
0000
0100
0000
,  // measure 59
0230
0010
0010
0310
,  // measure 60
0120
0000
2030
0000
,  // measure 61
3100
0010
0001
0001
,  // measure 62
1001
1001
2002
3003
,  // measure 63
0110
0000
0110
0000
0220
0330
1001
0000
,  // measure 64
0000
1000
0100
0020
,  // measure 65
0030
0020
0030
0001
,  // measure 66
0100
0020
0030
0020
,  // measure 67
1000
1030
0001
1002
,  // measure 68
0000
1003
1000
0010
,  // measure 69
0100
0001
0001
1001
,  // measure 70
1001
1001
0000
0110
,  // measure 71
0110
0120
0000
2030
,  // measure 72
0000
3000
0000
0000
;

//---------------dance-single - ----------------
#NOTEDATA:;
#CHARTNAME:;
#STEPSTYPE:dance-single;
#DESCRIPTION:;
#CHARTSTYLE:;
#DIFFICULTY:Medium;
#METER:5;
#RADARVALUES:0.365144,0.429573,0.194818,0.350672,0.015585,328.000000,303.000000,25.000000,45.000000,0.000000,0.000000,0.000000,0.000000,0.000000,0.365144,0.429573,0.194818,0.350672,0.015585,328.000000,303.000000,25.000000,45.000000,0.000000,0.000000,0.000000,0.000000,0.000000;
#CREDIT:DDRDAIKENKAI;
#DISPLAYBPM:72.000000:144.000000;
#NOTES:
0000
0000
0000
0000
,
0000
0000
0000
0000
,
0000
0000
0000
0000
,
0000
0000
0000
0000
,
0000
0000
0000
0000
,
0000
0000
0000
0000
,
0000
0000
0000
0000
,
0000
0000
0000
0000
,
2000
0000
0000
0000
3001
0100
0000
0100
,
0000
0000
0000
0000
0110
0000
0000
0100
,
0001
0000
0000
0000
1000
0100
0000
0100
,
0000
0000
0000
0000
0110
0000
0010
0100
,
0010
0000
0000
0000
0001
1000
0000
0001
,
0000
0000
0000
0000
0110
0000
0000
0010
,
1000
0000
0000
0000
0001
1000
0000
0001
,
0000
0000
0000
0000
1001
0000
1000
0010
,
0110
0000
0100
0000
0001
0010
0000
0100
,
0000
1000
0001
0000
1000
0100
1000
0000
,
0001
0000
0100
0000
0010
1000
0000
0100
,
0000
0010
0001
0000
1000
0100
1000
0000
,
0001
0000
0100
0010
0000
1000
0001
1000
,
0000
0010
0100
0000
0110
0000
0100
0000
,
0001
0010
0001
0000
1000
0100
1000
0001
,
0000
0001
0100
0000
0110
0000
0100
0001
,
0010
0000
0001
0000
0100
0010
0100
0100
,
0010
0000
1000
0000
0100
0000
1000
0001
,
1000
0000
0001
0000
0010
0001
0010
0002
,
0000
0203
0000
0310
1000
0000
0001
0010
,
0100
0000
1000
0000
0010
0100
0010
0010
,
0100
0000
0001
0000
0010
0000
0100
0010
,
0001
0000
0100
0000
0010
1000
0002
2000
,
0000
0000
0000
3003
0000
0000
2000
0000
,
3001
0000
0000
0001
0100
0000
0010
1000
,
0000
1000
0002
0000
1003
0000
0100
0010
,
0001
0000
0010
0100
1000
0000
0001
0100
,
0000
0001
2000
0000
3200
0000
0310
0000
,
0110
0000
0000
0010
0001
0000
1000
0010
,
0000
0010
0200
0000
0310
0000
1000
0001
,
0100
0000
0010
0000
2000
0000
3001
1000
,
0100
0010
0002
0003
,
1000
0000
0100
0010
0001
0000
0100
0010
,
1000
0001
0020
0130
,
1000
0000
0001
0100
1000
0000
1000
0100
,
0001
0000
1000
0000
0200
0000
0310
0002
,
0000
1003
0000
0001
0010
0000
0100
2000
,
0000
3001
0000
0100
0010
0000
0100
0002
,
0000
1003
0010
0000
1000
0000
0001
0020
,
0000
0031
1000
0000
1001
0000
0100
0010
,
0110
0000
0010
0000
0001
1000
0100
0100
,
1000
0000
0010
0000
1000
0000
0010
0100
,
0010
0000
0100
0000
0001
1000
0001
0020
,
0000
0230
0000
1300
0002
0000
1003
0010
,
0110
0000
0001
0000
1000
0010
0100
0100
,
0010
0000
1000
0000
0001
0000
0010
0100
,
0010
0000
0001
0000
1000
0100
2000
0002
,
0000
0000
0000
0000
0000
3003
0000
0000
,
0200
0000
0000
0310
1000
0010
1000
0000
,
0020
0000
0130
0020
0000
0130
0000
0001
,
0010
0001
0010
0000
0002
0000
1003
0002
,
0000
1003
0200
0000
0320
0000
0032
0000
,
2003
0000
3000
0010
1000
0000
1000
0001
,
0000
0001
0100
0000
0110
0000
0110
0000
,
1010
1010
2002
3003
,
0011
0011
2000
3020
,
0000
1030
0001
0000
0010
0100
0000
0100
,
2000
0000
3001
0000
0100
0010
1000
0000
,
0100
0010
0001
0000
1000
0020
0000
1030
,
0002
0023
0130
0210
,
0000
1300
0001
0000
0100
0010
0000
0010
,
1000
1001
1001
0101
,
1100
0002
0003
1100
,
0101
2000
0000
3002
,
0000
1000
0000
1000
0000
0000
0000
0000
0003
0000
0000
0000
2000
0000
0000
0000
,
0000
0001
0000
0001
0000
0000
0000
0000
3100
0000
0000
0000
0000
0000
0000
0000
;
