#TITLE:DVNO;
#SUBTITLE:;
#ARTIST:Justice;
#TITLETRANSLIT:;
#SUBTITLETRANSLIT:;
#ARTISTTRANSLIT:;
#GENRE:;
#CREDIT:;
#BANNER:DVNO_bn.png;
#BACKGROUND:DVNO_bg.png;
#LYRICSPATH:;
#CDTITLE:cdtitle.png;
#MUSIC:DVNO.ogg;
#OFFSET:0.000000;
#SAMPLESTART:54.000000;
#SAMPLELENGTH:16.000000;
#SELECTABLE:YES;
#BPMS:0.000000=120.000000
;
#STOPS:
;
#BGCHANGES:;
#KEYSOUNDS:;
#ATTACKS:;

//---------------dance-single - ----------------
#NOTES:
     dance-single:
     :
     Hard:
     8:
     0.533884,0.650233,0.452993,0.254808,0.396369,396.000000,348.000000,48.000000,27.000000,0.000000,0.000000,0.533884,0.650233,0.452993,0.254808,0.396369,396.000000,348.000000,48.000000,27.000000,0.000000,0.000000:
// measure 0
0000
0000
0000
0000
,  // measure 1
0000
0000
0000
0000
,  // measure 2
0000
0000
0000
0000
0000
0000
0000
0100
,  // measure 3
1000
0000
0000
0000
0001
0000
0100
0000
0000
0000
0000
0100
0010
0000
0100
0000
,  // measure 4
0110
0001
1001
0000
1000
0010
0100
0001
,  // measure 5
0102
0000
0100
0000
1003
0000
0100
0000
0010
0000
0100
0000
1000
0000
0000
0100
,  // measure 6
0000
0000
0010
0000
0100
0000
1000
0001
0000
0100
0001
1000
0001
0000
0000
0100
,  // measure 7
0000
0010
0000
0100
0000
0001
0000
1000
0000
0100
0000
0010
0000
0100
0000
1000
,  // measure 8
0000
0010
0000
0100
0000
1000
0000
0100
0000
0001
0000
0010
0000
0100
0010
0001
,  // measure 9
1000
0000
0001
1000
0000
0001
0000
0000
1000
0000
0001
0000
0100
0001
1000
0000
,  // measure 10
0100
0010
0000
0100
0000
0000
0000
0000
0100
1000
0001
1000
0010
0000
0000
0000
,  // measure 11
0102
0000
0000
0000
1003
0000
0000
1000
0000
0000
0100
0000
1000
0000
0001
0000
,  // measure 12
2001
0000
0000
0000
3010
0000
0000
0100
0000
0000
0001
0000
1000
0000
0100
0000
,  // measure 13
0210
0000
0000
0000
1300
0000
0100
0000
1000
0000
0001
1000
0000
0010
0000
0100
,  // measure 14
0000
0010
0100
0000
0110
0000
0000
0000
0100
0000
0001
1000
0100
1000
0000
0000
,  // measure 15
2100
0000
0000
0000
3001
0000
0000
1000
0001
0000
0100
0001
0000
1000
0000
0100
,  // measure 16
0000
0000
0000
0000
0000
0000
1000
0001
0000
0000
0100
0000
0010
0000
1000
0000
,  // measure 17
1020
0000
0000
0000
0130
0000
0010
0000
0100
0000
0001
0000
1000
0100
0000
1000
,  // measure 18
0000
0001
0000
0000
0000
0000
0000
0000
0001
0100
0010
1000
0001
0000
0000
0000
,  // measure 19
0012
1000
0010
1000
,  // measure 20
2003
0010
0001
0010
,  // measure 21
3002
0100
1000
0100
,  // measure 22
2003
0100
0001
0100
,  // measure 23
3002
0010
1000
0100
,  // measure 24
2003
0000
0010
0000
0001
0000
3100
1000
,  // measure 25
0100
0010
0001
1000
0010
0000
0000
0010
,  // measure 26
0100
0001
1000
0001
0010
0100
1000
0000
,  // measure 27
1100
0001
0101
1000
1100
0000
0010
0000
,  // measure 28
0101
1000
1100
0001
0101
0000
0010
0000
,  // measure 29
1010
0001
0011
1000
1010
0000
0100
0000
,  // measure 30
0011
1000
1010
0001
0011
0000
0010
0000
,  // measure 31
0001
0010
0100
0000
0100
0010
0000
0010
,  // measure 32
0001
0010
1000
0010
0000
0110
0110
0010
,  // measure 33
0001
1000
0010
0100
0010
0000
0000
0010
,  // measure 34
1000
0001
0010
0100
0010
0001
1000
0000
,  // measure 35
1000
1000
1100
0000
0001
0001
0202
0303
,  // measure 36
1000
1000
1010
0000
0001
0001
0022
0033
,  // measure 37
0010
0010
0101
0000
0010
0010
2200
3300
,  // measure 38
0100
0100
0011
0000
0100
0100
2020
3030
,  // measure 39
0100
0100
0011
0000
0100
0100
2020
3030
,  // measure 40
0010
0010
0101
0000
0010
0010
2200
3300
,  // measure 41
1001
0000
1001
0000
1001
0110
0110
0000
,  // measure 42
0102
0000
0000
0000
1003
0000
1100
0000
0000
0000
1000
0000
0001
0000
0100
0001
,  // measure 43
2000
0000
0000
0000
3001
0000
0101
0000
0000
0000
0001
0000
1000
0010
0100
0000
,  // measure 44
0010
0100
0001
1000
0001
0100
0001
1000
0001
1000
0100
0000
1000
0000
0010
0000
,  // measure 45
0100
0000
0010
0100
0000
0001
1000
0000
0001
1000
0001
0100
0010
1000
0001
0000
,  // measure 46
0010
0000
0100
0000
0010
0001
0010
0000
0100
0000
1000
0100
0000
1000
0100
0000
,  // measure 47
1000
0100
0010
0001
1000
0010
0100
0010
0000
0100
0010
1000
0000
0000
0001
0000
,  // measure 48
0100
0001
0100
0010
0000
0100
0001
1000
0000
0100
0000
1000
0000
0010
0100
0000
,  // measure 49
0001
0000
1000
0001
0000
1000
0100
0010
0100
0000
0110
0000
0110
0000
0000
0000
,  // measure 50
0010
0001
0000
0000
0100
0000
0101
0000
0000
0001
1000
0000
0100
0000
1000
0000
,  // measure 51
1100
0000
1000
0001
0000
0001
0100
0000
0010
0000
0100
0010
0000
0010
0000
0000
,  // measure 52
0200
0000
0000
0000
,  // measure 53
0300
0000
0000
0000
;
