#TITLE:Berry Go!!;
#SUBTITLE:;
#ARTIST:Freezer feat. 妃苺;
#TITLETRANSLIT:;
#SUBTITLETRANSLIT:;
#ARTISTTRANSLIT:Freezer feat. Kiichigo;
#GENRE:;
#CREDIT:BadWolf;
#BANNER:[Your Name] - Berry Go!!.png;
#BACKGROUND:[Your Name] - Berry Go!!-bg.png;
#LYRICSPATH:;
#CDTITLE:cdtitle.png;
#MUSIC:[Your Name] - Berry Go!!.ogg;
#OFFSET:0.000000;
#SAMPLESTART:33.916870;
#SAMPLELENGTH:10.951427;
#SELECTABLE:YES;
#BPMS:0.000000=175.000000
;
#STOPS:
;
#BGCHANGES:;
#KEYSOUNDS:;
#ATTACKS:;

//---------------dance-single - ----------------
#NOTES:
     dance-single:
     :
     Hard:
     9:
     0.649283,0.680873,0.489459,0.034961,0.131105,520.000000,464.000000,56.000000,4.000000,0.000000,0.000000,0.649283,0.680873,0.489459,0.034961,0.131105,520.000000,464.000000,56.000000,4.000000,0.000000,0.000000:
0000
0000
0000
0000
,
0000
0000
0000
0000
,
0000
0000
0000
0000
,
0000
0000
0000
0000
,
0000
0000
0000
0000
,
0001
0000
0100
0010
0100
0000
0010
0000
,
1000
0000
0001
0010
0001
0000
1000
0000
,
0010
0000
0100
0001
0100
0000
0001
0000
,
1000
0100
0010
0001
1000
0100
0010
0001
,
1000
0000
0010
0000
0100
0001
0100
0000
,
0001
0000
0010
0000
0100
1000
0010
1000
,
0100
0000
0010
0000
0001
1000
0001
0100
,
0000
0100
0010
1000
0001
0010
0100
1000
,
0001
0100
1000
0100
,
0001
0010
1000
0010
,
0001
0100
0001
0100
0010
1000
0100
0010
,
0002
0000
0000
0003
,
0100
0000
0000
0010
1000
0000
0001
0000
,
0010
0000
0000
0100
1000
0000
0001
0000
,
1000
0000
0000
0010
0100
0000
0001
0000
,
1000
0010
1000
0010
0100
0010
0100
0001
0100
0001
0000
0000
,
1000
0000
0000
0000
0100
0000
0000
0000
0010
0000
0000
0001
1000
0000
0001
0000
,
0010
0000
0000
0000
0100
0000
0000
0000
1000
0000
0000
0001
1000
0000
0001
0000
,
0100
0010
0100
1000
0100
0001
1000
0100
,
0010
0000
0000
0000
0000
0000
0000
0000
0001
1000
0001
1000
0001
0000
0000
0000
,
1100
0000
0110
0000
0011
0000
0001
0100
,
0110
0000
1010
0000
1001
0000
1000
0100
,
0010
0000
0100
0000
1000
0000
0010
0000
0100
0000
0001
1000
0000
0001
1000
0000
,
0001
0010
0100
1000
0010
0100
0001
1000
,
1010
0000
0110
0000
0101
0000
0001
0010
,
0110
0000
1100
0000
1001
0000
1000
0010
,
0100
0010
1000
0100
0010
0001
1000
0001
,
0100
0100
0100
0000
0110
0000
1001
0000
,
0011
0000
0110
0000
1100
0000
1000
0010
,
0110
0000
0101
0000
1001
0000
0001
0010
,
0100
0000
0010
0000
0001
0000
0100
0000
0010
0000
1000
0001
0000
1000
0001
0000
,
1000
0100
0010
0001
0100
0010
1000
0001
,
0101
0000
0110
0000
1010
0000
1000
0100
,
0110
0000
0011
0000
1001
0000
0001
0100
,
0010
0000
0000
1000
0000
0000
0100
0000
0010
0000
0000
0100
0000
0000
1000
0000
,
0001
0010
0100
1000
0100
0010
0001
1000
,
0002
0000
0100
0000
0013
0000
1000
0100
,
0000
0010
0000
0100
1000
0010
1000
0001
,
0010
0001
1000
0001
0000
0100
0000
0010
,
0000
1000
0001
0010
0100
0010
0001
0000
,
0100
0010
1000
0010
0100
0010
1000
0010
,
1000
0100
0010
0001
0010
0100
1000
0000
,
0010
0100
0001
0100
0000
0010
0000
1000
,
0001
0010
0100
1000
0010
0100
0001
0000
,
0100
0000
0000
0010
1000
0000
0001
0000
,
0010
0000
0000
0100
1000
0000
0001
0000
,
1000
0000
0000
0010
0100
0000
0001
0000
,
1000
0010
1000
0000
0001
0100
0001
0000
1000
0000
0001
0000
1000
0000
0000
0000
,
0001
0000
0000
0000
0010
0000
0000
0000
0100
0000
0000
1000
0001
0000
1000
0000
,
0100
0000
0000
0000
0010
0000
0000
0000
0001
0000
0000
1000
0001
0000
1000
0000
,
0010
0100
0010
0001
0010
1000
0001
0010
,
0100
0100
0010
0001
1000
1000
1001
0000
,
0001
0000
0000
0100
0000
0000
0001
0000
1000
0000
0100
0000
0010
0000
0001
0000
,
0100
0010
0001
0010
0100
0001
1000
0010
,
1000
0000
0000
0100
0000
0000
1000
0000
0010
0000
0001
0000
0010
0000
0100
0000
,
0001
1001
1100
0101
,
1000
0000
0000
0010
0000
0000
1000
0000
0001
0000
0010
0000
0100
0000
1000
0000
,
0010
0100
1000
0100
0010
1000
0001
0100
,
0001
0000
0000
0010
0000
0000
0001
0000
0100
0000
1000
0000
0100
0000
0010
0000
,
2000
0000
0000
3001
,
0011
0000
0110
0000
1100
0000
1000
0010
,
0110
0000
0101
0000
1001
0000
0001
0010
,
0100
0000
0010
0000
0001
0000
0100
0000
0010
0000
1000
0001
0000
1000
0001
0000
,
1000
0100
0010
0001
0100
0010
1000
0001
,
0101
0000
0110
0000
1010
0000
1000
0100
,
0110
0000
0011
0000
1001
0000
0001
0100
,
0010
0100
0001
0010
0100
1000
0001
1000
,
0010
0010
0010
0000
0110
0000
1001
0000
,
1100
0000
0110
0000
0011
0000
0001
0100
,
0110
0000
1010
0000
1001
0000
1000
0100
,
0010
0000
0100
0000
1000
0000
0010
0000
0100
0000
0001
1000
0000
0001
1000
0000
,
0001
0010
0100
1000
0010
0100
0001
1000
,
1010
0000
0110
0000
0101
0000
0001
0010
,
0110
0000
1100
0000
1001
0000
1000
0010
,
0100
0000
0000
0001
0000
0000
0010
0000
0100
0000
0000
0010
0000
0000
0001
0000
,
1000
0100
0010
0001
0010
0100
1000
0001
,
2000
0000
0000
0000
,
3000
0000
0000
0000
;

//---------------dance-single - ----------------
#NOTES:
     dance-single:
     :
     Challenge:
     10:
     0.822841,0.824214,0.559382,0.043702,0.607454,659.000000,595.000000,64.000000,5.000000,0.000000,0.000000,0.822841,0.824214,0.559382,0.043702,0.607454,659.000000,595.000000,64.000000,5.000000,0.000000,0.000000:
0000
0000
0000
0000
,
0000
0000
0000
0000
,
0000
0000
0000
0000
,
0000
0000
0000
0000
,
0000
0000
0000
0000
,
1000
0000
0010
0100
0010
0000
1000
0000
,
0001
0011
1001
1000
,
0001
0000
0100
0010
0100
0000
0001
0000
,
1000
0100
1000
0100
0010
0001
0010
0001
1000
0100
0010
0001
0010
0100
1000
0001
,
1000
0000
1010
0000
0010
0100
0001
0000
,
0010
0000
0110
0000
0100
1000
0010
1000
,
0001
0000
0011
0000
0010
0100
1000
0001
,
0000
0000
0100
0000
0010
0000
0100
0000
0001
0000
1000
0001
1000
0100
1000
0100
,
0010
0001
0100
0001
0010
0100
1000
0100
,
0010
0001
1000
0001
0100
0010
0100
0001
,
1000
0000
0100
0000
1000
0000
0100
0000
0010
0001
0010
0100
1000
0001
1000
0001
,
2000
0000
0000
3000
,
0001
0000
0010
0100
1000
0000
1001
0000
,
1000
0000
0100
0010
0001
0000
1001
0000
,
0001
0000
0100
0010
1000
0000
1001
0000
,
1000
0100
1000
0100
0010
0100
0010
0001
0010
0001
0000
0000
,
1000
0000
0010
0000
0001
0000
0010
0000
1000
0000
0000
0100
0000
0000
0010
0000
,
0001
0000
0100
0000
1000
0000
0100
0000
0001
0000
0000
0010
0000
0000
0100
1000
,
0001
0000
0100
0000
0001
0000
0100
0000
0010
1000
0010
0100
0001
1000
0001
1000
,
0001
0000
0000
0000
0000
0000
0000
0000
1000
0001
1000
0001
1000
0000
0000
0000
,
1010
0000
0000
0000
0011
0000
0000
0000
1010
0000
1000
0001
0000
1000
0001
0000
,
0011
0000
0000
0000
1010
0000
0000
0000
0011
0000
0001
1000
0000
0001
1000
0000
,
0001
0000
0100
0000
0010
0000
1000
0000
0100
0000
0010
0001
0000
0010
0001
0000
,
0100
0000
0010
0000
1000
0000
0001
0000
0010
0000
0100
1000
0000
0100
1000
0000
,
1010
0000
0000
0000
0011
0000
0000
0000
1010
0000
1000
0001
0000
1000
0001
0000
,
0011
0000
0000
0000
1010
0000
0000
0000
0011
0000
0001
1000
0000
0001
1000
0000
,
0001
0100
0010
1000
0001
0010
0100
1000
,
0010
0010
0010
0000
0100
0000
1001
0000
,
0011
0000
0000
0000
1010
0000
0000
0000
0011
0000
0001
1000
0000
0001
1000
0000
,
1010
0000
0000
0000
0011
0000
0000
0000
1010
0000
1000
0001
0000
1000
0001
0000
,
1000
0000
0100
0000
0010
0000
0001
0000
0100
0000
0010
1000
0000
0010
1000
0000
,
0100
0000
0010
0000
0001
0000
1000
0000
0010
0000
0100
0001
0000
0100
0001
0000
,
0011
0000
0000
0000
1010
0000
0000
0000
0011
0000
0001
1000
0000
0001
1000
0000
,
1010
0000
0000
0000
0011
0000
0000
0000
1010
0000
1000
0001
0000
1000
0001
0000
,
1000
0000
0000
0100
0000
0000
0010
0000
0001
0000
0000
0100
0000
0000
0010
0000
,
1000
0100
1000
0100
1000
0100
1000
0100
0010
0001
0010
0100
1000
0000
0000
0000
,
0002
0000
0100
0000
0013
0000
1000
0100
,
0010
0000
0100
0000
1000
0000
0100
0000
0010
0000
0001
0100
0001
0000
1000
0000
,
0001
0100
1000
0100
0010
1000
0001
0010
,
0100
0010
0001
1000
0100
0010
0001
0000
,
1000
0010
1000
0000
0010
0100
0010
0000
0100
0001
0100
0000
0001
0000
0010
0000
,
0100
1000
0100
0010
0001
0100
0001
0000
,
1000
0100
0010
0100
1000
0010
0001
0010
,
1000
0100
1000
0100
1000
0100
1000
0100
0010
0001
0010
0100
1000
0000
0000
0000
,
0001
0000
0100
0010
1000
0000
1001
0000
,
1000
0000
0010
0100
0001
0000
1001
0000
,
0001
0000
0010
0100
1000
0000
1001
0000
,
1000
0001
1000
0000
0010
0100
0010
0100
0001
0000
1000
0000
1001
0000
0000
0000
,
1000
0000
0100
0000
0001
0000
0100
0000
1000
0000
0000
0010
0000
0000
0100
0000
,
0001
0000
0010
0000
1000
0000
0010
0000
0001
0000
0000
0100
0000
0000
0010
1000
,
0001
0000
0010
0000
0001
0000
0010
0000
0100
1000
0100
0010
0001
1000
0001
1000
,
0001
0000
0001
0000
0100
0000
0010
0000
0010
0000
1000
0001
1000
0000
0000
0000
,
0001
0000
0000
1000
0000
0000
0100
0010
0100
0000
1000
0000
0100
0000
0001
0000
,
0100
0010
0100
0010
0001
1000
0001
1000
0010
0000
0100
0000
0010
0000
1000
0000
,
0001
0000
0000
1000
0000
0000
0100
0010
0100
0000
1000
0000
0001
0100
0010
0100
,
0001
1000
0001
0000
1000
0100
0010
0001
1000
0000
0010
0100
0010
0000
1000
0000
,
0001
0000
0000
0010
0000
0000
0100
1000
0100
0000
1000
0000
0010
0000
0001
0000
,
0010
0100
0010
0100
0001
1000
0001
1000
0100
0000
0010
0000
0100
0000
1000
0000
,
0001
0000
0000
0100
0000
0000
0010
1000
0010
0000
1000
0000
0001
0010
0100
0010
,
0002
0000
0003
1001
,
1010
0000
0000
0000
0011
0000
0000
0000
1010
0000
1000
0001
0000
1000
0001
0000
,
0011
0000
0000
0000
1010
0000
0000
0000
0011
0000
0001
1000
0000
0001
1000
0000
,
0001
0000
0100
0000
0010
0000
1000
0000
0100
0000
0010
0001
0000
0010
0001
0000
,
0100
0000
0010
0000
1000
0000
0001
0000
0010
0000
0100
1000
0000
0100
1000
0000
,
1010
0000
0000
0000
0011
0000
0000
0000
1010
0000
1000
0001
0000
1000
0001
0000
,
0011
0000
0000
0000
1010
0000
0000
0000
0011
0000
0001
1000
0000
0001
1000
0000
,
0001
0100
0010
1000
0001
0010
0100
1000
,
0010
0010
0010
0000
0100
0000
1001
0000
,
0011
0000
0000
0000
1010
0000
0000
0000
0011
0000
0001
1000
0000
0001
1000
0000
,
1010
0000
0000
0000
0011
0000
0000
0000
1010
0000
1000
0001
0000
1000
0001
0000
,
1000
0000
0100
0000
0010
0000
0001
0000
0100
0000
0010
1000
0000
0010
1000
0000
,
0100
0000
0010
0000
0001
0000
1000
0000
0010
0000
0100
0001
0000
0100
0001
0000
,
0011
0000
0000
0000
1010
0000
0000
0000
0011
0000
0001
1000
0000
0001
1000
0000
,
1010
0000
0000
0000
0011
0000
0000
0000
1010
0000
1000
0001
0000
1000
0001
0000
,
1000
0000
0000
0100
0000
0000
0010
0000
0001
0000
0000
0100
0000
0000
0010
0000
,
1000
0100
1000
0100
1000
0100
1000
0100
0010
0001
0010
0100
1000
0000
0000
0000
,
2002
0000
0000
0000
,
3003
0000
0000
0000
;

//---------------dance-single - ----------------
#NOTES:
     dance-single:
     :
     Medium:
     7:
     0.550642,0.609202,0.524420,0.078663,0.096144,441.000000,381.000000,60.000000,9.000000,0.000000,0.000000,0.550642,0.609202,0.524420,0.078663,0.096144,441.000000,381.000000,60.000000,9.000000,0.000000,0.000000:
0000
0000
0000
0000
,
0000
0000
0000
0000
,
0000
0000
0000
0000
,
0000
0000
0000
0000
,
0000
0000
0000
0000
,
0001
1000
0010
0100
,
0001
0001
1000
0100
,
1000
0001
0100
0010
,
2002
0000
0000
3003
,
1000
0000
0100
0000
0010
0001
0010
0000
,
0001
0000
0100
0000
0010
1000
0100
1000
,
0010
0000
1000
0000
0100
0010
0100
0010
,
0000
0001
1000
0001
1000
0010
0100
0001
,
1000
1000
0001
0001
,
1000
0100
0010
0001
,
1000
0010
1000
0010
0100
0001
0100
0001
,
0020
0000
0000
0030
,
0001
0000
0000
0001
1000
0000
0110
0000
,
1000
0000
0000
1000
0001
0000
0110
0000
,
0001
0000
0000
0001
1000
0000
0110
0000
,
2000
0000
0000
3001
,
1000
0000
0000
0000
0100
0000
0000
0000
0010
0000
0000
0001
0000
0000
1000
0000
,
0001
0000
0000
0000
0010
0000
0000
0000
0100
0000
0000
1000
0000
0000
0001
0000
,
1000
0010
1000
0010
0100
0001
0100
0001
,
1000
0000
0000
0000
0001
1000
0001
0000
,
0011
0011
0011
1000
,
1010
0000
1010
0000
1010
0000
0001
1000
,
0100
0000
1000
0001
0010
0000
0100
1000
,
0001
0000
0100
0010
0100
0000
0001
0000
,
0011
0011
0011
1000
,
1010
0000
1010
0000
1010
0000
0001
1000
,
0001
0010
0001
0010
0100
1000
0100
1000
,
0001
0001
0001
0000
0000
0000
1001
0000
,
1010
1010
1010
0001
,
0011
0000
0011
0000
0011
0000
1000
0001
,
0100
0000
0001
1000
0010
0000
0100
0001
,
1000
0000
0100
0010
0100
0000
1000
0000
,
1010
1010
1010
0001
,
0011
0000
0011
0000
0011
0000
1000
0001
,
1000
0000
0000
0010
0000
0000
1000
0000
0010
0000
0000
0100
0000
0000
0001
0000
,
1000
0000
0000
0100
0000
0000
0010
0000
0001
0000
0000
0000
1001
0000
0000
0000
,
1000
0000
0100
0000
0010
0000
0100
1000
,
0000
0010
0000
1000
0001
1000
0001
1000
,
0001
0000
0010
0000
0100
0000
1000
0010
,
1000
0000
0100
0000
0010
0001
0010
0000
,
0001
0100
0010
0100
0001
0100
0010
1000
,
0001
0010
0100
1000
0000
0001
1000
0000
,
0001
1000
0010
0100
0000
0001
0000
1000
,
0002
0000
0000
1003
,
0001
0000
0000
0001
1000
0000
0110
0000
,
1000
0000
0000
1000
0001
0000
0110
0000
,
0001
0000
0000
0001
1000
0000
0110
0000
,
2000
0000
0000
3001
,
1000
0000
0000
0000
0100
0000
0000
0000
0010
0000
0000
0001
0000
0000
1000
0000
,
0001
0000
0000
0000
0010
0000
0000
0000
0100
0000
0000
1000
0000
0000
0001
0000
,
1000
0010
1000
0010
0100
0001
0100
0001
,
1000
0100
1000
0010
0100
0001
1000
0000
,
0001
0000
0000
1000
0000
0000
0001
0000
1000
0000
0000
0100
0000
0000
0010
0000
,
0001
0000
0000
0100
0000
0000
0001
0000
0100
0000
0000
0010
0000
0000
1000
0000
,
0001
0000
0000
1000
0000
0000
0001
0000
1000
0000
0000
0100
0000
0000
0010
0000
,
0001
1000
0001
1000
0010
0100
0010
0100
,
0001
0000
0000
1000
0000
0000
0001
0000
1000
0000
0000
0100
0000
0000
0010
0000
,
0001
0000
0000
0100
0000
0000
0001
0000
0100
0000
0000
0010
0000
0000
1000
0000
,
0001
0000
0000
1000
0000
0000
0001
0000
1000
0000
0000
0100
0000
0000
0010
0000
,
0002
0000
0000
1003
,
1100
1100
1100
0001
,
0101
0000
0101
0000
0101
0000
1000
0001
,
0010
0000
0001
1000
0100
0000
0010
0001
,
1000
0000
0010
0100
0010
0000
1000
0000
,
1100
1100
1100
0001
,
0101
0000
0101
0000
0101
0000
1000
0001
,
1000
0100
1000
0100
0010
0001
0010
0001
,
1000
1000
1000
0000
0000
0000
1001
0000
,
0101
0101
0101
1000
,
1100
0000
1100
0000
1100
0000
0001
1000
,
0010
0000
1000
0001
0100
0000
0010
1000
,
0001
0000
0010
0100
0010
0000
0001
0000
,
0101
0101
0101
1000
,
1100
0000
1100
0000
1100
0000
0001
1000
,
0001
0000
0000
0100
0000
0000
0001
0000
0100
0000
0000
0010
0000
0000
1000
0000
,
0001
0000
0000
0010
0000
0000
0100
0000
1000
0000
0000
0000
1001
0000
0000
0000
,
0220
0000
0000
0000
,
0330
0000
0000
0000
;

//---------------dance-single - ----------------
#NOTES:
     dance-single:
     :
     Easy:
     5:
     0.393315,0.501696,0.489459,0.078663,0.000000,315.000000,259.000000,56.000000,9.000000,0.000000,0.000000,0.393315,0.501696,0.489459,0.078663,0.000000,315.000000,259.000000,56.000000,9.000000,0.000000,0.000000:
0000
0000
0000
0000
,
0000
0000
0000
0000
,
0000
0000
0000
0000
,
0000
0000
0000
0000
,
0000
0000
0000
0000
,
1000
0100
0010
0001
,
0100
0100
0010
1000
,
0001
0010
0100
1000
,
2002
0000
0000
3003
,
0001
1000
0000
0010
,
1000
0001
0000
0100
,
0001
0010
0000
0100
,
1000
0010
1000
0001
,
1000
1000
0001
0001
,
0010
0010
0100
0100
,
1000
0010
0100
0001
,
2000
0000
0000
3000
,
0001
0000
1000
1001
,
1000
0000
0001
1001
,
0001
0000
1000
1001
,
2000
0000
0000
3001
,
1000
0100
0010
0001
,
1000
0010
0100
0001
,
0010
0100
1000
0001
,
1000
0000
0001
1000
,
1001
1001
1001
0000
,
0110
0110
0110
0000
,
0001
0010
0100
1000
,
0100
0010
0001
1000
,
1001
1001
1001
0000
,
0110
0110
0110
0000
,
0001
0001
1000
1000
,
0001
1000
0001
0000
0000
0000
1000
0000
,
1001
1001
1001
0000
,
0110
0110
0110
0000
,
0001
0010
0100
1000
,
0100
0010
0001
1000
,
1001
1001
1001
0000
,
0110
0110
0110
0000
,
0001
0000
0100
0000
,
0010
0000
1000
0001
,
1000
0100
0010
0100
,
1000
0001
0100
0001
,
0010
0100
0010
0001
,
0100
0010
1000
0001
,
1000
1000
0001
0001
,
0010
0100
1000
0001
,
1000
0010
0100
0001
,
2000
0000
0000
3001
,
1000
0000
0001
1001
,
0001
0000
1000
1001
,
1000
0000
0001
1001
,
0002
0000
0000
1003
,
0001
0010
0100
1000
,
0001
0100
0010
1000
,
0100
0010
0001
1000
,
0001
0001
1000
1000
,
0001
1000
0100
1000
,
0010
0100
1000
0100
,
0001
1000
0100
0010
,
0001
0001
1000
1000
,
0001
1000
0010
1000
,
0100
0010
1000
0010
,
0001
1000
0010
0100
,
0002
0000
0000
1003
,
1001
1001
1001
0000
,
0110
0110
0110
0000
,
0001
0010
0100
1000
,
0100
0010
0001
1000
,
1001
1001
1001
0000
,
0110
0110
0110
0000
,
0001
0001
1000
1000
,
0001
1000
0001
0000
0000
0000
1000
0000
,
1001
1001
1001
0000
,
0110
0110
0110
0000
,
0001
0010
0100
1000
,
0100
0010
0001
1000
,
1001
1001
1001
0000
,
0110
0110
0110
0000
,
0001
0000
0100
0000
,
0010
0000
1000
0001
,
2002
0000
0000
0000
,
3003
0000
0000
0000
;

//---------------dance-single - ----------------
#NOTES:
     dance-single:
     :
     Beginner:
     3:
     0.176055,0.250848,0.000000,0.008740,0.000000,141.000000,141.000000,0.000000,1.000000,0.000000,0.000000,0.176055,0.250848,0.000000,0.008740,0.000000,141.000000,141.000000,0.000000,1.000000,0.000000,0.000000:
// measure 0
0000
0000
0000
0000
,  // measure 1
0000
0000
0000
0000
,  // measure 2
0000
0000
0000
0000
,  // measure 3
0000
0000
0000
0000
,  // measure 4
0000
0000
0000
0000
,  // measure 5
1000
0000
0000
0000
,  // measure 6
0001
0000
1000
0000
,  // measure 7
0001
0000
0000
0000
,  // measure 8
1000
0000
0000
0000
,  // measure 9
0001
0000
0000
0000
,  // measure 10
0100
0000
0000
0000
,  // measure 11
0010
0000
0000
0000
,  // measure 12
1000
0000
0001
0000
,  // measure 13
1000
0000
1000
0000
,  // measure 14
0100
0000
0100
0000
,  // measure 15
0010
0000
0010
0000
,  // measure 16
0001
0000
0000
0000
,  // measure 17
1000
0000
0000
0000
,  // measure 18
0001
0000
0000
0000
,  // measure 19
0100
0000
0000
0000
,  // measure 20
0010
0000
0000
0000
,  // measure 21
1000
0000
1000
0000
,  // measure 22
0001
0000
0001
0000
,  // measure 23
0010
0000
0010
0000
,  // measure 24
0100
0000
0000
0000
,  // measure 25
1000
1000
1000
0000
,  // measure 26
0001
0001
0001
0000
,  // measure 27
0100
0000
0010
0000
,  // measure 28
0100
0000
0010
0000
,  // measure 29
1000
1000
1000
0000
,  // measure 30
0001
0001
0001
0000
,  // measure 31
0010
0000
0100
0000
,  // measure 32
0010
0000
0000
0000
,  // measure 33
0001
0001
0001
0000
,  // measure 34
1000
1000
1000
0000
,  // measure 35
0010
0000
0100
0000
,  // measure 36
0010
0000
0100
0000
,  // measure 37
0001
0001
0001
0000
,  // measure 38
1000
1000
1000
0000
,  // measure 39
0100
0000
0010
0000
,  // measure 40
0100
0000
0010
0000
,  // measure 41
0001
0000
0000
0000
,  // measure 42
1000
0000
0000
0000
,  // measure 43
0010
0000
0000
0000
,  // measure 44
0100
0000
0000
0000
,  // measure 45
0001
0000
0000
0000
,  // measure 46
1000
0000
0000
0000
,  // measure 47
0100
0000
0000
0000
,  // measure 48
0010
0000
0000
0000
,  // measure 49
0001
0000
0000
0000
,  // measure 50
1000
0000
0000
0000
,  // measure 51
0010
0000
0000
0000
,  // measure 52
0100
0000
0000
0000
,  // measure 53
0001
0000
0001
0000
,  // measure 54
1000
0000
1000
0000
,  // measure 55
0100
0000
0100
0000
,  // measure 56
0010
0000
0000
0000
,  // measure 57
0001
0000
1000
0000
,  // measure 58
0001
0000
1000
0000
,  // measure 59
0010
0000
0100
0000
,  // measure 60
0010
0000
0100
0000
,  // measure 61
0001
0000
1000
0000
,  // measure 62
0001
0000
1000
0000
,  // measure 63
0100
0000
0010
0000
,  // measure 64
0100
0000
0000
0000
,  // measure 65
1000
1000
1000
0000
,  // measure 66
0001
0001
0001
0000
,  // measure 67
0100
0000
0010
0000
,  // measure 68
0100
0000
0010
0000
,  // measure 69
1000
1000
1000
0000
,  // measure 70
0001
0001
0001
0000
,  // measure 71
0010
0000
0100
0000
,  // measure 72
0010
0000
0000
0000
,  // measure 73
0001
0001
0001
0000
,  // measure 74
1000
1000
1000
0000
,  // measure 75
0010
0000
0100
0000
,  // measure 76
0010
0000
0100
0000
,  // measure 77
0001
0001
0001
0000
,  // measure 78
1000
1000
1000
0000
,  // measure 79
0100
0000
0010
0000
,  // measure 80
0100
0000
0010
0000
,  // measure 81
0002
0000
0000
0000
,  // measure 82
0003
0000
0000
0000
;
