#VERSION:0.83;
#TITLE:seedy try;
#SUBTITLE:;
#ARTIST:t+pazolite;
#TITLETRANSLIT:;
#SUBTITLETRANSLIT:;
#ARTISTTRANSLIT:;
#GENRE:;
#ORIGIN:;
#CREDIT:;
#BANNER:;
#BACKGROUND:;
#PREVIEWVID:;
#JACKET:;
#CDIMAGE:;
#DISCIMAGE:;
#LYRICSPATH:;
#CDTITLE:cdtitle.png;
#MUSIC:seedytry.ogg;
#OFFSET:0.000000;
#SAMPLESTART:27.428572;
#SAMPLELENGTH:9.142859;
#SELECTABLE:YES;
#BPMS:0.000=105.000;
#STOPS:;
#DELAYS:;
#WARPS:;
#TIMESIGNATURES:0.000=4=4;
#TICKCOUNTS:0.000=4;
#COMBOS:0.000=1;
#SPEEDS:0.000=1.000=0.000=0;
#SCROLLS:0.000=1.000;
#FAKES:;
#LABELS:0.000=Song Start;
#BGCHANGES:;
#KEYSOUNDS:;
#ATTACKS:
;

//---------------dance-single - ----------------
#NOTEDATA:;
#CHARTNAME:;
#STEPSTYPE:dance-single;
#DESCRIPTION:;
#CHARTSTYLE:;
#DIFFICULTY:Hard;
#METER:9;
#RADARVALUES:0.777887,0.832430,0.107693,0.026923,1.426927,809.000000,793.000000,16.000000,4.000000,4.000000,0.000000,0.000000,0.000000,102.000000,0.777887,0.832430,0.107693,0.026923,1.426927,809.000000,793.000000,16.000000,4.000000,4.000000,0.000000,0.000000,0.000000,102.000000;
#CREDIT:;
#OFFSET:0.000000;
#BPMS:0.000000=105.000000
;
#STOPS:;
#DELAYS:;
#WARPS:72.000000=8.000000
,112.000000=8.000000
,216.000000=8.000000
,256.000000=8.000000
;
#TIMESIGNATURES:0.000000=4=4
;
#TICKCOUNTS:0.000000=4
;
#COMBOS:0.000000=1
;
#SPEEDS:0.000000=1.000000=0.000000=0
,47.500000=0.700000=0.125000=0
,47.625000=1.000000=0.125000=0
,47.750000=0.800000=0.125000=0
,47.875000=1.000000=0.125000=0
,80.000000=0.000000=0.000000=0
,80.062500=1.000000=1.000000=0
,120.000000=0.000000=0.000000=0
,120.062500=1.000000=1.000000=0
,191.500000=0.700000=0.125000=0
,191.625000=1.000000=0.125000=0
,191.750000=0.800000=0.125000=0
,191.875000=1.000000=0.125000=0
,224.000000=0.000000=0.000000=0
,224.062500=1.000000=1.000000=0
,264.000000=0.000000=0.000000=0
,264.062500=1.000000=1.000000=0
;
#SCROLLS:0.000000=1.000000
;
#FAKES:72.000000=7.500000
,112.000000=7.500000
,216.000000=7.500000
,256.000000=7.500000
;
#LABELS:0.000000=Song Start
;
#NOTES:
// measure 0
0000
0000
0000
0000
,  // measure 1
0000
0000
0000
0000
,  // measure 2
0000
0000
0000
0000
,  // measure 3
0000
0000
0000
0000
,  // measure 4
1000
0100
0000
1000
0000
0100
1000
0010
0100
0010
1000
0100
0010
0000
0010
0000
,  // measure 5
0001
0100
0000
0001
0000
0100
0001
0010
0100
0010
0001
0100
0010
0000
0010
0000
,  // measure 6
1000
0010
0000
1000
0000
0010
1000
0001
0010
1000
0010
0001
1000
0000
1000
0000
,  // measure 7
0001
0010
0000
0001
0000
0010
0001
1000
0010
0001
0010
1000
0001
0000
0001
0000
,  // measure 8
1000
0000
0100
0000
0000
0000
0010
0000
0000
0000
0100
0000
1000
0000
0001
0000
0100
0000
0000
0000
0100
0000
0001
1000
0001
0000
1000
0000
0100
0000
0000
0000
,  // measure 9
1000
0000
0001
0000
0000
0000
0100
0000
0000
0000
0010
0000
0100
0000
0001
0000
1000
0000
0100
0000
1000
0001
1000
0000
0010
0000
0000
0000
0100
0010
0100
0010
,  // measure 10
0100
0001
0000
0100
0000
0010
1000
0100
0010
0100
0000
1000
0000
0100
0010
0001
,  // measure 11
0100
0000
0000
0000
0000
0000
0000
0000
0000
0000
0000
0000
0000
0000
0000
0000
0000
0000
0000
0000
0000
0000
0000
0000
0100
0000
0000
0000
0000
0000
0000
0000
0000
0000
0000
0000
0000
0000
0000
0000
0000
0000
0000
0000
0000
0000
0000
0000
0100
0000
0000
0000
0000
0000
0000
0000
0010
0000
0000
0000
0000
0000
0000
0000
1000
0000
0000
0000
0000
0000
0000
0000
0001
0000
0000
0000
0000
0000
0000
0000
0000
0000
0000
0000
0000
0000
0000
0000
0000
0000
0000
0000
0000
0000
0000
0000
1000
0000
0000
0000
0000
0000
0100
0000
0000
0000
0000
0000
0010
0000
0000
0000
0000
0000
0001
0000
0000
0000
0000
0000
1000
0000
0000
0000
0000
0000
0000
0000
0000
0000
0000
0000
0100
0000
0000
0000
0000
0000
0000
0000
0000
0000
0000
0000
1000
0000
0000
0000
0000
0000
0000
0000
0000
0000
0000
0000
0000
0000
0000
0000
0000
0000
0000
0000
0000
0000
0000
0000
0000
0000
0000
0000
0000
0000
0000
0000
0000
0000
0000
0000
0000
0000
0000
0000
0000
0000
0000
0000
0000
0000
0000
0000
,  // measure 12
1100
0000
0000
0000
1000
0000
0010
0000
0100
0000
0000
0000
0100
0000
0000
0000
1000
0000
0010
0000
0100
0000
0001
0000
0100
0010
0100
0000
0001
0000
1000
0000
,  // measure 13
0100
0000
0010
0100
1000
0000
1000
0000
0100
0001
1000
0001
0010
0000
0100
0000
,  // measure 14
0010
0000
0000
0000
0001
0000
0100
0000
0010
0000
0000
0000
0010
0000
0000
0000
0001
0000
0100
0000
0010
0000
1000
0000
0010
0100
0010
0000
1000
0000
0001
0000
,  // measure 15
0010
0100
0100
0001
0010
0010
0100
0001
1000
0100
0010
0001
0011
0000
1001
0000
,  // measure 16
0101
0000
0000
0000
0001
0000
0010
0000
0100
0000
0000
0000
0100
0000
0000
0000
0001
0000
0010
0000
0100
0000
1000
0000
0100
1000
0100
0000
0010
0000
0001
0000
,  // measure 17
0100
0000
0000
0000
0000
0000
0010
0000
0000
1000
0000
0000
0001
0000
0000
0000
0000
0000
0001
0000
0000
0000
0000
0000
0010
0000
1000
0000
0010
0000
0100
0000
0001
0000
0100
0000
0010
0000
0000
0000
0000
0000
0100
0000
0000
0000
0000
0000
,  // measure 18
0010
0000
0000
0000
0000
0000
0100
0000
0010
0000
0000
0000
0100
0000
0000
0000
0010
0000
1000
0000
0001
0000
0010
0000
0100
0010
0001
0000
1000
0000
0010
0000
,  // measure 19
0100
0010
0000
0010
0000
0001
0100
0010
1000
0100
0010
0000
0110
0000
0000
0000
,  // measure 20
0020
0000
0000
0000
0000
0000
0130
0000
0010
0000
0000
0000
0100
0000
0000
0000
0010
0000
1000
0000
0001
0000
0010
0000
0100
0010
0001
0000
1000
0000
0010
0000
,  // measure 21
0100
0010
0000
0010
0000
0001
0100
0010
1000
0100
0010
0000
0110
0000
M00M
0000
,  // measure 22
0001
0100
0010
0100
0001
1000
0100
1000
0010
0100
0001
0010
0100
0010
0010
0010
,  // measure 23
0001
1000
0010
0100
0010
1000
0001
1000
0010
0100
0001
0010
0100
0010
0100
0010
,  // measure 24
0100
1000
0010
0100
0001
1000
0100
1000
0010
0100
0001
1000
0100
1000
1000
1000
,  // measure 25
0010
0100
0010
1000
0001
0010
0100
0010
0001
1000
0010
0100
0110
0000
0110
0000
,  // measure 26
0010
1000
0100
0001
0100
0010
0001
0010
0100
1000
0010
0001
0010
0100
0100
0100
,  // measure 27
0010
1000
0100
1000
0001
0100
1000
0100
0001
1000
0010
0100
0001
0100
0001
0100
,  // measure 28
0010
0000
0000
0100
0010
0100
0001
0100
0010
1000
0001
0010
1000
0010
0010
0010
,  // measure 29
0001
0100
0010
0100
0001
1000
0100
1000
0010
0100
0001
0000
0101
0000
0000
0000
,  // measure 30
0020
0000
0000
0130
0010
0100
0001
0100
0010
1000
0001
0010
1000
0010
0010
0010
,  // measure 31
0001
0100
0010
0100
0001
1000
0100
1000
0010
0100
0001
0000
0101
0000
0000
0000
,  // measure 32
0001
0000
0100
0100
0000
0000
0010
0000
1000
0000
0100
0100
0000
0000
0010
0010
,  // measure 33
0001
0000
1000
1000
0000
0000
0001
0000
0100
0000
0010
0010
0000
0000
0100
0100
,  // measure 34
0001
0000
0010
0010
0000
0000
0010
0000
0001
0000
1000
1000
0000
0000
1000
1000
,  // measure 35
0010
0000
0100
0100
0000
0000
0100
0000
0010
0000
1000
1000
0000
0000
0001
0001
,  // measure 36
0010
0100
0000
0010
0000
0001
0010
0001
0010
0100
0010
0001
0100
0000
0100
0000
,  // measure 37
0010
1000
0000
0010
0000
1000
0100
0010
0100
1000
0010
0100
0001
0000
0100
0000
,  // measure 38
0001
1000
0000
0001
0000
1000
0010
0001
0010
1000
0001
0010
0100
0000
0100
0000
,  // measure 39
1000
0010
0000
1000
0000
0010
0100
1000
0100
0001
0100
0010
1000
0000
0001
0000
,  // measure 40
0001
0100
0000
0001
0000
0100
0001
0010
0100
0010
0001
0100
0010
0000
0010
0000
,  // measure 41
1000
0100
0000
1000
0000
0100
1000
0010
0100
0010
1000
0100
0010
0000
0010
0000
,  // measure 42
0001
0010
0000
0001
0000
0010
0001
1000
0010
0001
0010
1000
0001
0000
0001
0000
,  // measure 43
1000
0010
0000
1000
0000
0010
1000
0001
0010
1000
0010
0001
1000
0000
1000
0000
,  // measure 44
0001
0000
0100
0000
0000
0000
0010
0000
0000
0000
0100
0000
0001
0000
1000
0000
0100
0000
0000
0000
0100
0000
1000
0001
1000
0000
0001
0000
0100
0000
0000
0000
,  // measure 45
0001
0000
1000
0000
0000
0000
0100
0000
0000
0000
0010
0000
0100
0000
1000
0000
0001
0000
0100
0000
0001
1000
0001
0000
0010
0000
0000
0000
0100
0010
0100
0010
,  // measure 46
0100
1000
0000
0100
0000
0010
0001
0100
0010
0100
0000
0001
0000
0100
0010
1000
,  // measure 47
0100
0000
0000
0000
0000
0000
0000
0000
0000
0000
0000
0000
0000
0000
0000
0000
0000
0000
0000
0000
0000
0000
0000
0000
0100
0000
0000
0000
0000
0000
0000
0000
0000
0000
0000
0000
0000
0000
0000
0000
0000
0000
0000
0000
0000
0000
0000
0000
0100
0000
0000
0000
0000
0000
0000
0000
0010
0000
0000
0000
0000
0000
0000
0000
0001
0000
0000
0000
0000
0000
0000
0000
1000
0000
0000
0000
0000
0000
0000
0000
0000
0000
0000
0000
0000
0000
0000
0000
0000
0000
0000
0000
0000
0000
0000
0000
0001
0000
0000
0000
0000
0000
0100
0000
0000
0000
0000
0000
0010
0000
0000
0000
0000
0000
1000
0000
0000
0000
0000
0000
0001
0000
0000
0000
0000
0000
0000
0000
0000
0000
0000
0000
0100
0000
0000
0000
0000
0000
0000
0000
0000
0000
0000
0000
0001
0000
0000
0000
0000
0000
0000
0000
0000
0000
0000
0000
0000
0000
0000
0000
0000
0000
0000
0000
0000
0000
0000
0000
0000
0000
0000
0000
0000
0000
0000
0000
0000
0000
0000
0000
0000
0000
0000
0000
0000
0000
0000
0000
0000
0000
0000
0000
,  // measure 48
0101
0000
0000
0000
0001
0000
0010
0000
0100
0000
0000
0000
0100
0000
0000
0000
0001
0000
0010
0000
0100
0000
1000
0000
0100
0010
0100
0000
1000
0000
0001
0000
,  // measure 49
0100
0000
0010
0100
0001
0000
0001
0000
0100
1000
0001
1000
0010
0000
0100
0000
,  // measure 50
0010
0000
0000
0000
1000
0000
0100
0000
0010
0000
0000
0000
0010
0000
0000
0000
1000
0000
0100
0000
0010
0000
0001
0000
0010
0100
0010
0000
0001
0000
1000
0000
,  // measure 51
0010
0100
0100
1000
0010
0010
0100
1000
0001
0100
0010
1000
1010
0000
1001
0000
,  // measure 52
1100
0000
0000
0000
1000
0000
0010
0000
0100
0000
0000
0000
0100
0000
0000
0000
1000
0000
0010
0000
0100
0000
0001
0000
0100
0001
0100
0000
0010
0000
1000
0000
,  // measure 53
0100
0000
0000
0000
0000
0000
0010
0000
0000
0001
0000
0000
1000
0000
0000
0000
0000
0000
1000
0000
0000
0000
0000
0000
0010
0000
0001
0000
0010
0000
0100
0000
1000
0000
0100
0000
0010
0000
0000
0000
0000
0000
0100
0000
0000
0000
0000
0000
,  // measure 54
0010
0000
0000
0000
0000
0000
0100
0000
0010
0000
0000
0000
0100
0000
0000
0000
0010
0000
0001
0000
1000
0000
0010
0000
0100
0010
1000
0000
0001
0000
0010
0000
,  // measure 55
0100
0010
0000
0010
0000
1000
0100
0010
0001
0100
0010
0000
0110
0000
0000
0000
,  // measure 56
0020
0000
0000
0000
0000
0000
0130
0000
0010
0000
0000
0000
0100
0000
0000
0000
0010
0000
0001
0000
1000
0000
0010
0000
0100
0010
1000
0000
0001
0000
0010
0000
,  // measure 57
0100
0010
0000
0010
0000
1000
0100
0010
0001
0100
0010
0000
0110
0000
M00M
0000
,  // measure 58
1000
0100
0010
0100
1000
0001
0100
0001
0010
0100
1000
0010
0100
0010
0010
0010
,  // measure 59
1000
0001
0010
0100
0010
0001
1000
0001
0010
0100
1000
0010
0100
0010
0100
0010
,  // measure 60
0100
0001
0010
0100
1000
0001
0100
0001
0010
0100
1000
0001
0100
0001
0001
0001
,  // measure 61
0010
0100
0010
0001
1000
0010
0100
0010
1000
0001
0010
0100
0110
0000
0110
0000
,  // measure 62
0010
0001
0100
1000
0100
0010
1000
0010
0100
0001
0010
1000
0010
0100
0100
0100
,  // measure 63
0010
0001
0100
0001
1000
0100
0001
0100
1000
0001
0010
0100
1000
0100
1000
0100
,  // measure 64
0010
0000
0000
0100
0010
0100
1000
0100
0010
0001
1000
0010
0001
0010
0010
0010
,  // measure 65
1000
0100
0010
0100
1000
0001
0100
0001
0010
0100
1000
0000
1100
0000
0000
0000
,  // measure 66
0020
0000
0000
0130
0010
0100
1000
0100
0010
0001
1000
0010
0001
0010
0010
0010
,  // measure 67
1000
0100
0010
0100
1000
0001
0100
0001
0010
0100
1000
0000
1100
0000
0000
0000
,  // measure 68
1000
0010
0000
0100
0000
0010
0100
0001
0010
0100
0001
0100
0010
0000
0001
0000
,  // measure 69
1000
0010
0000
0100
0000
0010
1000
0100
0010
1000
0010
0100
1000
0000
0001
0000
,  // measure 70
0001
0010
0000
0100
0000
0010
0100
1000
0010
0100
1000
0100
0010
0000
1000
0000
,  // measure 71
0001
0010
0000
0100
0000
0010
0001
0100
0010
0001
0010
0100
0001
0000
1000
0000
,  // measure 72
0010
0100
0000
0010
0000
0100
0010
1000
0100
0001
0010
1000
0001
0000
0000
0000
;
