#VERSION:0.83;
#TITLE:Tiferet;
#SUBTITLE:;
#ARTIST:xi + Sta;
#TITLETRANSLIT:;
#SUBTITLETRANSLIT:;
#ARTISTTRANSLIT:;
#GENRE:;
#ORIGIN:;
#CREDIT:;
#BANNER:banner.png;
#BACKGROUND:background.png;
#PREVIEWVID:;
#JACKET:jacket.png;
#CDIMAGE:;
#DISCIMAGE:;
#LYRICSPATH:;
#CDTITLE:;
#MUSIC:Tiferet.ogg;
#OFFSET:-0.168111;
#SAMPLESTART:20.355677;
#SAMPLELENGTH:13.714285;
#SELECTABLE:YES;
#DISPLAYBPM:*;
#BPMS:0.000=280.000,
63.000=260.000,
64.500=250.000,
66.000=240.000,
67.500=230.000,
69.000=220.000,
70.500=210.000,
72.000=200.000,
72.500=190.000,
73.000=180.000,
73.500=170.000,
74.000=160.000,
74.500=150.000,
75.000=140.000,
79.500=280.000,
264.000=275.000,
300.000=278.000,
317.000=277.000,
325.000=275.000,
331.000=278.000,
335.000=280.000,
414.000=277.000,
421.000=280.000,
467.500=260.000,
469.000=250.000,
470.500=240.000,
472.000=230.000,
473.500=220.000,
475.000=210.000,
476.000=200.000,
476.500=190.000,
477.000=180.000,
477.500=170.000,
478.000=160.000,
478.500=150.000,
479.000=140.000,
482.625=280.000,
630.000=140.000;
#STOPS:;
#DELAYS:;
#WARPS:;
#TIMESIGNATURES:0.000=4=4;
#TICKCOUNTS:0.000=4;
#COMBOS:0.000=1;
#SPEEDS:0.000=1.000=0.000=0;
#SCROLLS:0.000=1.000;
#FAKES:;
#LABELS:0.000=Song Start;
#BGCHANGES:;
#KEYSOUNDS:;
#ATTACKS:
;

//---------------dance-single - ----------------
#NOTEDATA:;
#CHARTNAME:;
#STEPSTYPE:dance-single;
#DESCRIPTION:;
#CHARTSTYLE:;
#DIFFICULTY:Challenge;
#METER:13;
#RADARVALUES:0.986409,1.350369,0.460324,0.291087,0.331704,1020.000000,952.000000,68.000000,43.000000,0.000000,0.000000,0.000000,0.000000,0.000000,0.986409,1.350369,0.460324,0.291087,0.331704,1020.000000,952.000000,68.000000,43.000000,0.000000,0.000000,0.000000,0.000000,0.000000;
#CREDIT:Daniel Van Eden;
#DISPLAYBPM:*;
#NOTES:
// measure 0
0000
0000
0000
0000
,  // measure 1
0000
0000
0000
0000
,  // measure 2
0000
0000
0000
0000
,  // measure 3
0000
0000
0000
0000
,  // measure 4
1000
0100
0000
0011
0000
0000
0010
0000
,  // measure 5
0001
0000
1000
0000
0001
0100
0000
1010
,  // measure 6
0000
0000
0000
0010
0000
0000
1000
0000
0100
0000
0010
0000
0001
0000
0000
0000
0000
0000
0010
0000
0000
0001
0000
0000
,  // measure 7
0000
0000
0000
1100
0000
0000
0000
0000
0000
0100
0000
0000
1000
0000
0010
0000
1000
0000
0001
0000
0000
0100
0000
0000
,  // measure 8
0001
0010
0001
1000
0100
0010
0100
1000
,  // measure 9
0010
0100
0001
2002
0000
0000
0000
3003
,  // measure 10
0000
1000
0010
0000
0101
0000
0100
0010
,  // measure 11
1000
0100
0010
0001
0100
0010
1000
0002
,  // measure 12
0010
0000
0013
0010
0000
0110
0000
0100
,  // measure 13
1000
0000
0000
0001
0000
0000
1000
0000
0000
0000
0000
0000
1000
0000
0000
0010
0000
0000
0100
0000
0000
0010
0000
1000
,  // measure 14
0000
0100
0000
0010
0000
0001
0000
0100
0000
0010
0000
0000
1000
0000
0000
0100
0000
0000
0010
0000
0000
0001
0000
0000
,  // measure 15
0100
0001
1000
0010
0100
0001
1000
0100
,  // measure 16
1000
0010
0100
0001
0010
0100
1000
0100
,  // measure 17
0010
0001
0010
0100
1000
1000
0010
0100
,  // measure 18
0100
0001
0010
0010
0100
1001
1001
0220
,  // measure 19
0000
0000
0000
0000
0000
0000
0000
0330
,  // measure 20
0000
0000
0000
0000
,  // measure 21
0000
0000
0000
0000
0001
0100
0010
1000
,  // measure 22
0100
0010
0000
0011
0000
0001
1000
0200
,  // measure 23
0000
1300
0010
1000
,  // measure 24
0001
0000
1100
0000
1000
0100
0001
0100
,  // measure 25
1000
0000
0001
0100
1000
0100
0001
0000
,  // measure 26
0100
0010
0000
1010
0000
1000
0001
0200
,  // measure 27
0000
0301
0010
0100
,  // measure 28
1000
0000
1010
0000
0110
0000
0010
0100
,  // measure 29
1000
0100
0001
0010
0001
0100
0010
1000
,  // measure 30
0100
0010
0000
0010
0100
1000
0001
0200
,  // measure 31
0000
0310
1000
0001
,  // measure 32
0011
0000
0000
1001
0000
0000
2200
0000
,  // measure 33
3300
0000
0010
1000
0010
1000
0002
0000
,  // measure 34
0103
0000
2000
0000
3100
0000
0010
0001
,  // measure 35
0010
0000
0001
0000
0010
0000
0100
0000
0010
0000
0100
0000
1000
0000
0000
0010
0000
0000
0000
0000
0000
1001
0000
0000
,  // measure 36
0000
0000
1010
0000
1001
0000
0100
0001
,  // measure 37
0000
0001
0100
0010
1000
0100
0010
0001
,  // measure 38
0100
0001
0000
0101
0000
0001
1000
0020
,  // measure 39
0000
0000
1030
0000
0100
1000
0010
0100
,  // measure 40
0001
0000
0010
0001
0100
0010
0100
0000
,  // measure 41
0010
1000
0100
0010
0100
1000
0001
0000
,  // measure 42
1000
0100
0000
1100
0000
1000
0001
0020
,  // measure 43
0000
0031
1001
0100
,  // measure 44
1000
0000
1010
0000
0110
0000
0100
0001
,  // measure 45
0000
0001
1000
0001
1000
0100
0010
0001
,  // measure 46
0010
0100
0000
0110
0000
0010
0100
1000
,  // measure 47
0000
1000
0001
0000
0101
0000
0010
0000
,  // measure 48
0011
0000
0000
1010
0000
0000
2001
0000
,  // measure 49
3010
0100
0101
1002
,  // measure 50
0013
0000
2001
0000
3010
0000
0100
0001
,  // measure 51
1000
0000
0010
0000
1000
0000
0001
0000
0100
0000
0001
0000
0010
0000
0000
0100
0000
0000
0000
0000
0000
0100
0000
0000
,  // measure 52
1000
0100
1000
0001
1000
0100
0010
0001
,  // measure 53
0100
0000
0001
1000
0001
0100
0001
1000
,  // measure 54
0001
0000
0000
0000
0000
0000
0000
0000
0000
0010
0000
0000
0000
0000
0000
0000
0000
0000
0010
0000
0000
0000
0000
0000
0001
0000
0000
0000
0000
0000
0000
0000
1000
0000
0000
0000
0000
0000
0000
0000
1000
0000
0000
0000
0010
0000
0000
0000
,  // measure 55
0100
0000
0000
0010
0100
0000
0001
0010
,  // measure 56
0100
0010
0001
0010
0100
1000
0001
1000
,  // measure 57
0100
0010
0001
1000
0001
0100
0000
0100
,  // measure 58
0001
0000
1000
0010
1000
0000
0001
0100
,  // measure 59
0001
0000
1000
0100
1000
0001
1000
0100
,  // measure 60
0010
0002
0000
0000
0013
0000
0100
1000
,  // measure 61
0001
1000
0010
0100
0001
0000
1000
0001
,  // measure 62
0100
0000
0000
0010
0000
0000
1000
0000
0000
0001
0000
0000
0100
0000
0001
0000
1000
0000
0010
0000
1000
0000
0001
0000
,  // measure 63
0100
0000
0010
0100
0000
0100
0001
0000
,  // measure 64
1000
0100
0010
0100
1000
0000
0011
0000
,  // measure 65
0010
0001
1000
0100
1000
0001
0010
0000
,  // measure 66
2001
0000
0000
3010
0100
0000
0201
0000
,  // measure 67
0000
0301
0010
0001
1000
0000
0100
0010
,  // measure 68
0001
0100
0010
1000
0100
1000
0010
0100
,  // measure 69
0001
0000
2000
0000
0000
3000
0010
1000
,  // measure 70
0100
0000
0000
0010
0000
0000
0001
0000
0000
0000
0000
0000
1001
0000
0000
0000
0000
0000
0100
0000
1000
0000
0100
0000
,  // measure 71
0010
0000
0000
0110
0000
0000
0100
0010
0001
0100
0010
1000
,  // measure 72
0200
0000
0010
0000
,  // measure 73
1000
0000
2300
0000
,  // measure 74
0010
0000
0000
0000
3001
0100
0001
0100
,  // measure 75
0010
0100
0001
0010
0100
1000
0010
1000
,  // measure 76
0010
1000
0001
0100
0001
1000
0100
1000
,  // measure 77
0010
0100
0001
0100
0001
1000
0100
0000
,  // measure 78
1100
0000
0100
1000
0100
0010
0001
0100
,  // measure 79
0010
1000
0010
0010
1000
0010
1000
0010
,  // measure 80
1000
0010
0220
0000
0330
0000
0000
1010
,  // measure 81
0000
0102
0000
0000
,  // measure 82
0000
0000
0000
0000
1000
0000
1000
0000
1003
0000
0000
0000
,  // measure 83
1010
0000
1000
0000
0100
0000
0010
0100
,  // measure 84
0010
0001
1000
0001
0010
0100
1000
0001
,  // measure 85
0100
0000
0000
0001
0000
0000
0010
0000
0000
0100
0000
0000
1000
0000
0010
0000
1000
0000
0010
0000
0000
0100
0000
0000
,  // measure 86
0001
1000
0010
0100
0100
0010
1000
1000
,  // measure 87
0001
0010
0001
0100
0010
1000
0100
0010
,  // measure 88
0100
0000
0000
1000
0000
0000
0010
0000
1000
0000
0100
0000
0010
0000
0001
0000
0010
0000
0100
0000
0000
1000
0000
0000
,  // measure 89
0001
0000
0000
0010
0000
0000
0001
0000
0000
1000
0000
0000
0010
0000
0100
0000
0010
0000
1000
0000
0000
0001
0000
0000
,  // measure 90
1000
0001
0010
0001
1000
0010
1000
0001
,  // measure 91
1000
0001
0010
0100
0100
0010
0001
0001
,  // measure 92
1000
0000
0000
0010
0000
0000
0100
0000
0000
0010
0000
0000
1000
0000
0000
0001
0000
0000
0010
0000
0001
0000
0010
0000
,  // measure 93
0100
0000
1000
0000
0100
0000
1000
0000
0100
0000
0010
0000
0001
0000
0000
0100
0000
0000
0010
0000
0000
1000
0000
0000
,  // measure 94
1000
0010
1000
1000
0010
1000
0010
1000
,  // measure 95
0010
0100
0100
0010
0100
0100
0010
0100
,  // measure 96
0010
0100
0001
0010
0010
0001
0010
0010
,  // measure 97
0001
0010
0001
0010
0100
0010
0010
0100
,  // measure 98
0010
0010
0100
0010
0100
0010
0001
1000
,  // measure 99
1000
0010
1000
1000
0100
0010
0100
0010
,  // measure 100
0001
0010
0010
0001
0100
0100
0010
1000
,  // measure 101
0010
1000
0001
1000
0100
1000
0001
0100
,  // measure 102
0010
0000
0000
0100
0000
0000
0001
0000
0000
0010
0000
0000
0100
0000
1000
0000
0001
0000
0010
0000
0001
0000
1000
0000
,  // measure 103
0100
0010
0001
0010
0100
1000
0002
0000
0000
0000
0000
0000
,  // measure 104
2000
0000
0000
3003
,  // measure 105
0000
0000
0001
1000
0000
0000
0000
0000
,  // measure 106
0000
0000
0000
0000
0000
0000
1000
0001
,  // measure 107
0000
0000
0000
0000
0000
0000
0000
0000
0000
0000
0000
0000
0010
0000
1000
0000
0010
0000
1000
0000
0000
0001
0000
0000
,  // measure 108
0100
0010
0000
0110
0000
0010
0100
0001
,  // measure 109
0010
0000
0000
0001
0000
0000
1000
0000
0100
0000
0010
0000
0001
0000
0000
0100
0000
0000
0001
0000
0000
1000
0000
0000
,  // measure 110
0100
1000
0001
0010
0001
1000
0000
0000
,  // measure 111
1010
0000
0010
1000
0100
0010
0100
0010
,  // measure 112
0001
0100
0001
0000
0101
0000
0100
0010
,  // measure 113
0000
0010
1000
0000
0001
0000
0011
0000
,  // measure 114
0010
0000
0000
0001
0000
0000
1000
0000
0000
0001
0000
0000
1000
0000
0000
0010
0000
0000
1000
0000
0010
0000
1000
0000
,  // measure 115
0001
0000
0100
0000
0001
0000
0010
0000
0000
0100
0000
0000
1000
0000
0000
0010
0000
0000
0100
0000
0000
0001
0000
0000
,  // measure 116
1000
0010
0100
0001
0010
0100
1000
0001
,  // measure 117
1000
0010
0100
0010
1000
0100
1000
0001
,  // measure 118
0100
0001
0010
0100
0100
1000
0010
0010
,  // measure 119
0100
0001
0001
0010
1001
1001
0220
0000
,  // measure 120
0000
0000
0000
0330
,  // measure 121
0000
0000
0000
0000
,  // measure 122
0000
0000
0000
0000
1000
0100
0010
0001
,  // measure 123
0100
0001
0000
0101
0000
0001
1000
0020
,  // measure 124
0000
1030
0001
0100
,  // measure 125
0001
0000
0110
0000
0100
0010
1000
0100
,  // measure 126
0010
0000
0100
0010
0001
0100
0010
0000
,  // measure 127
1000
0001
0000
1001
0000
1000
0001
0200
,  // measure 128
0000
0310
1000
0100
,  // measure 129
0010
0000
0011
0000
1001
0000
1000
0001
,  // measure 130
0000
0001
0010
0001
1000
0010
1000
0100
,  // measure 131
0010
0100
0000
0110
0000
0010
0001
2000
,  // measure 132
0000
3100
0010
0001
,  // measure 133
1001
0000
0000
0101
0000
0000
2010
0000
,  // measure 134
0000
0000
3100
0010
0001
0000
0012
0000
,  // measure 135
0103
0000
2010
0000
3100
0000
0010
0001
,  // measure 136
1000
0000
0001
0000
1000
0000
0100
0000
0000
1000
0000
0000
0001
0000
0000
0100
0000
0000
0010
0000
0000
1000
0000
0000
,  // measure 137
0001
0100
0001
1000
0001
0010
0001
1000
,  // measure 138
0010
0000
0000
0000
0000
0000
0100
0000
0001
0000
0100
0000
0010
0000
0000
1000
0000
0000
0100
0000
0000
0010
0000
0000
,  // measure 139
0001
1000
0100
0001
0100
1000
0001
1000
,  // measure 140
0010
0001
0010
1000
0010
0100
0001
1000
,  // measure 141
0100
1000
0100
0010
0100
0010
0001
1000
,  // measure 142
0010
0000
0100
0000
0001
0100
0001
0100
,  // measure 143
0010
0000
1010
0000
1001
0000
1000
0100
,  // measure 144
1000
0001
0100
1000
0100
0010
1000
0100
,  // measure 145
0010
0001
0010
0100
0010
0001
1000
0001
,  // measure 146
0100
0000
0010
0000
1000
0000
0010
0000
0100
0000
0001
0000
0100
0000
0000
0010
0000
0000
0100
0000
0000
0010
0000
0000
,  // measure 147
1000
0000
1000
0010
0000
0010
0100
0000
,  // measure 148
0001
1100
0110
0011
,  // measure 149
0010
0001
1000
0000
0100
1000
0010
1000
,  // measure 150
0001
0000
0000
0100
0000
0000
0001
0000
1000
0000
0100
0000
0010
0000
0000
0001
0000
0000
0000
0000
0000
0001
0000
0000
,  // measure 151
1000
0000
2002
0000
,  // measure 152
0000
0000
3003
0000
,  // measure 153
0100
0001
0100
0001
1000
0100
1000
0100
0010
0001
0010
0001
,  // measure 154
1000
0010
1000
0010
1000
0001
1000
0001
0100
0010
0100
0010
,  // measure 155
1000
0100
0010
0001
0100
0010
1000
0001
1000
0100
0010
0001
,  // measure 156
0100
0010
0100
0001
0100
1000
0100
0002
,  // measure 157
0000
0003
0000
0000
0220
0000
0000
0000
,  // measure 158
0330
0000
0000
0000
0000
0100
0002
2000
0000
0000
0000
0000
0000
0000
0000
0000
0000
0000
0000
0000
0000
0000
0000
0000
,  // measure 159
0000
0000
0000
0000
0000
0000
0000
3003
0000
0000
0000
0000
;
