#VERSION:0.83;
#TITLE:Second Life;
#SUBTITLE:;
#ARTIST:Sandro Silva X Richy George;
#TITLETRANSLIT:;
#SUBTITLETRANSLIT:;
#ARTISTTRANSLIT:;
#GENRE:;
#ORIGIN:;
#CREDIT:;
#BANNER:[VIP3 Last Dance] - Second Life.png;
#BACKGROUND:[VIP3 Last Dance] - Second Life-bg.png;
#PREVIEWVID:;
#JACKET:[VIP3 Last Dance] - Second Life-jacket.png;
#CDIMAGE:;
#DISCIMAGE:;
#LYRICSPATH:;
#CDTITLE:;
#MUSIC:[VIP3 Last Dance] - Second Life.ogg;
#OFFSET:-0.800000;
#SAMPLESTART:15.202613;
#SAMPLELENGTH:13.200000;
#SELECTABLE:YES;
#DISPLAYBPM:75.000000:150.000000;
#BPMS:0.000=150.000;
#STOPS:;
#DELAYS:;
#WARPS:;
#TIMESIGNATURES:0.000=4=4;
#TICKCOUNTS:0.000=4;
#COMBOS:0.000=1;
#SPEEDS:0.000=1.000=0.000=0;
#SCROLLS:0.000=1.000;
#FAKES:;
#LABELS:0.000=Song Start;
#BGCHANGES:;
#KEYSOUNDS:;
#ATTACKS:
;

//---------------dance-single - ----------------
#NOTEDATA:;
#CHARTNAME:;
#STEPSTYPE:dance-single;
#DESCRIPTION:;
#CHARTSTYLE:;
#DIFFICULTY:Medium;
#METER:8;
#RADARVALUES:0.459885,0.672220,0.782318,0.170851,0.197827,358.000000,271.000000,87.000000,19.000000,0.000000,0.000000,2.000000,0.000000,0.000000,0.459885,0.672220,0.782318,0.170851,0.197827,358.000000,271.000000,87.000000,19.000000,0.000000,0.000000,2.000000,0.000000,0.000000;
#CREDIT:;
#OFFSET:-0.800000;
#BPMS:0.000000=150.000000
,84.000000=300.000000
,85.000000=150.000000
,96.000000=75.000000
,98.000000=150.000000
,99.000000=75.000000
,106.250000=150.000000
,117.000000=75.000000
,135.000000=150.000000
,183.000000=300.000000
,184.000000=150.000000
,200.000000=75.000000
,207.250000=150.000000
,218.000000=75.000000
;
#STOPS:84.000000=0.200000
,98.000000=0.399998
,106.000000=0.200001
,106.250000=0.100000
,183.000000=0.199997
,199.000000=0.400002
,207.000000=0.199997
,207.250000=0.100006
;
#DELAYS:;
#WARPS:;
#TIMESIGNATURES:0.000000=4=4
;
#TICKCOUNTS:0.000000=4
;
#COMBOS:0.000000=1
;
#SPEEDS:0.000000=1.000000=0.000000=0
;
#SCROLLS:0.000000=1.000000
,64.000000=-1.000000
,64.500000=1.000000
,65.000000=-1.000000
,65.500000=1.000000
,66.000000=-1.000000
,66.500000=1.000000
,67.000000=-1.000000
,67.500000=1.000000
,84.000000=0.500000
,85.000000=1.000000
,96.500000=2.000000
,97.000000=1.000000
,97.500000=2.000000
,98.000000=1.000000
,106.000000=2.000000
,106.250000=1.000000
,117.500000=2.000000
,118.000000=1.000000
,118.500000=2.000000
,119.000000=1.500000
,135.000000=1.000000
,163.000000=-1.000000
,163.500000=1.000000
,164.000000=-1.000000
,164.500000=1.000000
,165.000000=-1.000000
,165.500000=1.000000
,166.000000=-1.000000
,166.500000=1.000000
,183.000000=0.500000
,184.000000=1.000000
,195.000000=0.500000
,195.500000=1.000000
,196.000000=0.500000
,196.500000=1.000000
,197.000000=0.500000
,197.500000=1.000000
,198.000000=0.500000
,198.500000=1.000000
,200.500000=1.500000
,201.000000=1.000000
,201.750000=1.500000
,202.000000=1.000000
,202.500000=1.500000
,203.000000=1.000000
,203.750000=1.500000
,204.000000=1.000000
,204.500000=1.500000
,205.000000=1.000000
,205.750000=1.500000
,206.000000=1.000000
,206.500000=1.500000
,207.000000=2.000000
,207.250000=1.000000
,218.500000=2.000000
,219.000000=1.000000
,219.500000=2.000000
,220.000000=1.000000
;
#FAKES:;
#LABELS:0.000000=Song Start
;
#NOTES:
0000
0000
0000
0000
,
0000
0000
0000
0000
,
0000
0000
0000
0000
,
0000
0000
0000
0000
,
0000
0000
0000
0000
,
0000
0000
0000
0000
,
0000
0000
0001
0100
0001
0020
0000
0200
,
0000
0030
0000
0300
0000
2000
0000
0002
,
0000
3000
0000
0003
0000
0000
0001
1000
,
0100
0010
0100
0010
0100
0010
0100
0010
,
0100
0010
0100
0010
0100
0010
0001
0001
,
1000
0010
0100
0010
0100
0010
0100
0010
,
0100
0010
0100
0010
0100
0010
1000
1000
,
0001
0001
0001
0000
1000
1000
1000
0000
,
0001
0001
0001
0000
1000
1000
1000
0000
,
0040
0000
0000
0000
,
0030
0000
0000
0000
,
0000
0000
0000
0000
0101
0000
0000
0000
0101
0000
0000
0101
0000
0000
0101
0000
,
0001
0000
1000
0000
1100
0000
0000
0000
1100
0000
0000
1100
0000
0000
1000
0100
,
0010
0000
0000
0000
0011
0000
0000
0000
0011
0000
0000
0011
0000
0000
0011
0000
,
0001
0000
1000
0000
1010
0000
0000
0000
1010
0000
0000
1010
0000
0000
1010
0000
,
0000
0000
0000
0000
1100
0000
0000
0000
1001
0000
0000
0101
0000
0000
1001
0000
,
1000
0000
0010
0000
0100
0000
0000
0000
0101
0000
0000
1001
0000
0000
0001
1000
,
0100
0000
0000
0000
0011
0000
0000
0000
1001
0000
0000
1010
0000
0000
1001
0000
,
0000
0000
0000
0000
0000
0000
0000
0000
0020
0030
0000
0000
0010
0000
0110
0000
,
0000
0100
1100
0000
1001
0000
0100
0000
0011
0000
0001
1000
0010
0000
1010
0000
,
0100
0000
0010
0000
0110
0000
0000
0000
0001
0000
0010
0000
0100
1000
0100
0000
0000
0000
0000
0000
0000
0000
0000
0000
0011
0000
0000
0000
0000
0000
1001
0000
,
0000
0000
1001
0000
1000
0000
0010
0000
0110
0000
0000
0000
0101
0000
0000
0110
,
0000
0000
0100
0001
1000
0000
0000
0000
0110
0000
0000
0000
1001
0000
0000
1100
,
0000
1100
0000
0000
0000
0000
0102
0000
,
0010
0000
1000
0000
0000
0000
1000
0003
0001
0100
0000
0010
2000
0000
0000
0000
,
0001
0000
0100
0000
3000
1000
0100
0000
0010
0100
0000
0000
0200
0000
0000
0000
,
1000
0000
0010
0000
0000
0000
0010
0300
0100
0010
0000
0001
0200
0000
0000
0000
,
0310
0100
0000
0001
1000
0001
0100
0000
0010
0000
2000
0000
3001
0000
0100
0000
,
0001
0100
0001
0100
0001
0100
0001
0100
,
0001
0100
0001
0100
0010
0010
1000
0100
,
1000
0100
1000
0100
1000
0100
1000
0100
,
1000
0100
1000
0100
0010
0010
0001
0001
,
0001
0000
1000
1000
1000
0000
0001
0001
,
0001
0000
1000
1000
1000
0000
0040
0000
,
0000
0000
0000
0030
,
0000
0000
0000
0000
,
0101
0000
0000
0000
0101
0000
0000
0101
0000
0000
0101
0000
0100
0000
0010
0000
,
1010
0000
0000
0000
1010
0000
0000
1010
0000
0000
1000
0001
0010
0000
0000
0000
,
0011
0000
0000
0000
0011
0000
0000
0011
0000
0000
0011
0000
0010
0000
0100
0000
,
1100
0000
0000
0000
1100
0000
0000
1100
0000
0000
1100
0000
0000
0000
0000
0000
,
1001
0000
0000
0000
0101
0000
0000
0110
0000
0000
0101
0000
0001
0000
0010
0000
,
0110
0000
0000
0000
1100
0000
0000
0110
0000
0000
0001
0010
0100
0000
0000
0000
,
0110
0000
0000
0000
0011
0000
0000
1001
0000
0000
0011
0000
0000
0000
0000
0000
,
0000
0000
0000
1001
,
1200
0000
0310
0000
0201
0000
0000
0310
2010
0000
3001
0000
0021
0000
0030
0100
,
2100
0000
3010
0000
0210
0000
0300
0001
2001
0000
3010
0000
0000
0000
0000
0000
,
0101
0000
0000
0110
0000
0000
0101
0000
0001
0000
0010
0000
0110
0000
0000
0000
,
1100
0000
0000
0110
0000
0000
0100
1000
0001
0000
0000
0000
1001
0000
0000
0000
,
0011
0000
0000
1001
0000
0000
1010
0000
0000
0000
0000
0000
0000
0000
0000
0000
,
2002
0000
0000
3003
0000
0000
0000
0000
;

//---------------dance-single - ----------------
#NOTEDATA:;
#CHARTNAME:;
#STEPSTYPE:dance-single;
#DESCRIPTION:;
#CHARTSTYLE:;
#DIFFICULTY:Hard;
#METER:10;
#RADARVALUES:0.598621,0.792715,0.017984,0.296741,0.642939,466.000000,464.000000,2.000000,33.000000,0.000000,0.000000,2.000000,0.000000,0.000000,0.598621,0.792715,0.017984,0.296741,0.642939,466.000000,464.000000,2.000000,33.000000,0.000000,0.000000,2.000000,0.000000,0.000000;
#CREDIT:;
#OFFSET:-0.800000;
#BPMS:0.000000=150.000000
,84.000000=200.000000
,85.000000=150.000000
,96.000000=75.000000
,98.000000=150.000000
,99.000000=75.000000
,105.000000=150.000000
,105.666664=375.000000
,107.333336=150.000000
,108.000000=300.000000
,109.000000=150.000000
,120.000000=75.000000
,138.000000=150.000000
,186.000000=300.000000
,187.000000=150.000000
,203.000000=75.000000
,209.000000=150.000000
,209.666672=375.000000
,211.333328=150.000000
,212.000000=300.000000
,213.000000=150.000000
,224.000000=75.000000
;
#STOPS:84.000000=0.100000
,98.000000=0.399998
,108.000000=0.100000
,109.000000=0.100000
,186.000000=0.199997
,202.000000=0.400002
,212.000000=0.100000
,213.000000=0.100000
;
#DELAYS:;
#WARPS:;
#TIMESIGNATURES:0.000000=4=4
;
#TICKCOUNTS:0.000000=4
;
#COMBOS:0.000000=1
;
#SPEEDS:0.000000=1.000000=0.000000=0
;
#SCROLLS:0.000000=1.000000
,64.000000=-1.000000
,64.500000=1.000000
,65.000000=-1.000000
,65.500000=1.000000
,66.000000=-1.000000
,66.500000=1.000000
,67.000000=-1.000000
,67.500000=1.000000
,84.000000=0.750000
,85.000000=1.000000
,96.500000=2.000000
,97.000000=1.000000
,97.500000=2.000000
,98.000000=1.000000
,105.000000=0.500000
,105.666664=0.200000
,107.333336=0.500000
,109.000000=1.000000
,120.000000=1.250000
,120.500000=1.750000
,121.000000=1.250000
,121.500000=1.750000
,122.000000=1.500000
,138.000000=1.000000
,166.000000=-1.000000
,166.500000=1.000000
,167.000000=-1.000000
,167.500000=1.000000
,168.000000=-1.000000
,168.500000=1.000000
,169.000000=-1.000000
,169.500000=1.000000
,186.000000=0.500000
,187.000000=1.000000
,198.000000=0.500000
,198.500000=1.000000
,199.000000=0.500000
,199.500000=1.000000
,200.000000=0.500000
,200.500000=1.000000
,201.000000=0.500000
,201.500000=1.000000
,203.500000=1.500000
,204.000000=1.000000
,204.750000=1.500000
,205.000000=1.000000
,205.500000=1.500000
,206.000000=1.000000
,206.750000=1.500000
,207.000000=1.000000
,207.500000=1.500000
,208.000000=1.000000
,209.000000=0.500000
,209.666672=0.200000
,211.333328=0.500000
,213.000000=1.000000
,224.500000=2.000000
,225.000000=1.000000
,225.500000=2.000000
,226.000000=1.000000
;
#FAKES:;
#LABELS:0.000000=Song Start
;
#NOTES:
// measure 0
0000
0000
0000
0000
,  // measure 1
0000
0000
0000
0000
,  // measure 2
0000
0000
0000
0000
,  // measure 3
0000
0000
0000
0000
,  // measure 4
0000
0000
0000
0000
,  // measure 5
1100
0100
0100
0100
,  // measure 6
0100
0000
0100
1000
0100
0010
0100
1000
,  // measure 7
0100
0000
0100
0000
0100
0001
0100
0010
,  // measure 8
0100
0000
0100
0000
0100
0000
0100
1000
,  // measure 9
0010
0100
0001
0010
0100
0001
0100
0010
,  // measure 10
0001
0100
0010
0001
0010
0100
0001
0010
,  // measure 11
0100
1000
0010
0100
1000
0100
0010
1000
,  // measure 12
0100
0010
1000
0010
0100
1000
0010
0100
,  // measure 13
0001
0001
0100
0100
1000
1000
0100
0100
,  // measure 14
0001
0001
0010
0010
1000
1000
0010
0020
,  // measure 15
0400
0000
0000
0000
,  // measure 16
0330
0000
0000
0000
,  // measure 17
0000
0000
0000
0000
0001
1000
0001
1000
0001
0100
0001
1000
0100
1000
0001
0100
,  // measure 18
0010
0000
2000
0000
3001
0000
0010
0000
0100
1000
0100
0010
0100
0010
0001
1000
,  // measure 19
0020
0000
0030
0000
0100
0001
0100
0001
1000
0010
1000
0001
0010
0001
1000
0010
,  // measure 20
0100
0000
0000
0002
0000
0000
1003
0000
0000
0100
0000
0000
0010
0000
0001
0000
0010
0000
0100
0000
1000
0000
0001
0000
,  // measure 21
0000
0000
0000
0000
0100
0001
0100
0001
1000
0100
1000
0001
0100
0001
1000
0100
,  // measure 22
0010
0000
0002
0000
1003
0000
0010
0000
0100
0010
0100
0001
0100
0001
1000
0001
,  // measure 23
0020
0000
0030
0000
0100
1000
0100
1000
0001
0010
0001
1000
0010
1000
0001
0010
,  // measure 24
0200
0000
0000
0000
0300
0000
0000
0000
0200
0000
0000
0000
0300
0000
0000
0000
0000
0000
0000
0000
0000
0000
0000
0000
1000
0010
1000
0010
0200
0000
0000
0000
,  // measure 25
0310
0000
1000
0000
0200
0000
0000
0000
0310
0001
0010
0001
1000
0001
1000
0001
0200
0000
0000
0000
0310
0000
1000
0000
0001
0010
0001
0010
0200
0000
0000
0000
,  // measure 26
0310
0000
0000
0002
0000
0000
0203
0000
0000
0000
0000
0000
0301
0000
0000
0000
1000
0000
0000
0000
0100
0000
0000
0000
0000
0000
0000
0000
0000
0000
1000
0000
0000
0000
0000
0000
0000
0000
0000
0000
0001
0000
0000
0000
0010
0000
0000
0000
,  // measure 27
0000
0000
0000
0000
0000
0000
1000
0001
0100
0001
0100
0010
0100
0010
1000
0010
,  // measure 28
0100
0000
0002
0000
1003
0000
0100
0000
0010
0001
0010
0001
1000
0001
1000
0010
,  // measure 29
0200
0000
0300
0000
0010
1000
0010
1000
0001
0010
0001
1000
0100
1000
0010
0100
,  // measure 30
0002
0000
0003
1000
0002
0000
1003
0000
0100
0000
0010
0000
0001
0000
0100
0000
,  // measure 31
0010
0000
1000
0010
0100
0001
0000
0010
0100
0000
0010
0000
0001
0000
0100
0000
,  // measure 32
0001
1000
0100
0000
0002
0000
0000
0000
0103
0000
0010
0000
0001
0000
0100
0000
,  // measure 33
0010
0000
1000
0001
0010
1000
0000
0010
0100
0000
0010
0000
0001
0100
0000
1000
,  // measure 34
0100
0010
0100
0000
0002
0000
0003
0000
1000
0000
0001
0000
0100
0000
1000
0000
,  // measure 35
0100
0001
1000
0100
0001
0100
1000
0001
,  // measure 36
0100
1000
0100
0001
1000
0001
0010
1000
,  // measure 37
0010
0001
1000
0010
0001
0010
1000
0001
,  // measure 38
0010
1000
0010
0001
1000
1000
0100
0100
,  // measure 39
0010
0010
0001
0001
1000
1000
0010
0010
,  // measure 40
0100
0100
0001
0002
4000
0000
0000
0000
,  // measure 41
0000
0000
3003
0000
,  // measure 42
0000
0000
0000
0000
0000
0000
0000
0000
0000
0000
0000
0000
1000
0010
1000
0010
,  // measure 43
0100
0001
0100
0010
1000
0010
0100
0001
1000
0000
0200
0000
0310
0000
0001
0000
,  // measure 44
1000
0100
1000
0001
0010
0001
1000
0100
0020
0000
0030
0000
0100
0000
0100
0000
,  // measure 45
1000
0001
0100
0001
1000
0010
0100
0001
1000
0001
0020
0000
0130
0000
1000
0000
,  // measure 46
0001
0000
0000
0000
0100
0000
0000
0000
0001
0000
0000
0000
1000
0000
0000
0000
0100
0000
0000
0000
0010
0000
0000
0000
0000
0000
0000
0000
0000
0000
0000
0000
0000
0000
0000
0000
0001
0000
0000
0100
0000
0000
0001
0000
0000
0100
0000
0000
,  // measure 47
0010
1000
0010
0100
0001
0100
0010
1000
0001
0000
0020
0000
0130
0000
1000
0000
,  // measure 48
0001
0010
0001
1000
0100
1000
0001
0010
0200
0000
0300
0000
1000
0001
1000
0001
,  // measure 49
0100
0010
0100
0001
1000
0001
0010
0100
0010
0000
0000
0000
0010
0000
0000
0000
,  // measure 50
0010
0000
0000
0000
0010
0000
0000
0000
0020
0000
0030
0000
0001
0001
0100
0000
,  // measure 51
0010
1000
0000
0001
0010
0010
0100
0000
0001
0000
0000
0100
0010
0010
0001
0000
,  // measure 52
1000
0000
0000
0010
0000
0000
0000
0000
0000
0100
0000
0000
0001
0000
0000
0000
1000
0000
0000
0000
0100
0000
0000
0000
0000
0000
0000
0000
0000
0000
0010
0000
0000
0000
0000
0000
0000
0000
0000
0000
0001
0000
0000
0000
1000
0000
0000
0000
,  // measure 53
0000
0000
0000
0000
0000
0000
0010
1000
0001
0010
0100
1000
0100
0010
0001
1000
,  // measure 54
0100
0000
0002
0000
1003
0000
0010
0000
0001
1000
0010
0100
0010
1000
0001
0100
,  // measure 55
0020
0000
0030
0000
1000
0001
0010
0001
1000
0010
0100
0001
0100
0010
1000
0001
,  // measure 56
0020
0030
0020
0030
0202
0000
0000
0303
;
