#VERSION:0.83;
#TITLE:Roll the Dice;
#SUBTITLE:;
#ARTIST:lapix;
#TITLETRANSLIT:;
#SUBTITLETRANSLIT:;
#ARTISTTRANSLIT:;
#GENRE:;
#ORIGIN:;
#CREDIT:;
#BANNER:[VIP3 Last Dance] - Roll the Dice.png;
#BACKGROUND:[VIP3 Last Dance] - Roll the Dice-bg.png;
#PREVIEWVID:;
#JACKET:[VIP3 Last Dance] - Roll the Dice-jacket.png;
#CDIMAGE:;
#DISCIMAGE:;
#LYRICSPATH:;
#CDTITLE:;
#MUSIC:[VIP3 Last Dance] - Roll the Dice.ogg;
#OFFSET:0.873657;
#SAMPLESTART:95.107994;
#SAMPLELENGTH:12.000000;
#SELECTABLE:YES;
#DISPLAYBPM:165.000000;
#BPMS:0.000=165.000,
72.000=330.000,
74.000=82.500,
74.500=330.000,
76.500=82.500,
77.000=330.000,
79.000=82.500,
79.500=165.000,
81.500=330.000,
83.500=82.500,
84.000=330.000,
86.000=82.500,
86.500=165.000,
90.500=330.000,
92.500=82.500,
93.000=330.000,
95.000=82.500,
95.500=330.000,
97.500=82.500,
98.000=165.000,
100.000=330.000,
102.000=82.500,
102.500=165.000,
108.500=330.000,
110.500=82.500,
111.000=330.000,
113.000=82.500,
113.500=330.000,
115.500=82.500,
116.000=165.000,
118.000=330.000,
120.000=82.500,
120.500=330.000,
122.500=82.500,
123.000=165.000,
237.000=330.000,
239.000=165.000;
#STOPS:237.000=0.091,
237.500=0.091,
238.000=0.091,
238.500=0.091;
#DELAYS:;
#WARPS:;
#TIMESIGNATURES:0.000=4=4;
#TICKCOUNTS:0.000=4;
#COMBOS:0.000=1;
#SPEEDS:0.000=1.000=0.000=0;
#SCROLLS:0.000=1.000;
#FAKES:;
#LABELS:0.000=Song Start;
#BGCHANGES:;
#KEYSOUNDS:;
#ATTACKS:
;

//---------------dance-single - ----------------
#NOTEDATA:;
#CHARTNAME:;
#STEPSTYPE:dance-single;
#DESCRIPTION:;
#CHARTSTYLE:;
#DIFFICULTY:Hard;
#METER:11;
#RADARVALUES:0.773168,0.973775,0.633929,0.633929,0.820146,683.000000,603.000000,80.000000,80.000000,0.000000,0.000000,0.000000,0.000000,0.000000,0.773168,0.973775,0.633929,0.633929,0.820146,683.000000,603.000000,80.000000,80.000000,0.000000,0.000000,0.000000,0.000000,0.000000;
#CREDIT:ohaiimian;
#DISPLAYBPM:165.000000;
#NOTES:
// measure 0
0000
0000
0000
0000
,  // measure 1
0000
0000
0000
0000
,  // measure 2
0000
0000
0000
0000
,  // measure 3
0000
0000
0000
0000
,  // measure 4
1001
2002
0000
0000
0000
0000
0000
0000
,  // measure 5
0000
0000
3003
0000
,  // measure 6
1000
0100
0010
0001
0100
0000
0000
0000
0100
0000
0000
0000
0000
0000
0000
0000
,  // measure 7
0001
0100
0010
1000
0100
0000
0000
0000
0100
0000
0000
0000
0000
0000
0000
0000
,  // measure 8
0001
0010
0100
1000
0010
0000
0000
0000
0010
0000
0000
0000
0000
0000
0000
0000
,  // measure 9
1000
0010
0100
0001
0010
0000
0000
0000
0010
0100
0010
0000
1001
0000
0000
0000
,  // measure 10
1100
0000
0000
0000
0101
0000
0000
0000
1100
0000
0000
1000
0100
0000
0010
0000
,  // measure 11
0011
0000
0000
0000
1010
0000
0000
0000
0011
0000
0000
0001
0100
0000
0010
0000
,  // measure 12
1010
0000
0000
0000
1100
0000
0000
0000
1010
0000
0000
1000
0010
0000
0100
0000
,  // measure 13
0101
0000
0000
0000
0011
0000
0000
0000
0101
0000
0000
0001
0010
0000
0100
0000
,  // measure 14
1000
0010
1000
0010
1000
0000
0100
0000
0010
0001
0010
0001
0010
0000
0100
0000
,  // measure 15
1000
0100
1000
0100
1000
0000
0010
0000
0100
0001
0100
0001
0100
0000
0001
0000
,  // measure 16
1000
0010
1000
0001
0010
0001
1000
0010
0100
0001
1000
0100
0010
0001
1000
0010
,  // measure 17
0200
0010
0310
1001
,  // measure 18
2020
0000
0000
3030
0000
0202
0000
0000
,  // measure 19
0303
0000
2002
0000
0000
3003
0000
0001
,  // measure 20
1000
0100
0000
0022
0000
0000
0033
0000
,  // measure 21
2200
0000
0000
0000
3300
1000
1000
1000
,  // measure 22
0100
0000
0010
0001
0010
0100
1000
0010
0100
0000
0202
0000
0000
0000
0000
0000
,  // measure 23
0303
0000
2200
0000
0000
3300
0000
2002
,  // measure 24
0000
0000
3003
0000
1000
0001
0100
0000
,  // measure 25
2020
0000
0000
3030
0000
0001
0001
0001
,  // measure 26
1000
0000
0010
0100
0000
0001
1000
0000
0100
0000
0010
0001
1000
0000
0010
1000
,  // measure 27
0001
0022
0000
0000
0033
0000
2020
0000
,  // measure 28
0000
3030
0000
2002
0000
0000
3003
0000
,  // measure 29
1000
0001
0010
0000
2200
0000
0000
3300
,  // measure 30
0000
0202
0000
0000
0303
0000
1000
1000
,  // measure 31
1000
0000
0001
0000
1000
0010
1000
0000
0001
0010
0001
0000
2020
0000
3030
0000
,  // measure 32
2200
3300
0202
0303
0022
0033
0220
0330
,  // measure 33
2002
3003
0220
0330
2002
3003
1000
1000
,  // measure 34
0001
0000
0001
0000
1000
0001
1000
0001
0100
0010
0100
0010
1000
0100
0010
0001
,  // measure 35
0100
0010
1000
0010
0100
0001
0010
0100
1000
0010
0100
0000
0101
0000
0000
0000
,  // measure 36
1001
0000
0000
0000
1100
0000
0000
0000
1010
0000
0000
0000
0010
1000
0010
1000
,  // measure 37
0000
0001
0010
0000
0100
1000
0100
0000
0010
0001
0010
0000
0001
0000
0100
0000
,  // measure 38
0010
0000
1000
0010
1000
0000
0100
1000
0100
0000
0010
0000
0001
0000
1000
0000
,  // measure 39
0010
0000
0100
0001
0100
0000
0001
0010
0001
0000
0010
0000
0110
0000
0000
0000
,  // measure 40
1100
0000
0000
0000
0110
0000
0000
0000
0011
0000
0000
0000
0010
0001
0010
0001
,  // measure 41
0000
1000
0010
0000
0100
0000
0001
0000
1001
0000
0000
0000
0101
0000
0000
1100
,  // measure 42
0000
0000
1010
0000
0000
0011
0000
0000
1001
0000
0000
0000
1000
0000
0100
0010
,  // measure 43
0000
0100
0010
0000
0001
0000
1000
0000
1001
0000
0000
0000
0201
0000
0000
0320
,  // measure 44
0000
0000
2030
0000
0001
3000
1000
0000
1200
0000
0000
0320
0000
0000
0032
0000
,  // measure 45
0000
1003
0000
0000
0100
0000
0010
0000
0220
0000
0330
0000
0021
0000
0000
0230
,  // measure 46
0000
0000
2300
0000
0100
3000
0100
0000
0010
0000
0000
0101
0000
0000
0010
0000
,  // measure 47
0000
1100
0000
0000
1000
0000
0001
0000
0200
0000
0300
0000
1020
0000
0000
0230
,  // measure 48
0000
0000
0302
0000
1000
0003
0001
0000
0021
0000
0000
0230
0000
0000
2300
0000
,  // measure 49
0000
3002
0000
0000
0103
0000
0010
0000
2002
0000
3003
0000
1200
0000
0000
0320
,  // measure 50
0000
0000
0032
0000
1000
0003
0010
0000
1010
0000
0000
0011
0000
0000
0101
0000
,  // measure 51
0000
1100
0000
0000
1001
0000
0100
0000
0020
0000
0030
0000
2002
0000
0000
0000
,  // measure 52
0000
0000
0000
0000
,  // measure 53
0000
0000
0000
0000
,  // measure 54
0000
0000
0000
0000
,  // measure 55
0000
0000
0000
0000
0000
0000
3003
0000
0000
1000
0100
0010
,  // measure 56
0001
0100
0010
0100
0000
0100
0001
0000
0010
0001
0010
0100
,  // measure 57
1000
0010
0100
0010
0000
0010
1000
0000
0100
1000
0010
0100
,  // measure 58
0001
0000
0100
0001
0010
0100
1000
0000
1000
0010
0100
0001
,  // measure 59
1000
0000
0000
0000
0001
0000
0000
0000
0010
0000
0000
0000
0200
0000
0000
0000
0000
0000
1000
0000
0000
0000
0000
0000
1000
0000
0000
0000
0000
0000
1300
0000
0000
0000
0000
0000
0001
0000
0000
0000
0000
0000
0100
0000
0000
0001
0000
0000
,  // measure 60
0000
0100
0001
0000
0100
0000
0010
1000
0100
0000
1000
0000
0100
0000
1000
0100
,  // measure 61
0000
1000
0100
0000
0010
0000
0001
1000
0100
0000
0010
0000
0001
0000
1000
0010
,  // measure 62
0000
1000
0010
0000
0100
0000
0010
1000
0100
0000
0010
0000
0001
0000
0010
0001
,  // measure 63
0000
0010
0001
0000
0010
0000
0100
1000
0001
0000
0100
0000
0010
0000
1000
0100
,  // measure 64
1000
0100
1000
0000
0100
0000
0010
0001
0010
0001
0010
0000
0001
0000
0100
0001
,  // measure 65
0100
0001
0100
0000
0010
0000
1000
0010
1000
0010
1000
0000
0100
0010
0001
0000
,  // measure 66
0100
0010
1000
0000
0010
0100
0001
0000
0010
0100
1000
0000
0020
0000
0000
0000
,  // measure 67
0100
0000
0000
0000
0130
0000
0000
0000
2002
0000
3003
0000
1000
0000
0001
0010
,  // measure 68
0000
0100
0010
0001
0010
0000
0100
1000
0000
1000
0010
0100
0010
0000
1000
0100
,  // measure 69
0000
0010
0100
1000
0100
0000
0010
0001
0000
0001
0100
0010
0100
0000
0001
0010
,  // measure 70
0000
0100
0010
0001
0010
0000
0100
1000
0000
1000
0100
0010
0100
0000
1000
0100
,  // measure 71
0000
0010
0001
0010
0001
0000
0100
0010
0000
0010
1000
0010
1000
0000
0100
0010
,  // measure 72
0000
0001
0010
0100
1000
0000
0100
0010
0000
0001
0010
0100
1000
0000
0010
0100
,  // measure 73
0000
0001
0100
0010
1000
0000
0010
0100
0000
0001
0100
0010
1000
0000
0001
0010
,  // measure 74
0000
0100
0010
0001
0010
0000
0001
0100
0000
0010
1000
0000
0100
0000
1000
0100
,  // measure 75
0000
1000
0100
0000
0010
0001
0000
0010
0001
0000
1000
0000
1001
0000
0001
0100
,  // measure 76
0000
0010
1000
0010
0100
0000
0010
1000
0000
0100
0010
0001
0010
0000
0100
1000
,  // measure 77
0000
0010
0100
0001
0100
0000
0010
0100
0000
0001
1000
0100
1000
0000
0100
0010
,  // measure 78
0000
0001
0100
0001
1000
0000
0010
1000
0000
0100
0010
0001
1000
0000
0010
0100
,  // measure 79
0000
0001
0010
0100
1000
0000
0100
0010
0000
0100
1000
0000
1001
0000
0001
0100
,  // measure 80
0000
0100
0010
0000
1001
0000
1000
0100
0000
0100
0010
0000
0011
0000
0001
0100
,  // measure 81
0000
0100
0010
0000
1010
0000
1000
0100
0000
0100
1000
0000
1100
0000
0100
0010
,  // measure 82
0000
0010
0001
0000
0101
0000
0100
0010
0000
0010
0100
0000
0110
0000
1000
0001
,  // measure 83
0000
0001
0100
0000
0110
0000
0001
1000
0000
1000
0100
0000
0220
0000
0000
0000
,  // measure 84
0000
0000
0000
0330
;

//---------------dance-single - ----------------
#NOTEDATA:;
#CHARTNAME:;
#STEPSTYPE:dance-single;
#DESCRIPTION:;
#CHARTSTYLE:;
#DIFFICULTY:Medium;
#METER:7;
#RADARVALUES:0.456203,0.570834,0.269420,0.404130,0.114900,403.000000,369.000000,34.000000,51.000000,0.000000,0.000000,0.000000,0.000000,0.000000,0.456203,0.570834,0.269420,0.404130,0.114900,403.000000,369.000000,34.000000,51.000000,0.000000,0.000000,0.000000,0.000000,0.000000;
#CREDIT:ohaiimian;
#DISPLAYBPM:165.000000;
#NOTES:
// measure 0
0000
0000
0000
0000
,  // measure 1
0000
0000
0000
0000
,  // measure 2
0000
0000
0000
0000
,  // measure 3
0000
0000
0000
0000
,  // measure 4
2000
0002
0000
0000
0000
0000
0000
0000
,  // measure 5
0000
0000
3003
0000
,  // measure 6
0001
0100
0002
0000
0103
0000
0000
0000
,  // measure 7
1000
0100
2000
0000
3100
0000
0000
0000
,  // measure 8
0001
0010
0002
0000
1003
0010
2000
0000
,  // measure 9
3100
0000
0100
0000
0010
0001
0010
0000
,  // measure 10
0110
1001
0110
1001
,  // measure 11
1000
0100
0010
0001
,  // measure 12
1001
0110
1001
0110
,  // measure 13
0001
0100
0010
1000
,  // measure 14
0100
1000
0010
0000
0100
0001
0010
0000
,  // measure 15
0010
0100
1000
0000
0010
0100
0001
0000
,  // measure 16
0001
0100
0010
1000
0100
0010
0001
0010
,  // measure 17
0200
0010
0310
0110
,  // measure 18
0002
0000
0000
0003
0000
0002
0000
0000
,  // measure 19
0003
0000
0002
0000
0000
0003
0000
1000
,  // measure 20
0000
1000
0000
2000
0000
0000
3000
0000
,  // measure 21
2000
0000
0000
3000
0000
1000
0001
1000
,  // measure 22
0000
1000
0100
0010
0001
0200
0000
0000
,  // measure 23
0300
0000
0200
0000
0000
0300
0000
0200
,  // measure 24
0000
0300
0010
0010
,  // measure 25
0020
0000
0000
0000
0030
0010
0100
0010
,  // measure 26
0100
0001
0000
1000
0000
0100
0000
0010
,  // measure 27
0000
2002
0000
0000
0000
3003
0220
0000
,  // measure 28
0000
0000
0330
2002
0000
0000
0000
3003
,  // measure 29
0100
0010
0220
0000
,  // measure 30
0330
2002
0000
0000
0000
3003
1000
0001
,  // measure 31
1000
0000
0001
0100
0010
1000
1010
0000
,  // measure 32
1010
0011
0011
2100
,  // measure 33
3010
0000
0102
0000
0013
0000
0100
1000
,  // measure 34
0100
1000
0001
0100
0001
0100
0020
0000
,  // measure 35
0000
0000
0130
1001
,  // measure 36
1100
0000
1001
0000
0101
0000
0001
0100
,  // measure 37
0010
0000
1000
0100
1000
0000
0100
0010
,  // measure 38
0001
0000
0001
0010
0100
0000
1000
0010
,  // measure 39
0100
0000
0100
0010
1000
0000
1010
0000
,  // measure 40
1001
0000
0011
0000
1001
0000
1000
0010
,  // measure 41
0100
0000
0001
0010
0001
0000
0010
0100
,  // measure 42
1000
0000
0000
0000
0010
0000
0100
0000
0001
0000
0000
0000
1000
0000
0000
0001
,  // measure 43
0000
1000
0001
0000
1001
0000
2000
0000
,  // measure 44
0000
3200
0000
0000
0320
0000
0000
0032
,  // measure 45
0000
0103
0200
0320
,  // measure 46
0000
0230
0000
0000
0302
0000
0000
0023
,  // measure 47
0000
0130
0020
0032
,  // measure 48
0000
0203
0000
0000
0320
0000
0000
2030
,  // measure 49
0000
3100
0200
0320
,  // measure 50
0000
0000
0230
0000
0000
0000
0000
0000
1300
0000
0000
0001
0000
0000
1000
0000
,  // measure 51
0000
0001
0000
0000
0100
0000
0010
0000
0100
0000
0000
0000
0220
0000
0000
0000
,  // measure 52
0000
0000
0000
0000
,  // measure 53
0000
0000
0000
0000
,  // measure 54
0000
0000
0000
0000
,  // measure 55
0000
0000
0000
0000
0000
0000
0330
0000
0000
1000
0000
0001
,  // measure 56
0100
0000
0000
0101
0000
0000
0100
0000
0000
0001
0000
1000
,  // measure 57
0100
0000
0000
1100
0000
0000
0100
0000
0000
0010
0000
0001
,  // measure 58
0010
0000
0000
0100
0000
1000
0100
0000
0000
0010
0000
0000
,  // measure 59
0001
0000
0000
0000
1000
0000
0001
0000
1000
0000
0001
0000
1000
0000
0000
1000
,  // measure 60
0000
0000
1000
0000
0000
0000
0100
0000
0010
0000
0000
0000
0001
0000
0000
0001
,  // measure 61
0000
0000
0001
0000
0000
0000
0100
0000
0010
0000
0000
0000
0100
0000
0000
0100
,  // measure 62
0000
0000
0100
0000
0000
0000
0010
0000
1000
0000
0000
0000
0010
0000
0000
0010
,  // measure 63
0000
0010
0000
0100
0001
0000
1000
0100
,  // measure 64
1000
0000
0001
0100
0001
0000
1000
0010
,  // measure 65
1000
0000
0001
0010
0001
0000
1000
0100
,  // measure 66
0010
0001
0100
0010
1000
0001
0020
0000
,  // measure 67
0100
0000
0000
0000
0130
0000
0000
0000
1001
0000
0000
0000
1000
0000
0000
0100
,  // measure 68
0000
0000
0010
0000
0001
0000
0000
0001
0000
0000
0001
0000
0100
0000
0000
0010
,  // measure 69
0000
0000
1000
0000
0100
0000
0000
0100
0000
0000
0100
0000
0010
0000
0000
0001
,  // measure 70
0000
0000
1000
0000
0010
0000
0000
0010
0000
0000
0010
0000
0100
0000
0000
0001
,  // measure 71
0000
0000
0010
0000
1000
0000
0000
1000
0000
0000
1000
0000
0010
0000
0000
0001
,  // measure 72
0000
0000
1000
0000
0001
0000
0000
0001
0000
0000
0001
0000
0100
0000
0000
0010
,  // measure 73
0000
0000
1000
0000
0010
0000
0000
0010
0000
0000
0010
0000
1000
0000
0000
0100
,  // measure 74
0000
0000
0100
0000
0010
0000
0000
0010
0000
0000
0001
0000
1000
0000
0000
0010
,  // measure 75
0000
0000
0100
0000
0000
0001
0000
0000
1000
0000
0100
0000
0010
0000
0001
0000
,  // measure 76
0010
0001
0100
0001
0100
0001
1000
0010
,  // measure 77
1000
0010
1000
0100
1000
0100
0010
0001
,  // measure 78
0010
0001
1000
0001
1000
0001
0100
0010
,  // measure 79
0100
0010
0100
0001
0100
0001
1000
0100
,  // measure 80
0010
0001
1000
0100
0010
0001
0100
0010
,  // measure 81
1000
0001
0100
0010
1000
0001
0010
0100
,  // measure 82
1000
0000
0010
0000
0100
0000
0001
0000
1000
0000
0100
0000
0010
0000
0000
0001
,  // measure 83
0000
0000
1000
0000
0001
0000
0000
0100
0000
0000
0010
0000
0220
0000
0000
0000
,  // measure 84
0000
0000
0000
0330
;

//---------------dance-single - ----------------
#NOTEDATA:;
#CHARTNAME:;
#STEPSTYPE:dance-single;
#DESCRIPTION:;
#CHARTSTYLE:;
#DIFFICULTY:Easy;
#METER:5;
#RADARVALUES:0.271684,0.335785,0.174331,0.142634,0.000000,240.000000,218.000000,22.000000,18.000000,0.000000,0.000000,0.000000,0.000000,0.000000,0.271684,0.335785,0.174331,0.142634,0.000000,240.000000,218.000000,22.000000,18.000000,0.000000,0.000000,0.000000,0.000000,0.000000;
#CREDIT:ohaiimian;
#DISPLAYBPM:165.000000;
#NOTES:
// measure 0
0000
0000
0000
0000
,  // measure 1
0000
0000
0000
0000
,  // measure 2
0000
0000
0000
0000
,  // measure 3
0000
0000
0000
0000
,  // measure 4
0000
0000
0000
0000
,  // measure 5
0000
0000
0000
0000
,  // measure 6
2000
0100
3100
0010
,  // measure 7
0002
0100
0103
0010
,  // measure 8
1000
0100
0010
0001
,  // measure 9
0100
0010
1000
0001
,  // measure 10
0010
0010
0100
0100
,  // measure 11
0010
0100
0110
0000
,  // measure 12
1000
1000
0001
0001
,  // measure 13
1000
0001
1001
0000
,  // measure 14
0110
0000
1001
0000
,  // measure 15
0110
0000
1001
0000
,  // measure 16
0001
0100
0010
1000
,  // measure 17
0100
0100
0100
0010
,  // measure 18
0001
0000
0000
0000
0000
0001
0000
0000
,  // measure 19
0000
0000
0001
0000
0000
0000
0000
0001
,  // measure 20
0000
0000
0000
1000
0000
0000
0000
0000
,  // measure 21
1000
0000
0000
0000
0000
1000
0000
0000
,  // measure 22
0000
0010
0000
0010
0000
0100
0000
0000
,  // measure 23
0000
0000
0100
0000
0000
0000
0000
0100
,  // measure 24
0000
0000
0100
0000
,  // measure 25
0010
0000
0000
0000
0000
0010
0000
0000
,  // measure 26
0000
1000
0000
0001
0000
1001
0000
0000
,  // measure 27
0000
0110
0000
0000
0000
0000
0110
0000
,  // measure 28
0000
0000
0000
0110
0000
0000
0000
0000
,  // measure 29
0110
0000
1001
0000
,  // measure 30
0000
1001
0000
0000
0000
0000
1001
0000
,  // measure 31
0000
1000
0001
0010
,  // measure 32
0010
0010
0010
0200
,  // measure 33
0300
0200
0300
1000
,  // measure 34
1000
0001
0001
2002
,  // measure 35
0000
0000
3003
1000
,  // measure 36
0100
0010
0001
0100
,  // measure 37
0100
0100
0000
0010
,  // measure 38
0010
0010
0000
0010
,  // measure 39
1000
0100
0010
0001
,  // measure 40
0100
0010
1000
0001
,  // measure 41
0001
0001
0000
1000
,  // measure 42
1000
1000
0000
2002
,  // measure 43
0000
0000
3003
1000
,  // measure 44
0000
0001
0000
0000
1000
0000
0000
0001
,  // measure 45
0000
0100
0200
0310
,  // measure 46
0000
0100
0000
0000
0010
0000
0000
0100
,  // measure 47
0000
0020
1030
0001
,  // measure 48
0001
0001
0000
1000
,  // measure 49
1000
1000
0000
0010
,  // measure 50
0010
0010
0000
0100
,  // measure 51
0100
0100
0010
2002
,  // measure 52
0000
0000
0000
0000
,  // measure 53
0000
0000
0000
0000
,  // measure 54
0000
0000
0000
0000
,  // measure 55
0000
0000
3003
2000
,  // measure 56
0000
3000
0000
0200
,  // measure 57
0000
0300
0000
0002
,  // measure 58
0000
0003
0000
0020
,  // measure 59
0000
0000
0000
0000
0000
0030
1000
0000
,  // measure 60
0000
1000
0000
1000
,  // measure 61
0000
1000
0000
0001
,  // measure 62
0000
0001
0000
0001
,  // measure 63
0000
0001
0000
0100
,  // measure 64
0100
0010
0010
0100
,  // measure 65
0010
0100
0010
1000
,  // measure 66
0100
0010
0001
0100
,  // measure 67
0100
0100
0010
1000
,  // measure 68
0100
1000
0010
0100
,  // measure 69
0001
0010
0100
0010
,  // measure 70
0001
1000
0010
0100
,  // measure 71
0001
0001
1000
1000
,  // measure 72
0100
0010
0001
1000
,  // measure 73
0010
0100
0001
0010
,  // measure 74
0100
1000
0001
0100
,  // measure 75
0100
0010
0010
1000
,  // measure 76
0100
0010
0001
0100
,  // measure 77
0010
1000
0001
0010
,  // measure 78
0100
1000
0010
0100
,  // measure 79
0001
1000
0001
1001
,  // measure 80
0000
0110
0000
1001
,  // measure 81
0000
0110
0000
1000
,  // measure 82
0000
0001
0000
0100
,  // measure 83
0100
0010
0010
0220
,  // measure 84
0000
0000
0000
0330
;

//---------------dance-single - ----------------
#NOTEDATA:;
#CHARTNAME:;
#STEPSTYPE:dance-single;
#DESCRIPTION:;
#CHARTSTYLE:;
#DIFFICULTY:Beginner;
#METER:3;
#RADARVALUES:0.125654,0.201471,0.055469,0.087165,0.000000,111.000000,104.000000,7.000000,11.000000,0.000000,0.000000,0.000000,0.000000,0.000000,0.125654,0.201471,0.055469,0.087165,0.000000,111.000000,104.000000,7.000000,11.000000,0.000000,0.000000,0.000000,0.000000,0.000000;
#CREDIT:ohaiimian;
#DISPLAYBPM:165.000000;
#NOTES:
// measure 0
0000
0000
0000
0000
,  // measure 1
0000
0000
0000
0000
,  // measure 2
0000
0000
0000
0000
,  // measure 3
0000
0000
0000
0000
,  // measure 4
0000
0000
0000
0000
,  // measure 5
0000
0000
0000
0000
,  // measure 6
1000
0000
0000
0000
,  // measure 7
1000
0000
0000
0000
,  // measure 8
0001
0000
0000
0000
,  // measure 9
0001
0000
0000
0000
,  // measure 10
0100
0000
0100
0000
,  // measure 11
0100
0000
0000
0000
,  // measure 12
0010
0000
0010
0000
,  // measure 13
0010
0000
0000
0000
,  // measure 14
1000
0000
0000
0000
,  // measure 15
0001
0000
0000
0000
,  // measure 16
1001
0000
0000
0000
,  // measure 17
0200
0000
0000
0300
,  // measure 18
0010
0000
0000
0000
,  // measure 19
0000
0010
0000
0000
,  // measure 20
0000
0000
0000
0100
0000
0000
0000
0000
,  // measure 21
0000
0000
0000
0000
0000
0100
0000
0000
,  // measure 22
0000
0010
0000
0000
0000
1000
0000
0000
,  // measure 23
0000
0000
0000
0000
0000
0000
0000
1000
,  // measure 24
0000
0000
1000
0000
,  // measure 25
0001
0000
0000
0000
0000
0001
0000
0000
,  // measure 26
0000
0020
0000
0000
0000
0000
0000
0030
,  // measure 27
0000
0100
0000
0000
0000
0000
0000
0000
,  // measure 28
0000
0000
0000
0100
0000
0000
0000
0000
,  // measure 29
0100
0000
0010
0000
,  // measure 30
0000
0000
0000
0010
,  // measure 31
0000
0001
0000
1000
,  // measure 32
0000
0000
0000
0001
,  // measure 33
0000
0000
0000
0100
,  // measure 34
0000
0010
0000
0110
,  // measure 35
0000
0000
0000
2000
,  // measure 36
0000
0000
3000
0001
,  // measure 37
0000
0001
0000
0001
,  // measure 38
0000
0010
0000
0100
,  // measure 39
0000
1000
0000
0002
,  // measure 40
0000
0000
0003
1000
,  // measure 41
0000
1000
0000
1000
,  // measure 42
0000
0010
0000
0100
,  // measure 43
0000
0001
0000
1001
,  // measure 44
0000
0000
0000
0000
,  // measure 45
0000
0000
0000
1001
,  // measure 46
0000
0000
0000
0000
,  // measure 47
0000
0000
0000
0010
,  // measure 48
0000
0010
0000
0010
,  // measure 49
0000
0000
0000
0100
,  // measure 50
0000
0100
0000
0100
,  // measure 51
0000
0000
0000
0220
,  // measure 52
0000
0000
0000
0000
,  // measure 53
0000
0000
0000
0000
,  // measure 54
0000
0000
0000
0000
,  // measure 55
0000
0000
0330
1000
,  // measure 56
0000
0000
0000
0001
,  // measure 57
0000
0000
0000
0100
,  // measure 58
0000
0000
0000
0010
,  // measure 59
0000
0000
0000
1000
,  // measure 60
0000
0000
0000
0100
,  // measure 61
0000
0000
0000
0010
,  // measure 62
0000
0000
0000
0001
,  // measure 63
0000
0000
0000
2000
,  // measure 64
0000
0000
3000
0002
,  // measure 65
0000
0000
0003
1000
,  // measure 66
0000
0001
0000
1001
,  // measure 67
0000
0000
0000
0100
,  // measure 68
0000
0100
0000
0100
,  // measure 69
0000
0100
0000
0010
,  // measure 70
0000
0010
0000
0010
,  // measure 71
0000
0010
0000
1000
,  // measure 72
0000
1000
0000
1000
,  // measure 73
0000
1000
0000
0001
,  // measure 74
0000
0001
0000
0002
,  // measure 75
0000
0000
0003
1000
,  // measure 76
0000
0100
0000
0010
,  // measure 77
0000
0001
0000
0001
,  // measure 78
0000
0100
0000
0010
,  // measure 79
0000
1000
0000
0001
,  // measure 80
0000
0001
0000
1000
,  // measure 81
0000
1000
0000
0100
,  // measure 82
0000
0010
0000
0100
,  // measure 83
0000
0010
0000
0220
,  // measure 84
0000
0000
0000
0330
;
