#TITLE:Raspberry Railgun;
#SUBTITLE:;
#ARTIST:OSTER project;
#TITLETRANSLIT:;
#SUBTITLETRANSLIT:;
#ARTISTTRANSLIT:;
#GENRE:Panic Fusion;
#CREDIT:;
#BANNER:[VIP3 Last Dance] - Raspberry Railgun.png;
#BACKGROUND:[VIP3 Last Dance] - Raspberry Railgun-bg.png;
#LYRICSPATH:;
#CDTITLE:cdtitle.png;
#MUSIC:[VIP3 Last Dance] - Raspberry Railgun.ogg;
#OFFSET:-0.106087;
#SAMPLESTART:54.613132;
#SAMPLELENGTH:13.521126;
#SELECTABLE:YES;
#BPMS:0.000000=142.000000
;
#STOPS:
;
#BGCHANGES:;
#KEYSOUNDS:;
#ATTACKS:;

//---------------dance-single - ----------------
#NOTES:
     dance-single:
     13-18:
     Challenge:
     13:
     1.133064,1.074948,1.069021,0.551753,1.525941,920.000000,796.000000,124.000000,64.000000,32.000000,0.000000,1.133064,1.074948,1.069021,0.551753,1.525941,920.000000,796.000000,124.000000,64.000000,32.000000,0.000000:
0000
0000
0000
0000
,
1001
0000
1000
0100
1000
0010
1010
0000
0001
0100
0001
0010
0012
0000
0000
1003
,
0010
0100
0010
0100
0001
0000
0000
0101
0000
0000
1100
0000
0010
0010
0000
0000
,
0011
0000
0001
0000
1001
0000
0001
0000
0101
0000
0001
0010
0001
1000
1010
0000
,
1000
0000
1001
0000
1000
0000
1100
0000
1000
0010
1000
0001
0011
0000
0100
1000
,
0000
0001
0000
1000
0010
0100
0001
1000
0100
0010
0210
0000
0000
0310
0001
0100
,
0210
0000
0310
1000
0000
0220
0000
0000
0330
0000
1001
0000
0000
1000
0100
0010
,
0001
0100
M00M
0100
1000
0000
0010
0000
0100
0000
0101
0000
0101
0000
1000
0010
,
1000
0100
M00M
0100
0001
0010
0100
1000
0010
0100
0001
0000
1000
0100
0010
0100
,
1000
0010
M00M
0010
0001
0100
M00M
0100
1000
0010
0100
0010
0100
0001
1000
0100
,
0001
0000
0000
0000
0100
0000
0001
0000
0100
0000
1000
0000
0001
0000
0100
0000
0010
0000
1000
0001
1000
0000
0000
0000
1010
0000
0000
0000
0010
0000
1000
0000
,
0100
0001
0MM0
0001
0010
0100
1000
0010
0100
0001
0010
1000
0010
0001
0000
0001
,
0100
1000
0MM0
1000
0010
0000
0100
0001
0010
0000
0110
0000
0010
0001
1000
0001
,
0100
0010
M00M
0010
0001
0000
1000
0100
M00M
0100
0010
1000
0100
1000
0000
0100
,
0010
0001
0100
0001
0000
0001
0100
0010
1000
0001
2002
0000
3003
0000
1000
0100
,
0010
0022
0000
0033
0011
0000
1001
0000
1010
0000
0101
0000
0101
0000
0001
0010
,
0100
2100
0000
0000
3001
0100
0010
0000
0100
0001
1000
0000
0100
0010
0000
0100
,
0000
0021
0000
0000
1030
0010
0001
0100
1000
0000
1100
0000
1000
0100
0001
0010
,
0200
0000
0000
0310
0001
1000
0010
0100
0001
1000
0100
0000
1100
0000
0001
0100
,
0010
2010
0000
3010
0100
0010
1000
0001
0010
0000
0100
0010
1000
0020
0000
0031
,
0100
0020
0000
0031
0010
0000
0010
1000
0100
0000
0110
0000
0010
0001
0100
0010
,
0100
1000
0000
1000
0100
0000
0100
0001
0010
0000
0011
0000
0010
0001
0100
0010
,
2010
0000
3001
0012
0000
1003
0010
1000
0001
0010
0110
0000
1000
0000
1000
0100
,
1000
0000
1001
0000
0001
0100
0010
0100
0001
0000
2001
0000
3001
0010
0100
0010
,
2000
0000
3020
0000
0032
0000
1003
0010
0100
0010
0002
0000
0023
0000
2030
0000
,
3001
0100
0010
0100
2000
0000
3100
0001
0010
0000
0011
0000
0110
0000
1100
0000
,
1000
0000
0010
0000
1000
0000
0001
0000
0010
0000
0001
0000
1000
0000
0000
0000
0000
0000
0010
0000
0000
1000
0000
0000
0100
0000
0000
0010
0000
0000
0110
0000
0000
0000
0000
0000
0010
0000
0000
0001
0000
0000
0100
0000
0000
0010
0000
0000
,
0110
0000
0000
1010
0000
0000
1001
0000
0000
0001
0010
0001
1000
0010
1000
0001
0000
0000
0011
0000
0000
0100
0000
0000
,
0010
0000
1100
0000
0001
0000
1000
0010
1010
0000
0100
0000
0010
0000
0101
0000
,
1001
0000
1100
0000
0001
0010
0100
0010
1000
0010
0100
0010
0001
0010
0100
0010
,
1000
0010
0100
0010
0001
0100
1000
0100
0001
0010
1000
0010
0001
0000
0101
0000
,
1010
0000
0000
1100
0000
0000
0011
0000
0000
0101
0000
0000
1000
0010
1000
0010
1000
0010
1000
0010
1000
0010
1000
0001
,
0010
0000
0001
0000
1000
0000
0010
0000
1000
0000
0001
0000
0010
0000
0000
0000
0000
0000
0110
0000
0000
0000
0000
0000
0001
0000
0000
0010
0000
0000
0001
0000
0000
0100
0000
0000
0001
0000
0000
1001
0000
0000
0000
0000
0000
0101
0000
0000
,
0000
0000
0000
0012
0000
0000
0000
0000
0000
1003
0000
0000
0010
0000
0000
0000
0000
0000
0010
0000
1000
0000
0001
0000
0010
0000
0000
0100
0000
0000
0001
0000
0000
0100
0000
0000
1000
0000
0000
0001
0000
0000
0100
0000
0000
0020
0000
0000
,
0000
1030
0100
0010
0001
0000
0101
0000
1000
0010
1000
0100
1000
1001
0000
1100
,
0000
0000
0000
2010
0000
0000
0000
0000
0000
3001
0000
0000
0010
0000
0000
0000
0000
0000
0010
0000
0001
0000
1000
0000
0010
0000
0000
0100
0000
0000
1000
0000
0000
0100
0000
0000
0001
0000
0000
0010
0000
0000
0000
0000
0000
0210
0000
0000
,
0000
0310
0001
1000
0010
0000
1010
0000
1000
0010
0100
0001
0000
0001
0010
0100
,
1000
0010
0100
2000
0000
3001
0010
0100
0001
0010
0100
1000
0001
0010
1000
0010
,
0001
0010
0110
0000
1001
0000
1000
0010
0100
0001
0010
0200
0000
1300
0010
0100
,
0001
1000
0100
0000
0011
0000
1000
1001
0000
1010
0000
0102
0000
1003
0100
1000
,
0100
0010
0001
0000
01M0
01M0
1000
0000
01M0
01M0
0001
0000
0M10
0M10
1000
0000
,
0M10
0000
0M10
0000
0001
0000
2001
0000
0000
0000
3001
0000
0100
0000
0010
0000
1000
0000
0001
0010
0001
0000
0010
0000
0000
0000
1100
0000
0000
0000
0012
0000
,
0000
1003
0010
0000
2010
0000
0001
0000
3001
0000
1001
0000
0011
0000
0001
1000
,
0001
0000
0101
0000
1001
0000
0001
0010
1000
0010
0001
0000
0012
0000
1003
0000
,
0001
0100
0020
0000
2030
0000
3100
0010
0001
0000
0011
0000
0101
0000
1000
0000
,
1010
0000
0000
0000
1100
0000
0000
0000
0011
0000
0000
0000
0001
0000
0000
0000
0010
0000
0001
1000
0001
0000
0000
0000
0200
0000
0000
0000
0310
0000
1000
0000
,
0200
0000
1300
0000
0100
1000
0010
0000
1010
0000
1001
0000
0021
0000
0100
0000
,
0100
0000
0130
0000
0011
0000
1100
0000
1001
0000
1000
0010
0001
1000
0100
0001
,
1000
0000
0010
0000
0210
0000
0302
0000
2003
0000
3200
0000
0320
0000
0130
1000
,
0020
0000
0230
0000
0302
0000
2003
0000
3200
0000
0320
0000
0031
0100
0010
0100
,
0001
0100
0010
0100
0001
0100
0010
0100
0101
0000
1001
0000
1100
0000
0001
1000
,
0100
0000
0000
1000
0000
0000
0001
0000
0000
1000
0000
0000
0010
0000
0000
1000
0000
0000
0010
0000
0000
1000
0000
0000
0010
0000
0000
1000
0000
0000
0001
0000
0010
0000
0100
0000
1000
0000
0010
0000
0100
0000
0001
0000
0010
0000
0100
0000
,
1000
0000
0010
0000
1000
0010
0100
0010
1000
1010
0000
1001
0000
0011
0000
0220
,
0000
0000
0330
0011
0000
0001
1000
1020
0000
0130
0010
1010
0000
1002
0000
0000
,
1003
0000
0010
0000
1000
0000
0010
0000
0001
0000
0010
0000
0001
0000
0010
0000
1000
0000
0100
0000
0001
0000
0100
0000
1000
0000
0001
1000
0001
0000
0100
0000
,
0120
0000
0000
0000
0000
0000
0130
0000
0010
0000
1000
0000
0100
0000
0000
0010
0000
0000
0001
0000
0000
0010
0000
0000
0100
0000
0000
1000
0000
0000
0001
0000
0000
0100
0000
0000
0010
0000
0000
0100
0000
0000
0110
0000
0000
0000
0000
0000
,
1000
0010
0100
1000
0100
0001
0010
0100
0001
0100
0010
0001
1000
0010
0001
0010
,
0100
0001
1000
0100
0010
1000
0010
0001
1000
0010
0001
0010
1000
0010
0100
0001
,
1001
0000
0011
0000
0010
0001
0100
2000
0000
3100
0001
0010
0100
0001
0100
0010
,
0001
0000
1000
1010
0000
0110
0000
0102
0000
0013
0100
0010
0100
1000
0010
0000
,
1001
0000
0001
0101
0000
1001
0000
0012
0000
0013
0001
0100
1000
0100
0010
0000
,
1010
0000
1000
1100
0000
1001
0000
2010
0000
3010
1000
0100
0001
0100
1000
0000
,
01M0
01M0
0001
0000
01M0
01M0
1000
0000
0M10
0M10
0001
0000
0M10
0M10
1000
1002
,
0000
0000
0013
0000
1000
0000
0010
0000
0001
0000
0100
0010
0100
0000
0002
0000
0000
0000
0103
0000
1000
0000
0100
0000
0001
0000
0010
0100
0010
0000
0002
0000
,
0000
0000
0000
1003
0000
0000
0100
0000
0000
0001
0000
0000
1000
0000
0000
0010
0000
0000
0001
0000
0000
0100
0000
0000
1000
0000
0000
0001
0000
0000
0010
0000
0000
1000
0000
0000
0001
0000
0100
0000
0010
0000
1000
0000
0100
0000
0010
0000
,
0001
0000
1000
0010
1000
0001
0010
0110
0000
0110
0110
0000
0000
0000
0000
0000
;

//---------------dance-single - ----------------
#NOTES:
     dance-single:
     11-16:
     Hard:
     11:
     0.906451,0.933507,0.491405,0.758660,1.215580,736.000000,679.000000,57.000000,88.000000,0.000000,0.000000,0.906451,0.933507,0.491405,0.758660,1.215580,736.000000,679.000000,57.000000,88.000000,0.000000,0.000000:
0000
0000
0000
0000
,
1001
0000
0000
1000
0100
0010
0001
0000
0000
0001
0100
0010
2000
0000
0000
0000
,
0000
0000
0000
0000
0010
0000
0000
3010
0000
0000
1001
0000
0001
0010
0000
0000
,
0001
0000
0010
0000
1000
0000
0010
0000
0001
0000
0100
0010
0000
0010
1000
0000
,
0010
0000
0001
0000
0010
0000
1000
0000
0100
0010
0100
0010
0001
0000
1000
0010
,
0000
0100
0000
0010
0100
0001
0100
0001
1000
0000
1200
0000
0000
0301
0000
0000
,
0201
0000
0000
1300
0000
2200
0000
0000
3300
0000
1002
0000
0000
0000
1003
0001
,
0100
0020
0000
0000
1030
0000
0100
0000
0010
0000
0001
0000
0001
0000
0010
0001
,
0100
0020
0000
0000
0000
1030
0000
0000
0110
0000
0102
0000
0000
0000
1003
0100
,
0010
0200
0000
0000
0310
0001
0000
0001
0100
0000
0010
1000
0010
1000
0001
0010
,
0200
0000
0000
0310
0001
1000
0000
0010
1000
0001
0010
0000
0010
0000
0100
1000
,
0001
0100
0000
0100
0010
0100
0000
0100
0010
1000
0001
0010
0000
0010
0000
0100
,
1000
0010
0000
0010
0100
0000
0100
0002
0000
0000
1003
0000
0001
0010
0100
1000
,
0001
0100
0000
0100
0010
0000
0010
2000
0000
0000
3001
0010
0001
0100
0000
0001
,
1000
0010
1000
0100
0000
1000
0001
0100
0001
0100
0020
0000
0000
0000
1030
0100
,
0010
2000
0000
0000
3010
0000
0100
0000
1000
0000
0001
0000
0001
0000
0100
0010
,
0100
2000
0000
0000
0000
3100
0000
0000
0110
0000
0102
0000
0000
0000
1003
0100
,
0000
0210
0000
0000
0301
0100
0000
0100
1000
0000
0010
0000
0100
0010
1000
0001
,
0020
0000
0000
0031
1000
0010
0000
0010
1000
0001
0020
0000
0000
0000
0031
0100
,
0010
0002
0000
0000
0013
0100
0010
0100
0001
0000
0010
0100
0010
2000
0000
3010
,
0000
0200
0000
0310
0001
0000
0001
0200
0000
0000
0310
0000
1000
0010
1000
0001
,
0010
0100
0000
0100
0010
0000
0001
2000
0000
0000
3001
0000
0100
0010
0000
0010
,
0100
0000
0000
1010
0000
1000
0001
1000
0001
0000
1002
0000
0010
0000
0010
0000
,
0013
0000
0100
0000
0010
0001
0000
1000
0010
0000
2000
0000
3010
1000
0010
1000
,
0200
0000
0302
0000
0203
0000
0310
0001
0010
0001
0200
0000
2300
0000
3200
0000
,
0310
1000
0001
1000
0200
0000
0310
0001
2000
0000
3002
0000
0103
0000
0110
0000
,
0010
1000
0001
0000
1001
0000
1000
0100
1000
0010
1000
0000
0001
0100
0001
0010
,
0001
0100
0010
1010
1001
0011
2001
0100
,
3001
1002
0100
1003
2001
0010
3001
1002
,
0010
0000
1003
0000
0001
0100
0010
0100
0001
1000
0010
1000
0001
0100
0010
0100
,
0001
0010
0100
1000
0001
0010
0100
0010
0001
0010
0100
0010
0001
0000
0011
0000
,
0011
0000
0000
1001
0000
0000
1010
0000
0000
1010
0000
0000
4000
0004
0000
0000
0000
0000
0000
0000
0000
0000
0000
0000
,
0000
0000
3003
0000
0001
0000
0010
0000
0100
0010
0100
0010
0001
0100
0000
0101
,
0000
0210
0000
0000
1300
0000
0100
0010
0100
0010
1000
0100
0000
0100
0010
0002
,
0000
0103
0001
0000
1000
0000
0010
0000
0100
0010
0100
0010
1000
0100
0000
1100
,
0000
0210
0000
0000
0301
0000
0100
0010
0100
0010
0001
0100
0010
1000
0000
1010
,
0000
1000
0100
0000
0010
0000
0010
0000
0100
0010
0001
2000
0000
3001
0100
0010
,
1000
0100
0010
0002
0000
1003
0010
0100
0001
0010
0001
0010
0100
0010
0100
0010
,
0001
1000
0010
0100
0001
0000
1000
0000
0100
0010
0001
2000
0000
3010
0100
0000
,
0001
0010
0001
0010
0100
0000
0010
0001
0000
0101
0000
1020
0000
0000
1030
0001
,
1000
0200
0000
0000
0310
0001
1000
0000
1000
0001
0100
0000
0100
0001
0010
0000
,
0010
0100
1000
0020
0000
0130
0001
0010
0100
1000
0001
0100
0000
0110
0000
2002
,
0000
0000
3003
0000
0002
0000
0100
0000
0100
0000
2003
0000
3020
0000
1030
0001
,
0020
0000
0230
0000
2300
0000
3001
0100
0010
1000
0100
0000
0020
0000
0130
0000
,
0010
0001
0200
0000
0320
0000
0130
0001
2000
0000
3200
0000
0320
0000
0032
0000
,
0203
0000
0310
0000
1020
0000
1030
0000
0001
0010
0002
0000
2003
0000
3001
0100
,
0002
0000
1003
0000
0100
1000
0200
0000
0320
0000
0031
0000
1002
0000
0100
0000
,
0100
0000
0103
0000
0001
0000
1000
0000
1001
0000
1000
0100
0010
0001
0100
0010
,
2000
0000
0000
0000
3001
0000
0010
0000
0100
0000
0001
0000
0100
0000
0010
0001
,
1000
0000
0010
0000
0100
0000
1000
0000
0100
0000
0010
0000
1000
0010
1000
0001
,
1000
0010
1000
0001
1000
0010
1000
0001
0020
0000
0100
0000
0130
0000
0011
0000
,
1001
0000
1010
0000
0120
0000
0100
0000
0130
0000
0001
0100
0010
1000
0100
0010
,
0001
0000
0000
0000
0000
0000
0000
0000
0100
0010
0000
1001
0000
0110
0000
2002
,
0000
3003
0000
0011
0000
0100
1000
0100
0000
1000
0010
1000
0000
0220
0000
0330
,
0001
0000
1000
0000
0010
1000
0001
0010
0100
0010
0000
0001
0000
1000
0010
0000
,
0210
0000
0000
0000
0301
0100
0010
0100
1000
0100
0000
0110
0000
0100
0001
0000
,
1000
0100
0010
0001
1000
0010
0100
0001
0010
0100
1000
0010
0100
0010
1000
0001
,
0010
0100
0010
0001
1000
0010
0100
0001
0010
0100
0010
0100
0010
0100
1000
0001
,
0100
0000
0010
0000
1000
0100
0010
0100
0000
0001
0100
0010
0000
0100
1000
0000
,
0001
0000
0100
0010
0000
1010
0000
2001
0000
0000
3001
0010
0100
0020
0000
0000
,
0031
0000
1000
0010
0000
0110
0000
0102
0000
1003
0010
1000
0100
1000
0001
0000
,
1001
0000
0001
0010
0000
0110
0000
2100
0000
3001
0010
0001
0100
0001
1000
0000
,
0010
1000
0001
0000
0001
1000
0100
0000
0100
1000
0010
0000
0010
0100
0001
0020
,
0000
1030
0010
0100
0010
0100
0010
0002
0000
1003
0010
0100
0010
0100
0010
0002
,
0000
0013
0100
0010
1000
0001
1000
0100
0010
0100
1000
0001
0100
0010
1000
0100
,
0020
0000
0130
1000
0001
0100
0010
0100
0000
0100
0100
0000
0000
0000
0000
0000
;

//---------------dance-single - ----------------
#NOTES:
     dance-single:
     09-12:
     Medium:
     9:
     0.575153,0.537474,0.465541,0.646585,0.314671,467.000000,413.000000,54.000000,75.000000,0.000000,0.000000,0.575153,0.537474,0.465541,0.646585,0.314671,467.000000,413.000000,54.000000,75.000000,0.000000,0.000000:
0000
0000
0000
0000
,
2001
0000
0000
3010
0000
0000
1002
0000
0000
0013
0000
0000
2002
0000
0000
0000
,
0000
0000
0000
0000
0003
0000
0000
3000
0000
0000
0000
0000
1001
0000
0000
0000
,
0001
0000
0100
0000
0010
0000
0100
0000
0001
0000
0000
1100
0000
0000
1000
0000
,
0100
0000
0010
0000
0100
0000
1000
0000
0000
0101
0000
0000
0001
0000
0000
0100
,
0000
0010
0000
0000
1000
0000
0001
0000
0010
0000
0012
0000
0000
1003
0000
0000
,
2010
0000
0000
3001
0000
0012
0000
0000
0000
0000
1003
0000
0000
0000
0010
0000
,
0000
2000
0000
0000
3100
0000
0010
0000
0000
0000
0100
0000
0100
0000
1000
0000
,
0000
0002
0000
0000
0000
0203
0000
0000
0310
0000
2000
0000
0000
0000
3001
0000
,
0000
0020
0000
0000
0000
0032
0000
0000
1003
0000
0010
0000
1000
0000
0010
0000
,
0002
0000
0013
1000
0100
0010
0010
0001
,
0000
2000
0000
0000
3001
0000
0100
0000
0010
0000
1000
0000
0100
0000
0010
0000
,
0000
0200
0000
0000
0310
0000
0001
0000
0000
0000
1000
0000
0010
0000
0100
0000
,
0000
0001
0000
0000
0010
0000
0100
0000
1000
0000
0001
0000
0000
0101
0000
0000
,
1000
0000
0000
1100
0000
0000
0001
0000
0100
0000
0120
0000
0000
0000
1030
0000
,
0000
2010
0000
0000
3001
0000
0010
0000
0100
0000
1000
0000
1000
0000
0010
0000
,
0000
0102
0000
0000
0000
2003
0000
0000
3100
0000
0120
0000
0000
0000
0031
0000
,
1000
0020
0000
0000
0031
0020
0000
0000
1030
0000
2010
0000
0000
0000
3001
0000
,
0010
0000
0010
0100
1000
0001
0001
0100
,
0000
0210
0000
0000
0301
0000
0001
0000
1000
0000
0100
0000
0010
0000
0100
0000
,
0000
0210
0000
0000
1300
0000
2000
0000
0000
0000
3001
0000
0100
0000
1000
0000
,
0000
1200
0000
0000
0301
0000
0201
0000
0000
0000
0310
0000
0000
1001
0000
0000
,
0100
0000
0000
1001
0000
0000
1000
0000
0100
0000
0200
0000
0010
0000
0010
0000
,
0000
0000
0001
0000
0000
0010
0000
0000
1300
0000
1000
0000
0010
0000
1000
0000
,
0001
0100
0001
1000
0001
0010
0001
1000
,
0100
1000
0010
0100
0001
0001
0100
1000
,
1000
0100
0001
0001
0001
0010
0010
0010
,
0100
1000
0010
0001
0010
1000
2020
0000
,
3030
0202
0000
0303
2000
0000
3000
0002
,
0000
0003
1000
0100
0010
0001
1000
0100
,
0010
0001
1000
0010
1000
0010
0001
0010
,
1000
0000
0010
0000
0001
0000
0010
0000
4000
0040
0000
0000
0000
0000
0000
0000
,
0000
0000
3030
0000
1000
0000
0100
0000
0010
0000
0001
0000
0100
0010
0000
1000
,
0000
0200
0000
0000
0301
0000
0100
0000
1000
0000
0010
0000
0001
0000
0000
0020
,
0000
0000
1030
0000
0001
0000
0100
0000
0010
0000
1000
0000
0100
0010
0000
0001
,
0000
0200
0000
0000
1300
0000
0100
0000
0001
0000
0010
0000
1000
0000
0000
0020
,
0000
0000
0031
0000
1000
0000
0010
0000
0100
0000
0000
0102
0000
0000
0013
0000
,
0100
0000
0000
2100
0000
0000
3010
0000
0100
0000
0001
0000
0010
0000
0010
0000
,
0010
0000
0100
0000
1000
0000
0001
0000
0100
0000
0010
2000
0000
0000
3100
0000
,
0010
0000
0001
0000
1000
0000
0001
0100
0000
0010
0000
2001
0000
0000
0100
0000
,
0200
3300
1100
0000
0101
0000
0011
0000
,
1010
0000
0000
2001
0000
0000
3100
0000
0010
0000
0000
0100
0000
0100
0000
2002
,
0000
3003
1000
1000
1000
0010
0100
0001
,
0010
0010
0010
0001
0100
0010
2000
0000
,
3100
0010
0001
1000
0100
0001
1000
0010
,
0001
1000
2001
0000
0000
3010
0001
0010
,
2000
0000
3100
0001
0100
1000
0002
0100
,
0100
0103
0010
1000
0200
0000
0310
0100
,
2001
0000
3002
0000
0003
0200
0000
0300
,
0020
0000
0030
2000
0000
3000
0002
0003
,
0020
0030
0200
0300
1000
0010
0001
0010
,
1000
0100
0001
0100
1000
0010
0100
0001
,
1001
0000
0000
0000
0000
0000
0000
0000
0100
0010
0000
0010
0000
0100
0000
2002
,
0000
3003
0000
0011
0000
0000
0000
1100
0000
0000
0000
0100
0000
2002
0000
3003
,
0001
0010
1000
0001
0100
1000
0010
0100
,
0110
0000
0000
0000
0101
0000
0010
0000
1000
0000
0000
0100
0000
0000
0010
0000
,
0001
0100
1000
0100
0010
0001
0010
1000
,
0001
0010
1000
0010
0100
0001
0100
1000
,
0010
0000
0001
0000
0010
0000
0000
2000
0000
0000
3100
0000
0001
0000
0100
0000
,
1000
0000
0001
0100
0000
0100
0000
2001
0000
0000
0100
0000
0200
0000
3300
0000
,
1000
0000
0100
0010
0000
0001
0000
0012
0000
0000
1000
0000
2000
0000
3003
0000
,
0001
0000
0100
0010
0000
1000
0000
2010
0000
0000
3001
0000
0010
0000
0001
0000
,
0101
0000
0000
0000
1100
0000
0000
0000
1010
0000
0000
0000
0011
0000
0000
0201
,
0000
0000
0010
0000
0301
0000
0000
1200
0000
0000
0010
0000
1300
0000
0000
1002
,
0000
0103
1000
0100
0001
0010
1000
0010
,
0120
0000
0000
0000
0031
0000
0000
1001
0000
1000
0001
0000
0000
0000
0000
0000
;

//---------------dance-single - ----------------
#NOTES:
     dance-single:
     07-09:
     Easy:
     7:
     0.460615,0.480898,0.422436,0.422436,0.146559,374.000000,325.000000,49.000000,49.000000,0.000000,0.000000,0.460615,0.480898,0.422436,0.422436,0.146559,374.000000,325.000000,49.000000,49.000000,0.000000,0.000000:
0000
0000
0000
0000
,
2100
0000
0000
3100
0000
0000
0210
0000
0000
0310
0000
0000
0022
0000
0000
0000
,
0000
0000
0000
0000
0030
0000
0000
0003
0000
0000
0000
0000
0011
0000
0000
0000
,
1001
0000
0000
0000
0100
0000
0000
0000
0001
0000
0000
0100
0000
0000
1001
0000
,
0000
0000
0100
0000
0000
0000
1000
0000
0000
0100
0000
0000
1001
0000
0000
0000
,
0001
0000
0000
0000
1000
0000
0010
0000
0100
0000
0102
0000
0000
1003
0000
0000
,
2100
0000
0000
0001
0000
0002
0000
3003
0000
0000
1000
0000
0000
0000
0001
0000
,
0010
0001
0000
1000
0000
0010
0010
0010
,
0000
0100
0010
1000
0000
0100
0000
0010
,
0001
0010
0000
0001
0000
1000
0010
0100
,
0001
0000
0010
0100
0000
1000
0100
1000
,
0000
0010
0000
0100
0000
0001
0001
0001
,
0000
0010
0000
0100
0000
1000
0001
0100
,
0000
0000
0001
0000
1000
0000
0100
0000
0000
0000
0020
0000
0000
0031
0000
0000
,
2000
0000
0000
3001
0000
0000
0100
0000
0000
0000
1001
0000
0000
0000
0001
0000
,
0100
2000
0000
3100
0000
0001
0001
0010
,
0000
0200
0000
0310
0001
1000
0000
1000
,
0001
0200
0000
0310
0000
1000
0100
0010
,
0001
0000
0100
0010
0000
1000
0000
0001
,
0010
2000
0000
3010
0000
0001
0001
0100
,
0000
0020
0000
1030
0000
0001
0010
0100
,
0000
0000
1000
0000
0010
0000
0100
0000
0000
0000
0001
0000
0000
1000
0000
0000
,
0100
0000
0000
0010
0000
0000
0100
0000
0000
0000
2002
0000
0000
0000
0000
0000
,
0000
0000
0000
3003
0000
0002
0000
0000
,
0013
0100
2000
0000
0000
3010
0100
0002
,
0000
1003
0100
0000
0010
0100
0010
0001
,
1000
0001
0100
0000
0010
1000
0000
0010
,
0001
0000
0010
1000
0100
0000
0022
0000
,
0033
2200
0000
3300
0002
0000
0003
2000
,
0000
3000
1010
0000
0101
0000
0011
0000
,
1100
0000
1001
0000
0110
0000
0001
0010
,
0100
1000
0010
0100
0002
0000
0000
0000
,
0000
0000
1003
0100
0010
0000
0011
0000
,
0010
0001
0100
0000
1000
0100
0001
0000
,
0010
0000
0001
0100
0010
0000
1010
0000
,
0010
1000
0100
0000
0001
0100
1000
0000
,
0010
0000
0100
0001
1000
0000
0001
1000
,
0100
0000
0010
0000
0001
0010
1000
0010
,
0001
0000
1000
0010
0100
0000
0001
0010
,
0100
0000
0000
0000
1000
0000
0000
0001
0000
0000
0000
1001
0000
0000
0001
0000
,
1000
0101
0011
1100
,
1010
0000
0000
1002
0000
0000
0000
0000
0013
0000
0000
0100
0000
0010
0000
0210
,
0000
0000
2300
0000
0000
3010
0100
0000
,
0002
0000
0013
0100
0010
0001
2000
0000
,
3001
0100
0010
0100
0002
0000
1003
0200
,
0000
0310
0002
0000
0003
1000
0010
1000
,
0200
0000
1300
0001
0010
0001
0200
0000
,
0000
0000
1300
0100
0002
0000
1003
0100
,
0002
0000
0103
0000
0000
0100
0000
0000
,
1000
0000
0000
1000
0000
0000
0001
0000
,
1000
0000
0001
0000
2002
0000
3003
0100
,
0010
0100
0220
0000
0000
0000
0330
0000
,
1001
0000
0000
0000
0000
0000
0000
0000
1000
0000
0000
0100
0000
0000
0000
0011
,
0000
0000
0000
1010
0000
0000
0000
0101
0000
0000
0000
1000
0000
0002
0000
0000
,
1003
0100
1000
0001
0100
0001
1000
0000
,
1001
0000
0110
0000
1001
0000
0001
1000
,
0001
0010
0001
0010
0100
1000
0100
1000
,
0010
0100
0001
0010
0100
1000
0010
0100
,
0001
1000
0100
0000
1000
0001
0100
0000
,
0001
0000
0000
1000
0000
0000
0000
1001
0000
0000
1000
0000
0001
0000
0000
0000
,
1000
0000
0000
0100
0000
0000
0000
0012
0000
0000
0000
0000
1003
0000
0000
0000
,
0001
0000
0000
0100
0000
0000
0000
2010
0000
0000
0000
0000
3001
0000
0000
0000
,
1100
0000
0000
0000
1010
0000
0000
0000
0101
0000
0000
0000
0011
0000
0000
2001
,
0000
0000
0000
0000
3010
0000
0000
1002
0000
0000
0000
0000
0013
0000
0000
1001
,
0000
0001
0100
0010
1000
0100
0010
0001
,
2002
0000
0000
0000
3003
0000
0000
1001
0000
1000
0001
0000
0000
0000
0000
0000
;

//---------------dance-single - ----------------
#NOTES:
     dance-single:
     04-05:
     Beginner:
     4:
     0.320214,0.366695,0.500026,0.750039,0.030174,260.000000,202.000000,58.000000,87.000000,0.000000,0.000000,0.320214,0.366695,0.500026,0.750039,0.030174,260.000000,202.000000,58.000000,87.000000,0.000000,0.000000:
0000
0000
0000
0000
,
2002
0000
0000
3003
0000
0000
0220
0000
0000
0330
0000
0000
2002
0000
0000
0000
,
0000
0000
0000
0000
3000
0000
0000
0003
0000
0000
0000
0000
1001
0000
0000
0000
,
0001
0000
0001
0000
0100
0000
0000
1000
,
0000
1000
0000
0100
0000
0000
0001
0000
,
0001
0000
0000
0000
0010
0000
0000
0000
0000
0000
2002
0000
0000
3003
0000
0000
,
0220
0000
0000
0300
0000
0030
0000
0000
0000
0000
1000
0000
0000
0000
0100
0000
,
0000
0110
0000
0000
0000
0001
0000
0100
,
0000
0110
0000
0000
0000
1000
0000
0001
,
0000
1001
0000
0000
0000
1000
0000
0100
,
0000
0001
0000
0010
0000
1000
0000
0100
,
0000
1100
0000
0000
0000
0001
0000
0100
,
0000
0101
0000
0000
0000
1000
0000
0010
,
0000
0000
0001
0000
0000
0000
0010
0000
0000
0000
2000
0000
0000
3000
0000
0000
,
0002
0000
0000
0003
0000
0000
1000
0000
0000
0000
2010
0000
0000
0000
3100
0000
,
0000
0022
0000
0033
0000
0102
0000
0013
,
0000
2200
0000
3300
0000
1000
0000
0001
,
0000
0202
0000
0303
0000
0001
0000
0010
,
0000
1000
0000
0100
0000
0102
0000
0013
,
0000
2002
0000
3003
0000
2100
0000
3010
,
0000
2002
0000
3003
0000
0001
0000
0010
,
0000
0000
1000
0000
0000
0000
0010
0000
0000
0000
0002
0000
0000
0003
0000
0000
,
2000
0000
0000
3000
0000
0000
0001
0000
0000
0000
2002
0000
0000
0000
0000
0000
,
0000
0000
0000
3003
0000
0002
0000
0000
,
0103
0000
0200
0000
0000
0310
0000
0020
,
0000
1030
0001
1000
,
0100
0120
0032
0203
,
0320
2030
3100
0220
,
0330
2002
0000
3003
2000
0000
3000
0002
,
0000
0003
1000
0000
0010
0000
0001
0000
,
0100
1000
0010
1002
,
0010
0010
0020
0000
,
0033
1000
0100
1000
,
0010
2020
3030
0022
,
0033
0001
0100
0001
,
0010
0022
0033
2020
,
3030
1000
0100
0010
,
0001
0100
0010
1000
,
1000
0001
0010
0220
,
0330
1000
0010
0220
,
0330
0001
0100
1000
,
0100
0000
0000
0000
0001
0000
0000
0000
0010
0000
0000
0000
0220
0000
0000
0330
,
0000
2000
0100
3001
,
0002
0100
1003
2002
,
3003
0010
0000
0000
1000
0000
0000
0001
,
0000
0000
0011
0000
0000
1010
0000
0000
,
0101
0000
0000
1100
0000
0000
1002
0000
,
0103
0001
0010
1000
,
0100
0000
0002
0000
0000
0003
0000
0000
,
2000
0000
0000
3000
0000
0000
0100
0000
,
0100
0100
2002
3003
,
0100
0220
0000
0330
,
1001
0000
0000
0000
0000
0000
0000
0000
0100
0000
0000
0000
0000
0000
0000
1001
,
0000
0000
0000
1001
0000
0000
0000
1001
0000
0000
0000
1001
0000
0000
0000
0000
,
1000
0100
0001
0100
,
1100
0011
0101
1010
,
0001
0010
1000
0001
,
1000
0100
0001
0010
,
0100
1000
2002
3003
,
0100
0001
2002
3003
,
0002
0000
0000
0003
0000
0000
0000
0022
0000
0000
0000
0000
0033
0000
0000
0000
,
2000
0000
0000
3000
0000
0000
0000
2020
0000
0000
0000
0000
3030
0000
0000
0000
,
1000
0100
0001
0100
,
2200
3300
0202
0303
,
1001
0100
0010
0100
,
2002
0000
0000
0000
3003
0000
0000
1001
0000
0000
0000
0000
0000
0000
0000
0000
;
