#TITLE:OVERCHARGE★BOMBRUSH;
#SUBTITLE:;
#ARTIST:EBIMAYO;
#TITLETRANSLIT:;
#SUBTITLETRANSLIT:;
#ARTISTTRANSLIT:;
#GENRE:;
#CREDIT:;
#MUSIC:OVERCHARGE BOMBRUSH.ogg;
#BANNER:OVERCHARGE BOMBRUSH.png;
#BACKGROUND:OVERCHARGE BOMBRUSH-bg.png;
#CDTITLE:;
#SAMPLESTART:90.499;
#SAMPLELENGTH:15.000;
#SELECTABLE:YES;
#OFFSET:1.266;
#BPMS:0.000=170.000;
#STOPS:;
#BGCHANGES:;
#FGCHANGES:;

//--------------- dance-single - Talkion (X-Scale 17) ----------------
#NOTES:
     dance-single:
     Talkion (X-Scale 17):
     Challenge:
     11:
     0,0,0,0,0:
0000
0000
0000
0000
,
0000
0000
0000
0000
,
0000
0000
0000
0000
,
0000
0000
0000
0000
,
0000
0000
0000
0000
,
1000
0010
1000
0000
0100
0000
0010
0000
0001
0000
0100
0001
1000
0000
0100
0000
,
1000
0001
0100
0000
0010
0000
1000
0000
0001
0000
0010
0100
0010
0000
0001
0000
,
0100
0001
0100
0000
0010
0000
1000
0000
0100
0000
0010
0100
1000
0000
0010
0000
,
0100
0010
0100
0010
0100
0010
0100
0010
0100
0010
0100
0010
1000
0000
0000
0000
,
1100
0100
0010
0001
0101
0000
0110
0100
,
0001
0000
0010
0000
0001
0000
0010
0000
0100
0000
1000
0001
1000
0000
0100
0000
,
0010
0001
0200
0000
1300
0100
0010
1000
,
0001
0010
0001
0000
0100
0000
0010
0000
1000
0000
0100
0010
0001
0000
0000
0000
,
0011
0010
0100
1000
1010
0000
0110
0010
,
1000
0000
0100
0000
1000
0000
0100
0000
0010
0000
0001
1000
0001
0000
0010
0000
,
0100
1000
0020
0000
0031
0010
1000
0100
,
0010
0101
1100
0101
,
1010
0010
0100
0001
0011
0000
0110
0010
,
0001
0000
0100
0000
1000
0000
0100
0000
0010
0000
1000
0001
1000
0000
0100
0000
,
0010
0001
2000
0000
3010
0100
0001
0100
,
0010
1000
0010
0000
1000
0000
0100
0000
0010
0000
0001
1000
0010
0000
0000
0000
,
0110
0010
1000
0100
0110
0000
0011
0001
,
0010
0000
0100
0000
1000
0000
0010
0000
0001
0000
0010
0100
0010
0000
0100
0000
,
0001
1000
0001
1000
0001
0010
0001
0010
0100
0010
0100
0010
0100
1000
0100
1000
,
0002
0003
0200
0300
2000
3000
0020
0030
0002
0000
0003
0000
1001
0000
0000
0000
,
0101
0000
0100
0010
0100
0000
0010
0000
1010
0000
1000
0100
1000
0000
0100
0000
,
0010
0001
0100
0000
0010
1000
0010
0000
0100
0001
1000
0000
0100
1000
0100
0000
,
0010
0001
0200
0000
0310
0100
0001
0010
,
1000
0010
1000
0000
0010
0000
0100
1000
0100
1000
0002
0000
0100
0000
0103
0000
,
1010
0000
0010
0100
0010
0000
0100
0000
0101
0000
0001
0010
0001
0000
0010
0000
,
0100
1000
0010
0000
0100
0001
0100
0000
0010
1000
0001
0000
0010
0001
0010
0000
,
0100
1000
0020
0000
0130
0010
1000
0100
,
0001
0100
0001
0000
0100
0000
0010
0001
0010
0001
1000
0000
0010
0100
0001
1000
,
0200
0000
0000
0000
0001
0000
0000
0000
0310
0000
0001
1000
0001
0000
0100
0000
,
0020
0000
1000
0000
1030
0000
2000
0000
0100
0000
0100
0000
3100
0010
0001
1000
,
0020
0000
0000
0000
0001
0000
0000
0000
0130
0000
0001
1000
0001
0000
0010
0000
,
0100
1000
1010
0010
0110
0100
0101
0001
,
2001
0000
0000
0000
3100
0000
0010
0000
0001
1000
0001
1000
0010
0000
0100
0000
,
0010
1000
0100
0000
0010
0100
0010
0000
0001
0100
0010
0000
1000
0010
1000
0010
,
0100
0011
0100
1010
,
1001
1000
0110
0001
2002
0000
3003
0000
,
0021
0000
0130
1000
0020
0000
0031
0010
,
2000
0000
0000
0000
3100
0000
0010
0100
0010
0000
0001
0000
0100
0000
1000
0000
,
0002
0000
0013
0100
0002
0000
1003
0100
,
0010
0000
0001
0100
0001
0000
0100
0000
0010
1000
0001
0000
0010
0001
0010
0001
,
0200
0000
0310
1000
0200
0000
0301
0100
,
2000
0000
0000
0000
3010
0000
0100
0010
0100
0000
0001
0000
0010
0000
1000
0000
,
0010
0100
0010
0100
1000
0001
0200
0000
,
0310
0000
1000
0100
1000
0000
0100
0000
0010
0001
0010
0000
0001
0100
0001
0100
,
0020
0000
0130
0001
2000
0000
3100
0001
,
0200
0000
0000
0000
0310
0000
0001
0000
1000
0000
0010
1000
0010
0000
0100
0000
,
0002
0000
0013
1000
0002
0000
0103
1000
,
0020
0000
0000
0000
0130
0000
0001
0000
0100
0001
0100
0000
0010
1000
0010
1000
,
0200
0000
0310
0001
2000
0000
3010
0001
,
0020
0000
0000
0000
0130
0000
0001
0000
1000
0000
0100
1000
0100
0000
0010
0000
,
0001
0100
0001
0100
1000
0100
0010
1000
,
0100
1000
0100
1000
0001
0100
0001
0100
0010
1000
0010
1000
0001
0000
0000
0000
,
1001
1000
0100
0010
0001
0100
0010
0001
,
0010
0000
0000
0010
0100
0000
0001
0000
1000
0000
0000
1000
0100
0000
0010
0000
,
0001
0100
0010
1000
0100
0010
1000
0010
,
0100
0000
1000
0000
0001
0000
0100
0000
0010
0000
0100
0000
0010
1000
0010
1000
,
0001
0000
0001
0000
0010
0000
0010
0000
0100
0000
0100
0000
1000
0001
1000
0001
,
0100
0000
0100
0000
0010
0000
0010
0000
1000
0001
0000
0001
1000
0000
0100
0000
,
0010
0001
0010
0001
1000
0010
1000
0010
0100
0001
1000
0100
0010
0001
0010
0100
,
2000
0010
3100
1001
,
0101
0000
0100
0010
1000
0000
0100
1000
0100
0000
0001
0100
0001
0000
0100
0000
,
0110
0000
0010
0001
1000
0000
0010
0100
0010
0000
0001
0010
0001
0000
0010
0000
,
1000
0001
0100
0000
0001
1000
0100
0000
0010
0001
0100
0000
0010
1000
0100
0000
,
0110
0000
0010
0000
0011
0000
0001
0000
2001
0000
0000
0000
3010
0100
0001
0010
,
0100
0000
0010
0000
0100
0000
1000
0010
0100
0000
0010
0000
0100
0000
0001
0010
,
0100
1000
0100
0000
1000
0010
1000
0000
0010
0100
0010
0000
0100
0001
0100
0000
,
0011
0010
1010
1000
1100
0100
0101
0001
,
1001
0000
1000
0100
1000
0000
0100
0010
0001
0010
0001
1000
0010
0000
0100
0000
,
0101
0000
0001
1000
0100
0000
0001
0100
0001
0000
0100
0010
0100
0000
1000
0000
,
1001
0000
0001
1000
0010
0000
0001
0010
0001
0000
0010
0100
0010
0000
1000
0000
,
0100
0010
0001
0000
0100
0010
1000
0000
0100
1000
0010
0000
0100
0001
0010
0000
,
0110
0000
0100
0000
1100
0000
1000
0000
1002
0000
0000
0000
0103
0010
1000
0001
,
0010
0000
0100
0000
0010
0000
0100
0000
1000
0000
1000
0000
0001
0100
0001
0100
,
0010
0000
1000
0000
0010
0000
1000
0000
0100
0010
0000
0010
0100
0000
0100
0000
,
1000
0010
1000
0010
0100
0001
0100
0001
1000
0100
0010
0001
0010
0001
1000
0010
,
0100
0001
1000
0100
1000
0100
0001
0100
0010
0001
1000
0001
0100
0010
1000
0001
,
0010
1000
0010
1000
0010
1000
0010
1000
0010
1000
0010
0100
1000
0000
0000
0000
,
1001
0000
0000
0000
;
