#TITLE:Let you DIVE!;
#SUBTITLE:;
#ARTIST:HARDCORE TANO*C & エリザベス (CV:大西沙織);
#TITLETRANSLIT:;
#SUBTITLETRANSLIT:;
#ARTISTTRANSLIT:HARDCORE TANO*C & Elizabeth (CV: Oonishi Saori);
#GENRE:;
#CREDIT:;
#BANNER:[VIP3 Last Dance] - Let you DIVE!.png;
#BACKGROUND:[VIP3 Last Dance] - Let you DIVE!-bg.png;
#LYRICSPATH:;
#CDTITLE:cdtitle.png;
#MUSIC:[VIP3 Last Dance] - Let you DIVE!.ogg;
#OFFSET:1.599000;
#SAMPLESTART:89.195000;
#SAMPLELENGTH:15.000000;
#LASTBEATHINT:0.923458;
#SELECTABLE:YES;
#DISPLAYBPM:92.500000:185.000000;
#BPMS:0.000000=92.500000
,44.000000=185.000000
,52.000000=92.500000
,56.000000=185.000000
,64.000000=92.500000
,68.000000=185.000000
,164.000000=92.500000
,164.250000=185.000000
,164.500000=370.000000
,165.000000=185.000000
,292.000000=92.500000
;
#STOPS:
;
#BGCHANGES:2.375=[VIP3 Last Dance] - Let you DIVE!.avi=1.000=0=0=0=StretchNoLoop====,
99999=-nosongbg-=1.000=0=0=0 // don't automatically add -songbackground-
;
#KEYSOUNDS:;
#ATTACKS:;

//---------------dance-single - ----------------
#NOTES:
     dance-single:
     9646_ESP:
     Hard:
     9:
     0.568305,0.647147,0.512275,0.416223,0.112060,497.000000,433.000000,64.000000,52.000000,0.000000,0.000000,0.568305,0.647147,0.512275,0.416223,0.112060,497.000000,433.000000,64.000000,52.000000,0.000000,0.000000:
// measure 0
0000
0000
0000
0000
,  // measure 1
0000
0000
0000
0000
,  // measure 2
0000
0000
0000
0000
,  // measure 3
0010
0000
0100
0000
0001
0010
0000
0010
0200
0000
0000
0000
2300
0000
0000
0000
,  // measure 4
3010
0000
0100
0000
0010
1000
0000
1000
0002
0000
0000
0000
0203
0000
0000
0000
,  // measure 5
0310
0000
1000
0000
0100
0010
0000
0010
0200
0000
1300
0000
0010
0000
0100
1000
,  // measure 6
0200
0000
0000
0000
0310
0000
1000
0100
0020
0000
0000
0000
0032
0000
0000
0000
,  // measure 7
0013
0000
0100
0000
1000
0010
0000
0010
0200
0000
0000
0000
0302
0000
0000
0000
,  // measure 8
0013
0000
0100
0000
0010
0001
0000
0001
2000
0000
0000
0000
3200
0000
0000
0000
,  // measure 9
0310
0000
0001
0000
0100
0010
0000
0010
0200
0000
0301
0000
0010
0000
0100
1000
,  // measure 10
0002
0000
0000
0000
0013
0000
0100
1000
0020
0000
0130
0010
0000
0100
0010
0000
,  // measure 11
1001
0001
0000
0011
0001
0000
2200
0000
,  // measure 12
3300
0000
0001
0000
1000
0000
0010
0100
,  // measure 13
0020
0000
0031
0000
0020
0000
1030
0010
,  // measure 14
0110
0010
0000
1010
0010
0000
0202
0000
,  // measure 15
0303
0000
0010
0000
0100
0000
1000
0001
,  // measure 16
0020
0000
0000
0000
1030
0000
0000
0000
0020
0000
0000
0000
0031
0000
1000
0100
,  // measure 17
2000
0000
3001
0100
0010
1000
0002
0000
,  // measure 18
0013
1010
1000
1100
,  // measure 19
0002
0000
1003
0100
1000
0010
0100
0010
,  // measure 20
1000
0000
1001
0000
0010
0100
0010
0001
,  // measure 21
0011
0011
1010
1010
,  // measure 22
0101
1010
0110
1001
,  // measure 23
0001
0001
0010
0010
1000
0001
0100
1000
,  // measure 24
1001
0000
0000
0000
,  // measure 25
0110
0000
0000
0011
0000
0000
2200
0000
,  // measure 26
0000
0000
0000
0000
3300
0110
0000
0000
,  // measure 27
1001
0000
0000
1010
0000
0000
0101
0000
,  // measure 28
1000
0010
0100
0010
1000
0002
0000
0003
,  // measure 29
0110
0000
0000
1100
0000
0000
0022
0000
,  // measure 30
0000
0000
0000
0000
0033
0110
0000
0000
,  // measure 31
1001
0000
0000
0101
0000
0000
1010
0000
,  // measure 32
0001
0100
0000
0010
0100
0001
0010
0000
,  // measure 33
1100
1100
1100
1100
,  // measure 34
0011
0011
0011
0011
,  // measure 35
0110
0110
0110
0110
,  // measure 36
1001
1001
0110
0110
,  // measure 37
1000
0100
0010
0001
1000
0100
0010
0001
,  // measure 38
1000
0010
0100
0001
1000
0010
0100
0001
,  // measure 39
1000
0100
0010
0001
0100
0010
1000
0100
,  // measure 40
0010
0000
0000
0000
0100
0000
1000
0000
0001
0000
0010
0000
0100
1000
0100
1000
,  // measure 41
0200
0000
0310
0001
0010
1000
0010
0100
,  // measure 42
0010
0001
0010
1000
0010
0001
2000
0000
,  // measure 43
3010
0000
0100
1000
0100
0001
0100
0010
,  // measure 44
0100
1000
0100
0010
1000
0100
0020
0000
,  // measure 45
0031
0000
1000
0100
1000
0001
1000
0010
,  // measure 46
1000
0100
1000
0001
1000
0010
0200
0000
,  // measure 47
0310
0000
1000
0100
0010
0100
1000
0001
,  // measure 48
0101
0000
0000
0000
0101
0000
0000
0000
0010
1000
0010
0000
0110
0000
0000
0000
,  // measure 49
0011
0000
0100
1000
0010
0001
0010
0100
,  // measure 50
0010
1000
0010
0001
0010
1000
0200
0000
,  // measure 51
0310
0000
0001
0100
0001
0010
0001
1000
,  // measure 52
0001
0100
0001
1000
0100
0001
2000
0000
,  // measure 53
3010
0000
0100
0001
0100
0010
0100
1000
,  // measure 54
0100
0001
0100
0010
0100
1000
0001
0100
,  // measure 55
0010
0000
1000
0010
2000
0000
0000
0000
3001
0100
0001
0000
0010
0100
0010
0000
,  // measure 56
0100
0000
0100
1000
0001
0100
0010
1000
,  // measure 57
1020
0000
0130
0001
0010
0000
2100
0000
,  // measure 58
0001
0000
0100
0000
3010
0100
0001
0100
,  // measure 59
0020
0000
0130
1000
0100
0010
1000
0001
,  // measure 60
0010
0100
0001
0100
1000
0001
0010
0000
,  // measure 61
0012
0000
1003
0010
0001
0000
1200
0000
,  // measure 62
0010
0000
1000
0000
0301
1000
0010
0100
,  // measure 63
0002
0000
0013
0100
1000
0010
0100
0001
,  // measure 64
0010
0100
0010
0000
0100
0000
0010
0100
0000
0000
1000
0000
0001
0000
1000
0000
,  // measure 65
1200
0000
0310
0001
0100
0010
2010
0000
,  // measure 66
0001
0000
0010
0000
3100
0010
0001
0010
,  // measure 67
0200
0000
0310
1000
0010
0100
1000
0001
,  // measure 68
0100
0010
0001
1000
0100
0010
1000
0000
,  // measure 69
0001
0100
0001
0100
0010
1000
0010
1000
,  // measure 70
0100
0001
1000
0010
0001
1000
0010
0001
,  // measure 71
0011
0010
1000
0001
1001
0001
0010
0100
,  // measure 72
0000
0110
1010
0011
,  // measure 73
2200
0000
0000
0000
,  // measure 74
3300
0000
0000
0000
,  // measure 75
0001
0000
0000
1000
0000
0000
0020
0000
0000
0000
0000
0000
0000
0000
0030
0000
,  // measure 76
0002
0000
2000
0000
,  // measure 77
3003
0000
0000
0000
;

//---------------dance-single - ----------------
#NOTES:
     dance-single:
     9646_DSP:
     Medium:
     7:
     0.417367,0.493064,0.328176,0.320172,0.004002,365.000000,324.000000,41.000000,40.000000,0.000000,0.000000,0.417367,0.493064,0.328176,0.320172,0.004002,365.000000,324.000000,41.000000,40.000000,0.000000,0.000000:
0000
0000
0000
0000
,
0000
0000
0000
0000
,
0000
0000
0000
0000
,
1000
0100
0001
0000
2000
0000
3000
0000
,
0001
0100
1000
0000
0002
0000
0003
0000
,
1000
0100
0001
0000
0100
1000
0001
0000
,
2000
3000
0002
0003
,
1000
0010
0001
0000
2000
0000
3000
0000
,
0001
0010
1000
0000
0002
0000
0003
0000
,
1000
0010
0001
0000
0010
1000
0001
0010
,
0200
0300
0020
0030
,
0100
0001
0000
0100
1000
0000
2002
0000
,
3003
0000
0010
0000
0100
0000
0001
1000
,
0010
0000
0101
0000
0010
1000
1100
0010
,
0001
0100
0000
1000
0100
0000
0220
0000
,
0330
0000
1000
0000
0001
0000
0010
0100
,
1000
0000
1001
0000
0010
0100
0110
0001
,
2000
0000
3001
0200
0000
0310
2000
0000
,
3001
0100
0010
1000
,
0100
0000
0010
0001
0000
0010
0000
0001
,
1000
0000
0010
0000
0010
0100
0010
0000
,
1010
0010
0011
0010
,
1000
0010
0100
0001
,
1000
0100
1000
0000
0001
0010
0001
0000
,
0110
0000
0000
0000
,
1100
0000
0000
0011
0000
0000
2002
0000
,
0000
0000
0000
0000
0000
3003
0000
0000
,
1010
0000
0000
0101
0000
0000
0011
0000
,
0100
0000
0100
0000
1000
0002
0000
0003
,
0011
0000
0000
1100
0000
0000
2002
0000
,
0000
0000
0000
0000
0000
3003
0000
0000
,
0101
0000
0000
1010
0000
0000
0110
0000
,
2000
0000
0010
3010
,
0110
0100
0100
0100
,
0001
0001
0001
0001
,
1001
1000
1000
1000
,
0100
0100
0100
0100
,
0010
0001
0010
0000
1000
0010
1000
0000
,
0100
1000
0100
0000
0001
0100
0001
0000
,
1000
0100
0010
0001
1000
0100
0010
0001
,
0010
0000
0000
0000
0000
0000
0001
1000
,
0002
0000
0103
0010
0100
0010
0000
1000
,
0000
1100
0000
0001
0000
0100
0020
0000
,
1030
0000
0100
0010
0100
0010
0000
0001
,
0000
1001
0000
0010
0000
0001
0020
0000
,
1030
0000
0001
0100
0001
0100
0000
1000
,
0000
0110
0000
0001
0000
1000
0020
0000
,
0130
0000
0001
0010
0001
0010
0100
0000
,
0110
0000
0110
0000
1000
0100
0001
0000
,
1001
0000
1000
0010
0100
0001
0000
0010
,
0000
1100
0000
0001
0000
0100
0020
0000
,
1030
0000
0001
0100
0010
1000
0000
0100
,
0000
0110
0000
0001
0000
1000
0020
0000
,
0031
0000
0010
1000
0001
0010
0000
0100
,
0000
1001
0000
0010
0000
0001
0000
1000
,
0010
0100
0110
0000
0001
0010
0110
0000
,
2002
0000
3003
0000
,
0020
0000
0130
0001
0010
0000
0210
0000
,
0001
0010
0001
0010
,
1300
0000
0001
0000
1000
0100
1000
0000
,
0010
0100
0001
1000
0010
0100
0001
0000
,
0020
0000
0130
1000
0010
0000
0210
0000
,
1000
0010
1000
0010
,
0301
0000
1000
0000
0001
0100
0001
0000
,
0010
0100
1000
0001
0000
0010
0100
0000
,
0120
0000
0031
1000
0010
0000
0102
0000
,
1000
0100
1000
0100
,
0013
0000
0100
0000
1000
0010
0100
0000
,
0001
0010
0100
0010
0001
0010
0100
0000
,
1000
0010
1000
0000
0010
0001
0010
0000
,
0001
0100
0001
0000
0100
1000
0100
0000
,
1000
0010
0100
0001
0010
0100
1000
0001
,
0000
0010
0100
0110
,
2002
0000
0000
0000
,
3003
0000
0000
0000
,
0010
0000
0000
0100
0000
0000
0020
0000
0000
0000
0000
0000
0000
0000
0030
0000
,
2000
0000
0002
0000
,
3003
0000
0000
0000
;

//---------------dance-single - ----------------
#NOTES:
     dance-single:
     9646_BSP:
     Easy:
     5:
     0.296159,0.369798,0.192103,0.312167,0.004002,259.000000,235.000000,24.000000,39.000000,0.000000,0.000000,0.296159,0.369798,0.192103,0.312167,0.004002,259.000000,235.000000,24.000000,39.000000,0.000000,0.000000:
0000
0000
0000
0000
,
0000
0000
0000
0000
,
0000
0000
0000
0000
,
1000
0100
0002
0003
,
0001
0100
2000
3000
,
0001
0100
1000
0010
,
0002
0003
2000
3000
,
0001
0100
2000
3000
,
1000
0100
0002
0003
,
1000
0100
0001
0010
,
2000
3000
0002
0003
,
0110
0000
0000
0110
0000
0000
2002
0000
,
3003
0000
0001
1000
,
0001
0101
1000
1100
,
0010
0000
0000
0110
0000
0000
2002
0000
,
3003
0000
0001
1000
,
0001
0110
1000
0110
,
0001
1000
0010
0100
,
0001
1000
0100
0010
,
0001
0001
1000
1000
,
0010
0001
0010
1000
,
0010
0101
0010
1010
,
0100
0001
0010
0100
,
1000
1000
0001
0001
,
0110
0000
0000
0000
,
1000
0000
0000
0001
0000
0000
0220
0000
,
0000
0000
0000
0000
0000
0330
0000
0000
,
0001
0000
0000
1000
0000
0000
0010
0000
,
0100
0001
1000
0000
,
0001
0000
0000
1000
0000
0000
0220
0000
,
0000
0000
0000
0000
0000
0330
0000
0000
,
0001
0000
0000
1000
0000
0000
0100
0000
,
0020
0030
0002
0003
,
1000
1000
1000
1000
,
1000
1000
1000
1000
,
0001
0001
0001
0001
,
0001
0001
0001
0001
,
1000
1000
0010
0010
,
0001
0001
0100
0100
,
1000
0010
0001
0100
,
1000
0000
0000
0000
,
0002
1003
0010
0010
,
0100
0001
1000
0020
,
0030
0100
0001
0010
,
0100
0100
0010
0002
,
0003
1000
0010
0100
,
0010
1000
0100
0020
,
0030
0100
1000
0001
,
1001
0100
1001
0010
,
0110
0001
0010
0010
,
0100
1000
0001
0020
,
0130
0100
1000
0010
,
0100
0100
0010
2000
,
3001
0001
0010
0100
,
0010
0001
0100
0010
,
0100
1001
0010
0110
,
0200
0000
0300
0000
,
0020
0030
0100
2001
,
0000
0100
0000
0100
,
3001
0100
1000
0100
,
0001
1000
0020
0030
,
0200
0300
0010
1002
,
0000
0010
0000
0010
,
1003
0010
0001
0010
,
1000
0010
0020
0030
,
1000
0100
0010
0001
,
1000
0100
0010
0001
,
1000
0010
0100
0001
,
1000
0010
0100
0100
,
0001
0001
0010
0010
,
0200
2300
3020
0130
,
0110
0000
1001
0010
,
0000
0100
0010
0100
,
2002
0000
0000
0000
,
3003
0000
0000
0000
,
0100
0000
0000
0010
0000
0000
0200
0000
0000
0000
0000
0000
0000
0000
0300
0000
,
0002
0000
2000
0000
,
3003
0000
0000
0000
;

//---------------dance-single - ----------------
#NOTES:
     dance-single:
     9646_BEG:
     Beginner:
     3:
     0.170377,0.246532,0.128069,0.200107,0.000000,149.000000,133.000000,16.000000,25.000000,0.000000,0.000000,0.170377,0.246532,0.128069,0.200107,0.000000,149.000000,133.000000,16.000000,25.000000,0.000000,0.000000:
0000
0000
0000
0000
,
0000
0000
0000
0000
,
0000
0000
0000
0000
,
0200
0000
0000
0300
,
0020
0000
0000
0030
,
0002
0000
0000
0003
,
2000
3000
0002
0003
,
2000
0000
0000
3000
,
0020
0000
0000
0030
,
0002
0003
0200
0300
,
2000
3000
0002
0003
,
1001
0000
0000
0000
,
0000
0000
0000
0000
,
1000
0000
0001
0000
,
1001
0000
0000
0000
,
0000
0000
0000
0000
,
0010
0000
0100
0000
,
0110
0000
0001
0000
,
1000
0000
0100
0000
,
0001
0000
1000
0000
,
0010
0000
0010
0000
,
0001
0001
0001
0000
,
1000
1000
1000
0000
,
1000
0000
0001
0000
,
1001
0000
0000
0000
,
0220
0000
0000
0000
,
0000
0000
0330
0000
,
0110
0000
0000
0000
,
1001
0000
0000
0000
,
0220
0000
0000
0000
,
0000
0000
0330
0000
,
0110
0000
0000
0000
,
1001
0000
0000
0000
,
0010
0010
0010
0000
,
0010
0010
0010
0000
,
0100
0100
0100
0000
,
0100
0100
0100
0000
,
1000
1000
1000
0000
,
0001
0001
0001
0000
,
0010
0010
0010
0010
,
0010
0000
0000
0000
,
0200
0000
0300
0000
,
1000
1000
1000
0000
,
0001
0000
0010
0000
,
0001
0001
0001
0000
,
1000
0000
0010
0000
,
0100
0100
0100
0000
,
0010
0000
0001
0000
,
1001
0000
0110
0000
,
1001
0000
0010
0000
,
1000
1000
1000
0000
,
0001
0000
0100
0000
,
0001
0001
0001
0000
,
1000
0000
0100
0000
,
0010
0010
0010
0000
,
0100
0000
0010
0000
,
0220
0000
0330
0000
,
0001
0000
0001
0000
,
0002
0000
0000
0003
,
0001
0000
1000
0000
,
0010
0010
0010
0000
,
0100
0000
0100
0000
,
0200
0000
0000
0300
,
0100
0000
0001
0000
,
1000
1000
1000
0000
,
0100
0000
0100
0000
,
0010
0000
0010
0000
,
0100
0000
0010
0000
,
0001
0001
0001
0000
,
1000
0000
0010
0000
,
0002
0000
0000
0003
,
1001
0000
0010
0010
,
0000
0000
0000
0000
,
0220
0000
0000
0000
,
0330
0000
0000
0000
,
2000
0000
0000
3000
,
0002
0000
0000
0000
,
0003
0000
0000
0000
;
