#TITLE:Last Dance;
#SUBTITLE:;
#ARTIST:Dua Lipa;
#TITLETRANSLIT:;
#SUBTITLETRANSLIT:;
#ARTISTTRANSLIT:;
#GENRE:;
#CREDIT:hooky;
#BANNER:[VIP3 Last Dance] - Last Dance.png;
#BACKGROUND:[VIP3 Last Dance] - Last Dance-bg.png;
#LYRICSPATH:;
#CDTITLE:;
#MUSIC:[VIP3 Last Dance] - Last Dance.ogg;
#OFFSET:0.000000;
#SAMPLESTART:43.674999;
#SAMPLELENGTH:15.000000;
#SELECTABLE:YES;
#DISPLAYBPM:136.000000;
#BPMS:0.000000=136.000000
;
#STOPS:
;
#BGCHANGES:0.000=[VIP3 Last Dance] - Last Dance.avi=1.000=0=0=0=StretchNoLoop====,
99999=-nosongbg-=1.000=0=0=0 // don't automatically add -songbackground-
;
#KEYSOUNDS:;
#ATTACKS:;

//---------------dance-single - ----------------
#NOTES:
     dance-single:
     :
     Hard:
     9:
     0.539276,0.715664,0.621575,0.151604,0.272886,498.000000,416.000000,82.000000,20.000000,0.000000,0.000000,0.539276,0.715664,0.621575,0.151604,0.272886,498.000000,416.000000,82.000000,20.000000,0.000000,0.000000:
// measure 0
0000
0000
0000
0000
,  // measure 1
0000
0000
0000
0000
,  // measure 2
0000
0000
0000
0000
,  // measure 3
0000
0000
0000
0000
,  // measure 4
0000
0000
0000
0000
,  // measure 5
0010
0000
0010
0000
,  // measure 6
0010
0000
0010
0000
,  // measure 7
1000
0001
0000
0000
1000
0001
0000
0000
,  // measure 8
1000
0001
0000
0000
1000
0001
0000
0000
,  // measure 9
1000
0010
0100
0010
1000
1000
0001
0000
,  // measure 10
0001
0010
0100
0010
0001
0001
1000
0000
,  // measure 11
0001
0001
1000
0000
0001
0001
2000
0000
,  // measure 12
0020
0000
0000
3030
,  // measure 13
0100
0100
0010
0100
0001
0010
0001
0000
,  // measure 14
0010
0010
0100
1000
0010
0100
0001
0100
,  // measure 15
0010
1000
0100
1000
0001
0000
0001
0000
,  // measure 16
2002
0000
3003
0000
0001
0010
0100
1000
,  // measure 17
0110
0000
0000
0010
1000
0000
1000
0000
0001
0000
0100
0000
0001
0000
0000
0000
,  // measure 18
0101
0000
0000
0100
0001
0000
0001
0000
0010
0000
0100
0000
1000
0000
1000
0000
,  // measure 19
1001
0000
0000
0001
0100
0000
0100
0000
0010
0000
1000
0000
0100
0000
0000
0000
,  // measure 20
1100
0000
0000
0010
1000
0000
1000
0000
0100
0000
0001
0000
0100
0000
1000
0000
,  // measure 21
1001
0000
0000
0001
0100
0000
0100
0000
0001
0000
0010
0000
1000
0000
0010
0000
,  // measure 22
0011
0000
0000
0001
0100
0000
0100
0000
0001
0000
0010
0000
0001
0000
0100
0000
,  // measure 23
0010
0000
0000
0100
0001
0000
1000
0000
0010
0000
0000
0000
0110
0000
0000
0000
,  // measure 24
1010
0000
0000
0010
1000
0000
2200
0000
0000
0000
3300
0000
1000
0000
0100
0000
,  // measure 25
0011
0000
0000
0011
0000
0000
0101
0000
0000
0000
0001
0000
0100
0000
0010
0000
,  // measure 26
1010
0000
0000
1010
0000
0000
1100
0000
0000
0000
1000
0000
0100
0000
0010
0000
,  // measure 27
0011
0000
0000
0101
0000
0000
0101
0000
0000
0000
0100
0000
0010
0000
1000
0000
,  // measure 28
1100
0000
0000
1100
0000
0000
0011
0000
0000
0000
0101
0000
0100
0000
0010
0000
,  // measure 29
1100
0000
0000
1100
0000
0000
1100
0000
0000
0000
0100
0000
0010
0000
0001
0000
,  // measure 30
0101
0000
0000
0101
0000
0000
0101
0000
0000
0000
0001
0000
1000
0000
0100
0000
,  // measure 31
0110
0000
0000
0110
0000
0000
1001
0000
0000
0000
0001
0000
0010
0000
0100
0000
,  // measure 32
0110
0000
0000
1001
0000
0000
2020
0000
0000
0000
0000
0000
0000
0000
3030
0000
,  // measure 33
1010
0000
0010
0100
0000
0100
0010
0000
0000
0000
0010
0000
1010
0000
1000
0000
,  // measure 34
1100
0000
0000
1000
0100
0000
0010
0000
0001
0000
0100
0000
0110
0000
0000
0000
,  // measure 35
0100
0000
0100
0010
0000
0000
0010
0000
0110
0000
0000
0000
0010
0000
1000
0000
,  // measure 36
0001
0000
0001
1000
0000
1000
0001
0000
1000
0000
0010
0000
1000
0000
0001
0000
,  // measure 37
0010
0000
0010
0001
0000
0010
0001
0000
0000
0000
0001
0000
0011
0000
0001
0000
,  // measure 38
0101
0000
0000
0001
1000
0000
1000
0000
0010
0000
0100
0000
0110
0000
0000
0000
,  // measure 39
0101
0000
0001
0100
0000
0000
0101
0000
0101
0000
0000
0000
0010
0000
0001
0000
,  // measure 40
1000
0000
1000
0001
0000
0001
1000
0000
0001
0100
0001
0100
0010
0000
0100
0010
,  // measure 41
0200
0000
0010
0000
0001
0000
1000
1000
,  // measure 42
0000
0010
0000
0002
0000
0000
0303
0000
,  // measure 43
0020
0000
0001
0000
0100
0000
1000
1000
,  // measure 44
0000
0001
0000
0130
0000
0000
0010
0100
,  // measure 45
0000
0000
0100
0100
0000
0000
0100
0100
,  // measure 46
0000
0000
0100
0100
0000
0010
0001
2000
,  // measure 47
0000
0002
0000
0000
,  // measure 48
0000
0000
3000
0020
,  // measure 49
0000
0000
0000
0033
,  // measure 50
0011
0000
0000
0011
0000
0000
0101
0000
0000
0000
0100
0000
0010
0000
0010
0000
,  // measure 51
1010
0000
0000
0010
1000
0000
0100
0000
1000
0000
0001
0100
0010
0000
0010
0000
,  // measure 52
0101
0000
0000
0101
0000
0000
0101
0000
0011
0000
0001
0000
1000
0000
0100
0000
,  // measure 53
0100
0000
0010
0001
0000
0001
1000
0000
0100
0000
0010
0000
0100
0000
0000
0000
,  // measure 54
0010
0000
0010
0001
0000
0001
0010
0000
0001
0000
0001
0000
0101
0000
0100
0000
,  // measure 55
0110
0000
0010
1000
0000
1000
0100
0000
1000
0000
0100
0010
0001
0000
0100
0000
,  // measure 56
0110
0000
0010
1000
0000
1000
0100
0000
1000
0000
1000
0010
0100
0000
0001
0000
,  // measure 57
0011
0000
0000
0011
0000
0000
0101
0000
0001
1000
0000
1000
0001
0000
0001
0100
,  // measure 58
0010
0000
0010
1000
0000
1000
0100
0000
1000
0000
1000
0000
1100
0000
0100
0000
,  // measure 59
1100
0000
1000
0001
0000
0001
1000
0000
0001
0000
0001
0010
0100
1000
0001
0000
,  // measure 60
0101
0000
0000
0110
0000
0000
1010
0000
0110
0000
0100
0000
1001
0000
0000
0000
,  // measure 61
0011
0000
0001
1000
0000
1000
0001
0000
0001
0100
0010
1000
0100
0000
1000
0000
,  // measure 62
0101
0000
0000
0101
0000
0000
0101
0000
0100
0000
0001
0000
0011
0000
0000
0000
,  // measure 63
1100
0000
1000
0100
0000
0010
0001
0100
0010
0000
0100
0000
0101
0000
0000
0000
,  // measure 64
0011
0000
0000
0011
0000
0000
1100
0000
1010
0000
0000
0000
0110
0000
0000
0000
,  // measure 65
1001
0000
0001
1000
0000
1000
0001
0000
0100
0010
1000
0100
1000
0000
0001
0100
,  // measure 66
0001
0000
0001
0010
0000
0010
0001
0000
0000
0000
0000
0000
1010
0000
0000
0000
,  // measure 67
0210
0000
0000
1000
0002
0000
0303
0000
,  // measure 68
0002
0000
0000
0003
0000
0000
0010
0000
,  // measure 69
0002
0000
0000
0100
0010
0000
1003
0000
,  // measure 70
0100
0000
0000
0100
0100
0000
0000
0100
,  // measure 71
0100
0000
0000
0010
0000
1000
0000
0001
,  // measure 72
0002
0000
0000
2000
0000
3003
0000
0000
;
