#TITLE:十四歳病;
#SUBTITLE:;
#ARTIST:Brats;
#TITLETRANSLIT:Juuyon sai byou;
#SUBTITLETRANSLIT:;
#ARTISTTRANSLIT:;
#GENRE:;
#CREDIT:mf32892;
#BANNER:;
#BACKGROUND:Juuyon sai byou-jacket.png;
#LYRICSPATH:;
#CDTITLE:;
#MUSIC:Juuyon sai byou (Fourteen year old disease).ogg;
#OFFSET:-0.381000;
#SAMPLESTART:70.250000;
#SAMPLELENGTH:15.000000;
#SELECTABLE:YES;
#BPMS:0.000000=175.009995
;
#STOPS:
;
#BGCHANGES:0.000=Juuyon sai byou (Fourteen year old disease).mp4=1.000=0=0=0=StretchNoLoop====,
99999=-nosongbg-=1.000=0=0=0 // don't automatically add -songbackground-
;
#KEYSOUNDS:;
#ATTACKS:;

//---------------dance-single - ----------------
#NOTES:
     dance-single:
     :
     Medium:
     7:
     0.413821,0.477067,0.105018,0.271297,0.000000,331.000000,319.000000,12.000000,31.000000,0.000000,0.000000,0.413821,0.477067,0.105018,0.271297,0.000000,331.000000,319.000000,12.000000,31.000000,0.000000,0.000000:
// measure 0
0000
0000
0000
0000
,  // measure 1
0000
0000
0000
0000
,  // measure 2
0000
0000
0000
0000
,  // measure 3
0000
0000
0000
0000
,  // measure 4
0000
0000
0000
0000
,  // measure 5
0000
0000
0000
0000
,  // measure 6
0000
0000
0000
0000
,  // measure 7
0000
0000
0000
0000
,  // measure 8
0000
0000
0000
0000
,  // measure 9
0000
0000
0000
0000
,  // measure 10
1000
1000
0001
0010
,  // measure 11
0100
0000
0100
0000
0010
0000
0001
1000
,  // measure 12
0010
0010
0100
0001
,  // measure 13
1000
0000
1000
0000
0001
0100
0010
1000
,  // measure 14
0100
0100
1000
0001
,  // measure 15
0010
0000
0010
0000
0001
0000
0100
0010
,  // measure 16
1000
0000
1000
0000
0001
1000
0001
0020
,  // measure 17
0000
0000
0100
0130
,  // measure 18
1000
0000
0001
0000
0100
0001
1000
0000
,  // measure 19
0100
1000
0001
0010
0000
0010
0100
0000
,  // measure 20
0010
0000
0001
0000
0100
0001
1000
0000
,  // measure 21
0010
0100
0001
1000
0000
1000
0001
0000
,  // measure 22
1001
0000
0001
0000
0010
0100
1000
0000
,  // measure 23
0001
0100
0010
1000
0000
0001
1000
0000
,  // measure 24
0100
0000
0100
0000
0010
0001
1000
0000
,  // measure 25
0010
0100
0001
0100
0010
0100
0001
0000
,  // measure 26
2000
0000
0000
0100
0000
0000
0000
0000
,  // measure 27
3002
0000
0000
0010
0000
1003
0001
0000
,  // measure 28
0200
0000
0000
0010
0000
0000
0000
0000
,  // measure 29
0302
0000
0000
1000
0000
0013
0100
1000
,  // measure 30
0200
0000
0000
0010
0000
0000
0000
0000
,  // measure 31
2300
0000
0000
0010
3000
1000
0001
0000
,  // measure 32
0020
0000
0000
0100
0000
0000
0031
0000
,  // measure 33
2000
3020
0230
0302
,  // measure 34
1003
0000
0100
0000
0010
0001
1000
0000
,  // measure 35
0001
0100
0001
1000
0000
1000
0001
0000
,  // measure 36
0010
0000
0100
0000
0010
0001
1000
0000
,  // measure 37
0001
0100
0010
1000
0000
1000
0001
0000
,  // measure 38
1001
0000
0001
0000
1000
0001
0100
0000
,  // measure 39
0010
1000
0001
1000
0000
1000
0001
0000
,  // measure 40
0010
0000
0100
0000
0010
0001
1000
0000
,  // measure 41
0010
0100
0001
1000
0000
0001
0010
0000
,  // measure 42
0100
0000
1000
0100
0000
0100
0010
0000
,  // measure 43
0001
0000
0100
0010
0000
0010
1000
0000
,  // measure 44
0010
0000
1000
0001
0000
1000
0100
0000
,  // measure 45
0010
0000
0001
1000
0000
0001
0100
0000
,  // measure 46
0010
0000
1000
0001
0000
0001
0010
0000
,  // measure 47
0100
0000
1000
0010
0000
0010
0100
0000
,  // measure 48
0001
0000
1000
0100
0000
0010
0100
0000
,  // measure 49
2000
3020
0230
0301
,  // measure 50
0002
0000
0023
0000
0230
0300
1001
0000
,  // measure 51
1000
0100
1000
0000
0010
0000
1001
0000
,  // measure 52
0001
0100
0001
0000
0010
0000
1001
0000
,  // measure 53
0001
0010
0100
0000
1000
0001
0100
0000
,  // measure 54
0010
0010
0100
1001
,  // measure 55
0001
0010
0100
0000
0010
0000
1001
0000
,  // measure 56
1000
0010
0100
0000
0010
0000
1001
0000
,  // measure 57
0001
1000
0100
0000
1000
0001
0100
0000
,  // measure 58
0020
2030
3200
0320
,  // measure 59
0032
0000
0103
0010
1000
0000
0001
0000
,  // measure 60
2000
0000
3100
0010
0001
0000
1000
0000
,  // measure 61
0201
0000
0310
0000
2010
0000
0000
3010
,  // measure 62
1000
0001
1000
0002
0000
0000
0000
0023
,  // measure 63
0000
0130
1000
0000
0001
1000
0001
0000
,  // measure 64
0100
0010
1000
0000
0002
0000
1003
0001
,  // measure 65
1000
0000
1000
0000
0001
0000
0010
0100
,  // measure 66
1000
0001
1000
0002
0000
0000
0103
0000
,  // measure 67
0001
0000
0100
0000
0010
0100
0000
0001
,  // measure 68
0000
0000
0000
0000
,  // measure 69
0001
0001
1000
0100
,  // measure 70
0010
0000
0010
0000
0100
0000
1000
0001
,  // measure 71
0100
0100
0010
1000
,  // measure 72
0001
0000
0001
0000
1000
0010
0100
0001
,  // measure 73
0010
0010
0001
1000
,  // measure 74
0100
0000
0100
0000
1000
0000
0010
0100
,  // measure 75
0001
0000
0001
0000
1000
0001
1000
0200
,  // measure 76
0000
0000
0010
0310
,  // measure 77
0000
0000
1001
0000
1000
0001
0000
1001
;

//---------------dance-single - ----------------
#NOTES:
     dance-single:
     :
     Hard:
     8:
     0.536343,0.647448,0.472582,0.271297,0.061261,429.000000,375.000000,54.000000,31.000000,0.000000,0.000000,0.536343,0.647448,0.472582,0.271297,0.061261,429.000000,375.000000,54.000000,31.000000,0.000000,0.000000:
// measure 0
0000
0000
0000
0000
,  // measure 1
0000
0000
0000
0000
,  // measure 2
0000
0000
0000
0000
,  // measure 3
0000
0000
0000
0000
,  // measure 4
0000
0000
0000
0000
,  // measure 5
0000
0000
0000
0000
,  // measure 6
0000
0000
0000
0000
,  // measure 7
0000
0000
0000
0000
,  // measure 8
0000
0000
0000
0000
,  // measure 9
0000
0000
0000
0000
,  // measure 10
0001
0100
1000
0100
0000
0001
0000
0011
,  // measure 11
0000
1100
0000
1010
0000
0201
0000
0310
,  // measure 12
1000
0100
0001
0100
0000
1000
0000
1010
,  // measure 13
0000
0101
0000
0011
0000
0210
0000
1300
,  // measure 14
0001
0010
1000
0010
0000
0001
0000
0101
,  // measure 15
0000
1010
0000
1100
0000
0012
0000
1003
,  // measure 16
0001
0100
1000
0100
0000
0110
0000
2002
,  // measure 17
0000
0000
0000
3003
,  // measure 18
0001
0100
1000
0100
0010
1000
0100
0010
,  // measure 19
1000
0010
0001
0100
0010
1000
0000
0002
,  // measure 20
0000
0013
0100
0010
0001
0010
0100
0010
,  // measure 21
0001
0100
0000
0100
0000
0000
0000
0000
,  // measure 22
0110
0000
0010
1000
0010
1000
0100
0001
,  // measure 23
0100
1000
0002
0000
0013
0100
0000
0020
,  // measure 24
0000
0031
0100
0001
1000
0010
0001
0010
,  // measure 25
1000
1010
0001
0011
,  // measure 26
1000
0000
0000
0100
0000
0000
0011
0000
,  // measure 27
0001
0000
0000
0100
0000
0010
1000
1000
,  // measure 28
0100
0000
0000
0010
0000
0000
1001
0000
,  // measure 29
0001
0000
0000
0100
0000
0001
1000
0001
,  // measure 30
0100
0000
0000
0010
0000
0000
2010
0000
,  // measure 31
3100
0000
0000
0010
0000
0010
0001
0001
,  // measure 32
1000
0000
0000
0010
0000
0000
0100
0001
,  // measure 33
0100
0101
0110
1010
,  // measure 34
0002
0000
0013
0000
0200
0000
0310
0001
,  // measure 35
0100
0000
0010
0100
0010
1000
0000
0200
,  // measure 36
0000
0310
0100
0010
0001
0010
0100
0010
,  // measure 37
0001
1000
0000
1000
0000
0000
0000
0000
,  // measure 38
0001
0001
0100
0010
1000
1000
0100
0020
,  // measure 39
0000
0130
1000
0001
0100
1000
0000
0200
,  // measure 40
0000
0310
1000
0100
1000
0010
1000
0100
,  // measure 41
0010
0011
0001
0101
,  // measure 42
0100
0100
0010
1000
0000
0001
1000
0000
,  // measure 43
0100
0100
0010
0001
0000
1000
0010
0000
,  // measure 44
0100
0100
0001
1000
0000
0001
0010
0000
,  // measure 45
0100
0000
0100
0000
1000
0000
0001
0000
0000
0000
0100
0000
0010
0100
0010
0000
,  // measure 46
1000
1000
0001
0010
0000
0100
1000
0000
,  // measure 47
0010
0010
1000
0100
0000
0010
0001
0000
,  // measure 48
1000
1000
0010
0001
0000
0010
1000
0000
,  // measure 49
1010
0110
0101
1001
,  // measure 50
1000
0100
1000
0001
0010
0001
0100
0010
1000
0001
0000
0000
,  // measure 51
1000
0100
0010
0001
1000
0000
0001
0100
,  // measure 52
0000
0100
0010
1000
0001
0000
0010
0200
,  // measure 53
0000
1300
0100
0001
0100
1000
0100
0001
,  // measure 54
0100
1000
0010
1001
,  // measure 55
0001
0010
0100
1000
0010
0000
0100
0001
,  // measure 56
0000
0001
1000
0100
0010
0000
0100
2000
,  // measure 57
0000
3010
0100
1000
0100
0001
0100
0010
,  // measure 58
1000
0100
0110
1001
,  // measure 59
0002
0000
0000
0103
0000
0000
0010
0000
1000
0000
0000
0000
0001
0000
0000
0000
,  // measure 60
2000
0000
0000
3100
0000
0000
0010
0000
0001
0000
0000
0000
1000
0000
0000
0000
,  // measure 61
1020
0000
0130
0000
0102
0000
0000
0013
,  // measure 62
0001
0010
0100
2000
0000
3010
0010
0200
,  // measure 63
0000
1300
0100
0001
0100
1000
0100
0001
,  // measure 64
0010
1000
0010
0001
0020
0000
0130
1000
,  // measure 65
1200
0000
0310
0000
0201
0000
0310
1000
,  // measure 66
0001
0000
0010
0000
0100
0000
2000
0000
0001
0000
3001
0000
1000
0001
1000
0001
,  // measure 67
0100
0000
0010
0000
1000
0100
0000
0010
,  // measure 68
0000
0000
0000
0000
0000
0000
0000
0000
0100
0000
0100
0000
1000
0001
1000
0001
,  // measure 69
0100
1000
0100
0001
0000
1000
0000
1100
,  // measure 70
0000
0011
0000
0101
0000
0210
0000
0301
,  // measure 71
1000
0100
0001
0100
0000
1000
0000
1010
,  // measure 72
0000
0101
0000
0011
0000
0210
0000
1300
,  // measure 73
0001
0100
1000
0100
0000
0001
0000
0011
,  // measure 74
0000
1100
0000
1010
0000
0102
0000
1003
,  // measure 75
0001
0010
1000
0010
0000
0110
0000
2002
,  // measure 76
0000
0000
0000
0000
3000
0000
0000
0000
1003
0000
0001
0000
1000
0100
1000
0000
,  // measure 77
0000
0000
1001
0000
0110
0101
0000
1001
;
