#VERSION:0.83;
#TITLE:Into The Rhythm;
#SUBTITLE:;
#ARTIST:テミン;
#TITLETRANSLIT:;
#SUBTITLETRANSLIT:;
#ARTISTTRANSLIT:TAEMIN;
#GENRE:J-POP;
#ORIGIN:;
#CREDIT:;
#BANNER:[VIP3 Last Dance] - Into The Rhythm.png;
#BACKGROUND:[VIP3 Last Dance] - Into The Rhythm-bg.png;
#PREVIEWVID:;
#JACKET:[VIP3 Last Dance] - Into The Rhythm-jacket.png;
#CDIMAGE:;
#DISCIMAGE:;
#LYRICSPATH:;
#CDTITLE:;
#MUSIC:[VIP3 Last Dance] - Into The Rhythm.ogg;
#OFFSET:-0.000000;
#SAMPLESTART:53.535892;
#SAMPLELENGTH:17.434547;
#SELECTABLE:YES;
#BPMS:0.000=110.000;
#STOPS:;
#DELAYS:;
#WARPS:;
#TIMESIGNATURES:0.000=4=4;
#TICKCOUNTS:0.000=4;
#COMBOS:0.000=1;
#SPEEDS:0.000=1.000=0.000=0;
#SCROLLS:0.000=1.000;
#FAKES:;
#LABELS:0.000=Song Start;
#LASTSECONDHINT:119.727989;
#BGCHANGES:;
#KEYSOUNDS:;
#ATTACKS:
;

//---------------dance-single - ----------------
#NOTEDATA:;
#CHARTNAME:;
#STEPSTYPE:dance-single;
#DESCRIPTION:;
#CHARTSTYLE:;
#DIFFICULTY:Challenge;
#METER:9;
#RADARVALUES:0.555455,0.732718,0.237384,0.695780,0.859493,475.000000,446.000000,29.000000,85.000000,0.000000,0.000000,0.000000,0.000000,0.000000,0.555455,0.732718,0.237384,0.695780,0.859493,475.000000,446.000000,29.000000,85.000000,0.000000,0.000000,0.000000,0.000000,0.000000;
#CREDIT:DDRDAIKENKAI;
#NOTES:
// measure 0
0000
0000
0000
0000
,  // measure 1
0000
0000
0000
0000
,  // measure 2
0000
0000
0000
0000
,  // measure 3
0000
0000
0000
0000
0000
0000
0000
0000
0002
0000
0000
0023
0000
0230
0000
0000
,  // measure 4
2300
0000
0000
0000
0000
0000
0000
0000
3020
0000
0000
0032
0000
0203
0000
1000
,  // measure 5
0000
2300
0000
0000
0000
0000
0000
0000
3200
0000
0000
2300
0000
3020
0000
0001
,  // measure 6
0000
0032
0000
0000
0000
0000
0000
0000
0023
0000
0000
2030
0000
0100
0000
3200
,  // measure 7
0000
0000
0000
0000
0000
0000
0000
0000
2300
0000
0000
3002
0000
1003
0000
1000
,  // measure 8
0001
0000
0100
0000
0110
0000
0000
0000
1010
0000
0000
1000
0000
0001
1000
0100
,  // measure 9
1000
0000
0001
0000
0011
0000
0000
0000
0101
0000
0000
1000
0000
0100
1000
0001
,  // measure 10
0100
0000
0010
0000
0110
0000
0000
0000
1010
0000
0000
2000
0000
3001
0010
0002
,  // measure 11
0000
0000
0103
0000
0000
0100
0000
0000
0010
0000
0000
2000
0000
0000
3100
1000
,  // measure 12
0001
0000
0010
0000
0100
0010
0000
0000
0110
0000
0000
0010
0000
0001
1000
0100
,  // measure 13
1000
0000
0001
0000
0100
0010
0000
0000
0110
0000
0000
0100
0000
0001
1000
0001
,  // measure 14
0010
0000
0001
0000
0101
0000
0000
0000
0110
0000
0000
0020
0000
1030
0010
2000
,  // measure 15
0000
0000
3001
0000
0000
0001
0000
0000
0100
0000
0000
0000
0120
0000
0000
2030
,  // measure 16
0000
3001
1000
0001
0000
0001
1000
0001
0010
0000
0010
0100
0000
0000
0000
2000
,  // measure 17
0000
3010
0100
0010
1000
0010
0100
0010
1000
0000
1000
0001
0000
0000
0000
2000
,  // measure 18
0000
3100
0010
0100
1000
0100
0010
0100
1000
0100
0010
0001
0000
1000
0000
2000
,  // measure 19
0100
0000
0000
0000
0010
0000
0000
0000
0001
0000
0000
0001
0000
0001
0000
3002
,  // measure 20
0000
0013
0000
0010
0001
0100
0001
0010
0001
0100
0001
1000
0000
0000
0000
0002
,  // measure 21
0000
0203
0310
1000
0010
0100
0010
1000
0010
0100
0001
1000
0000
0000
0000
0200
,  // measure 22
1300
0200
1300
0001
1000
0001
1000
0010
1000
0010
1000
0001
1000
0002
1003
0020
,  // measure 23
0130
0001
0010
0100
1000
0010
0100
0001
1000
0100
0010
0001
0100
0010
1000
0100
,  // measure 24
2000
0000
0000
0000
0000
0000
0000
0000
0000
3001
0100
0010
1000
0000
0100
0000
,  // measure 25
0210
0000
0000
1300
0010
0000
1000
0000
0002
0000
0000
1003
0000
0010
0000
0100
,  // measure 26
0000
0001
0000
0001
1000
0000
0010
0000
0200
0000
0000
0310
0000
0100
0000
0001
,  // measure 27
0000
1000
0000
0100
1000
0000
0001
0000
0020
0000
0000
0031
0000
1000
0000
0010
,  // measure 28
0000
1000
0000
1000
0001
0010
0001
0000
0100
0000
0010
0000
1000
0100
1000
0000
,  // measure 29
1002
0000
0000
1003
0000
0010
0000
0100
0001
0000
0000
0000
0120
0000
0100
0000
,  // measure 30
0230
0000
0000
0310
0000
1000
0000
0001
0010
0000
0000
0000
0210
0000
2000
3000
,  // measure 31
2300
0000
0000
3010
0000
0100
0000
0001
1000
0000
0100
0000
1200
0000
0000
0320
,  // measure 32
0001
0000
0030
0001
0100
0000
0010
0000
1000
0000
0000
1000
0200
0000
2300
0000
,  // measure 33
3010
0000
0000
0010
1000
0000
0000
1000
0002
0000
0000
0000
0103
0000
0001
0000
,  // measure 34
0010
0000
0000
0010
0001
0000
0000
0001
2000
0000
0000
0000
3000
0000
0000
0000
,  // measure 35
0001
0010
0001
0010
0001
0000
1000
0010
1000
0010
1000
0000
0100
0000
1000
0001
,  // measure 36
0000
2000
0000
0000
3010
0000
0000
0000
0210
0000
0000
0301
0000
0001
0000
2000
,  // measure 37
0000
3001
0000
0001
0100
0001
0010
0001
0100
0001
1000
0001
0000
1000
0000
0020
,  // measure 38
0000
2030
3100
0010
0100
1000
0100
0010
0100
1000
0001
0100
0000
0010
0000
2000
,  // measure 39
3001
2000
3001
0100
0001
0100
0001
1000
0001
1000
0001
0010
0001
0020
0031
2000
,  // measure 40
3010
1000
0100
0010
0001
0100
0010
1000
0001
0010
0100
1000
0010
0100
0001
1000
,  // measure 41
0200
0000
0000
0000
0000
0000
0000
0000
0000
0310
0001
0100
0010
0000
1000
0000
,  // measure 42
1200
0000
0000
0000
0000
0000
0000
0000
0000
1000
0300
0000
0001
0000
0000
0100
0000
0000
0010
0000
0000
1000
0000
0000
0001
0000
0000
0000
0000
0000
1000
0000
0000
0020
0000
0000
0100
0000
0000
0000
0000
0000
0130
0000
0000
0000
0000
0000
,  // measure 43
0102
0000
0000
1003
0100
0000
2000
0000
3010
0100
0001
0010
0001
0000
0200
0000
,  // measure 44
0310
1000
0000
1000
0100
0000
0100
0010
0001
0000
0001
0200
0310
0000
1000
0000
,  // measure 45
1002
0000
0000
0000
0103
0010
0100
0000
0001
0000
1000
0000
0010
0100
0010
0000
,  // measure 46
0120
0000
0000
0130
0000
0001
0000
1000
0100
0000
0000
0000
0011
0000
1000
0000
,  // measure 47
0002
0000
0000
0103
0000
0010
0000
1000
0001
0000
0000
0000
1100
0000
0002
0003
,  // measure 48
2000
0000
0000
3010
0000
0100
0000
0001
0010
0000
0001
0000
1002
0000
0000
2003
,  // measure 49
0001
0000
3000
0001
1000
0000
0100
0000
1000
0000
0001
1000
0001
0000
0100
0000
,  // measure 50
0120
0000
0000
1030
0000
0001
0000
1000
0010
0000
0000
0000
1010
0000
0001
0000
,  // measure 51
0200
0000
0000
0310
0000
1000
0000
0001
0100
0000
0000
0000
0101
0000
2000
3000
,  // measure 52
0002
0000
0000
0013
0000
0001
0000
0100
0010
0000
0100
0000
0120
0000
0000
2030
,  // measure 53
0100
0000
3000
0100
0020
0000
0031
0000
0200
0000
0310
1000
0002
0000
1003
0000
,  // measure 54
2002
3003
0000
0000
;

//---------------dance-single - ----------------
#NOTEDATA:;
#CHARTNAME:;
#STEPSTYPE:dance-single;
#DESCRIPTION:;
#CHARTSTYLE:;
#DIFFICULTY:Hard;
#METER:7;
#RADARVALUES:0.403436,0.466275,0.221013,0.417468,0.466582,345.000000,318.000000,27.000000,51.000000,0.000000,0.000000,0.000000,0.000000,0.000000,0.403436,0.466275,0.221013,0.417468,0.466582,345.000000,318.000000,27.000000,51.000000,0.000000,0.000000,0.000000,0.000000,0.000000;
#CREDIT:DDRDAIKENKAI;
#NOTES:
// measure 0
0000
0000
0000
0000
,  // measure 1
0000
0000
0000
0000
,  // measure 2
0000
0000
0000
0000
,  // measure 3
0000
0000
0000
0000
0000
0000
0000
0000
1000
0000
0000
0100
0000
0010
0000
0000
,  // measure 4
0002
0000
0000
0000
0000
0000
0000
0000
0000
0000
0000
0000
0003
0000
0000
1000
,  // measure 5
0000
2000
0000
0000
0000
0000
0000
0000
0000
0000
0000
0000
3000
0000
0000
0010
,  // measure 6
0000
0200
0000
0000
0000
0000
0000
0000
0000
0000
0000
0000
0300
0010
0000
0020
,  // measure 7
0000
0000
0000
0000
0000
0000
0000
0000
0000
0000
0000
1030
0000
0001
0000
0001
,  // measure 8
1000
0100
1000
0000
1001
0000
1000
0001
,  // measure 9
0100
0010
1000
0000
1001
0000
0001
1000
,  // measure 10
1100
0000
0011
0000
1001
0000
1000
0010
,  // measure 11
0200
0000
0010
0000
0000
0310
0000
0000
0110
0000
0000
2000
0000
0000
3001
1000
,  // measure 12
0001
0010
0100
1000
1100
0000
1000
0000
,  // measure 13
0001
0100
0010
1000
1001
0000
1000
0000
,  // measure 14
1010
0000
0011
0000
1100
0000
0001
0010
,  // measure 15
0002
0000
0100
0000
0000
0103
0000
0000
0110
0000
0000
0000
1001
0000
0000
1000
,  // measure 16
0000
0001
1000
0000
0001
0000
0100
0000
0010
0000
1000
0001
0000
0000
0000
1000
,  // measure 17
0000
0100
1000
0000
0100
0000
1000
0000
0001
0000
0010
0100
0000
0000
0000
0010
,  // measure 18
0000
0001
0010
0000
0001
0000
0100
0000
0010
0000
1000
0001
0000
0010
0000
0020
,  // measure 19
0000
0000
0000
0000
0001
0000
0000
0000
0031
0000
0000
0100
0000
0020
0000
0000
,  // measure 20
2030
0000
0000
0000
0001
0000
0000
0000
0100
0000
0000
0000
3010
0000
0000
0001
,  // measure 21
0000
0002
0000
0000
1000
0000
0000
0000
0010
0000
0000
0000
0103
0000
0000
0001
,  // measure 22
0000
0010
0000
0001
0000
0100
0000
0010
0000
1000
0000
0100
0000
0010
0000
0002
,  // measure 23
1000
0100
0010
0013
,  // measure 24
0120
0000
0000
0000
0000
0000
0000
0000
0000
0031
1000
0001
1000
0000
0100
0000
,  // measure 25
1200
0000
0000
0310
0001
0000
1000
0000
0100
0000
0000
0010
0001
0000
1000
0000
,  // measure 26
1020
0000
0000
0130
0010
0000
2000
0000
0000
3001
0010
0001
0010
0000
0001
0000
,  // measure 27
0012
0000
0000
1003
0001
0000
0100
0000
0001
0000
0000
1000
0001
0000
0010
0000
,  // measure 28
0012
0000
0000
0000
1003
0001
2000
0000
3010
0000
0100
0000
0001
1000
0001
0000
,  // measure 29
2001
0000
0000
3010
0000
0100
0000
0001
1000
0000
0000
0000
0100
0000
0010
0000
,  // measure 30
0002
0000
0000
1003
0000
0001
0000
0010
0100
0000
0000
0000
1000
0000
0001
0000
,  // measure 31
0200
0000
0000
0310
0000
1000
0000
0100
0010
0000
0000
0000
0002
0000
0000
1000
,  // measure 32
0000
0200
0000
0000
0303
0000
0010
1000
,  // measure 33
0100
0000
0000
0100
0010
0000
0000
0010
0001
0000
0000
0000
1000
0000
0001
0000
,  // measure 34
0010
0000
0000
0010
0100
0000
0000
0100
2000
0000
0000
0000
3000
0000
0000
0000
,  // measure 35
0001
0000
0010
0000
1000
0000
0001
0000
0100
0000
1000
0000
0001
0000
0010
0100
,  // measure 36
0000
2000
0000
0000
0010
0000
0000
0000
3002
0000
0000
0103
0000
0020
0000
0000
,  // measure 37
2030
0000
0000
0000
0010
0000
0000
0000
0100
0000
0000
0001
0000
3001
0000
0100
,  // measure 38
0000
0002
0000
0000
0010
0000
0000
0000
0100
0000
0000
1000
0000
1000
0000
0103
,  // measure 39
0000
0001
0000
1000
0000
0010
0000
0100
0000
0010
0000
1000
0000
0001
0000
2000
,  // measure 40
0010
0001
0100
3100
,  // measure 41
1002
0000
0000
0000
0000
0000
0000
0000
0000
1003
0001
1000
0001
0000
0010
0000
,  // measure 42
0021
0000
0000
0130
1000
0000
0001
0000
0010
0000
0000
0100
1000
0000
0001
0000
,  // measure 43
0201
0000
0000
0310
0100
0000
0002
0000
0000
1003
0100
1000
0100
0000
1000
0000
,  // measure 44
2100
0000
0000
3001
1000
0000
0010
0000
1000
0000
0000
0001
1000
0000
0100
0000
,  // measure 45
2100
0000
0000
0000
3001
1000
0002
0000
0103
0000
0010
0000
1000
0001
1000
0000
,  // measure 46
1002
0000
0000
1003
0000
0010
0000
0100
0001
0000
0000
0000
0001
0000
1000
0000
,  // measure 47
0200
0000
0000
1300
0000
0001
0000
0100
0001
0000
0000
0000
0010
0000
0001
0000
,  // measure 48
2000
0000
0000
3010
0000
0100
0000
0001
1000
0000
0100
0000
0020
0000
0000
0001
,  // measure 49
0000
0200
0000
0000
0330
1000
0010
0010
,  // measure 50
0120
0000
0000
0130
0000
0001
0000
1000
0001
0000
0000
0000
0100
0000
0010
0000
,  // measure 51
2000
0000
0000
3001
0000
1000
0000
0100
1000
0000
0000
0000
0001
0000
0010
0000
,  // measure 52
0200
0000
0000
0310
0000
0001
0000
1000
0010
0000
0010
0000
2000
0000
0000
0001
,  // measure 53
0000
3200
0010
0000
0001
0000
2000
3300
,  // measure 54
2002
3003
0000
0000
;

//---------------dance-single - ----------------
#NOTEDATA:;
#CHARTNAME:;
#STEPSTYPE:dance-single;
#DESCRIPTION:;
#CHARTSTYLE:;
#DIFFICULTY:Medium;
#METER:5;
#RADARVALUES:0.277143,0.333054,0.057300,0.491139,0.069578,237.000000,230.000000,7.000000,60.000000,0.000000,0.000000,0.000000,0.000000,0.000000,0.277143,0.333054,0.057300,0.491139,0.069578,237.000000,230.000000,7.000000,60.000000,0.000000,0.000000,0.000000,0.000000,0.000000;
#CREDIT:DDRDAIKENKAI;
#NOTES:
// measure 0
0000
0000
0000
0000
,  // measure 1
0000
0000
0000
0000
,  // measure 2
0000
0000
0000
0000
,  // measure 3
0000
0000
0000
0000
,  // measure 4
2000
0000
0000
0000
,  // measure 5
3002
0000
0000
0000
,  // measure 6
0203
0000
0000
0000
,  // measure 7
0320
0000
0000
0000
,  // measure 8
0130
0001
1000
0000
0010
0000
0100
0000
,  // measure 9
0010
1000
0001
0000
0010
0000
0100
0000
,  // measure 10
1000
0001
0100
0000
0010
0000
0100
0001
,  // measure 11
1000
0000
0100
0000
0000
0100
0000
0000
0200
0000
0000
0000
2300
0000
0000
0000
,  // measure 12
3010
1000
0001
0000
0100
0000
0010
0000
,  // measure 13
0100
0001
1000
0000
0100
0000
0010
0000
,  // measure 14
0001
1000
0010
0000
0100
0000
0010
1000
,  // measure 15
0001
0000
0010
0000
0000
0010
0000
0000
0020
0000
0000
0000
0130
0000
0000
0000
,  // measure 16
1000
0000
1000
0000
1000
0001
0100
0000
,  // measure 17
0010
0000
0010
0000
0010
1000
0100
0000
,  // measure 18
0010
0000
0010
0000
0010
0001
1000
0000
,  // measure 19
0002
1000
2003
3020
,  // measure 20
0230
0000
0010
0000
0310
1000
0001
0000
,  // measure 21
2000
0000
0001
0000
3001
0010
0100
0000
,  // measure 22
0020
0230
2300
3002
,  // measure 23
0203
0010
0010
0310
,  // measure 24
2002
0000
0000
3003
,  // measure 25
2000
0000
0000
3001
0000
0000
1000
0000
0100
0000
0000
1000
0000
0000
0001
0000
,  // measure 26
0200
0000
0000
0302
0000
0013
0100
1000
,  // measure 27
0020
0000
0000
1030
0000
0000
0100
0000
0010
0000
0000
0001
0000
0000
0100
0000
,  // measure 28
0020
0000
0000
2030
0000
3001
0100
0001
,  // measure 29
1002
0000
0010
0000
1003
0000
0001
0100
,  // measure 30
0020
0000
1030
0010
0100
0000
0010
1000
,  // measure 31
0002
0000
0000
0000
0013
0000
0100
0000
1000
0000
0000
0000
0002
0000
0000
1000
,  // measure 32
0000
2000
0000
0000
3003
0000
0001
0010
,  // measure 33
0002
0000
2003
0000
3100
0000
0010
0100
,  // measure 34
2000
3002
0203
0300
,  // measure 35
0010
0000
0010
0000
0010
0000
0100
0000
0100
0000
0100
0000
0010
0000
0000
1000
,  // measure 36
0000
2000
0000
0000
3001
0000
0000
0000
1002
0000
0000
0000
1000
0000
0000
0000
,  // measure 37
0023
0000
0001
0000
0031
1000
0100
0000
,  // measure 38
2000
0000
0010
0000
3010
0100
0001
0000
,  // measure 39
0020
0230
2300
3002
,  // measure 40
0203
0010
0010
0310
,  // measure 41
2002
0000
0000
3003
,  // measure 42
0120
0000
1030
0100
0001
0100
1000
0000
,  // measure 43
0020
0000
0000
0130
0000
0001
0001
0010
,  // measure 44
0200
0000
0310
0001
1000
0001
0010
0000
,  // measure 45
0200
0000
1300
1000
0001
0100
0010
0010
,  // measure 46
0120
0000
1000
0000
0130
0000
0001
0010
,  // measure 47
0100
0000
1000
0010
0100
0000
0001
0100
,  // measure 48
0010
0000
0000
0000
1000
0000
0100
0000
0010
0000
0000
0000
0002
0000
0000
1000
,  // measure 49
0000
2000
0000
0000
3003
1000
0001
1000
,  // measure 50
0200
0000
0000
1300
0000
0001
0000
0000
0100
0000
0000
0000
0010
0000
1000
0000
,  // measure 51
0200
0000
0000
0310
0000
0001
0000
0000
0100
0000
0000
0000
0001
0000
0010
0000
,  // measure 52
0200
0000
0000
1300
0000
0001
0000
0000
0100
0000
0000
0000
0020
0000
0000
0100
,  // measure 53
0000
0200
0000
0000
0000
0000
0330
0000
,  // measure 54
2002
3003
0000
0000
;

//---------------dance-single - ----------------
#NOTEDATA:;
#CHARTNAME:;
#STEPSTYPE:dance-single;
#DESCRIPTION:;
#CHARTSTYLE:;
#DIFFICULTY:Easy;
#METER:3;
#RADARVALUES:0.213996,0.266443,0.049114,0.474768,0.000000,183.000000,177.000000,6.000000,58.000000,0.000000,0.000000,0.000000,0.000000,0.000000,0.213996,0.266443,0.049114,0.474768,0.000000,183.000000,177.000000,6.000000,58.000000,0.000000,0.000000,0.000000,0.000000,0.000000;
#CREDIT:DDRDAIKENKAI;
#NOTES:
// measure 0
0000
0000
0000
0000
,  // measure 1
0000
0000
0000
0000
,  // measure 2
0000
0000
0000
0000
,  // measure 3
0000
0000
0000
0000
,  // measure 4
2000
0000
0000
3000
,  // measure 5
0200
0000
0000
0300
,  // measure 6
0020
0000
0000
0030
,  // measure 7
0002
0000
0000
0003
,  // measure 8
1000
0001
0100
0100
,  // measure 9
0001
1000
0100
0100
,  // measure 10
0010
0010
0001
0001
,  // measure 11
2000
0001
0002
3003
,  // measure 12
0001
1000
0010
0010
,  // measure 13
1000
0001
0010
0010
,  // measure 14
0100
0100
1000
1000
,  // measure 15
0001
1000
2002
3003
,  // measure 16
0001
0001
0001
0001
,  // measure 17
0100
0100
0100
0100
,  // measure 18
0010
0010
0010
0010
,  // measure 19
2000
0000
0001
0001
,  // measure 20
3002
0100
0100
0103
,  // measure 21
0020
1000
1000
1030
,  // measure 22
0200
0010
0010
0310
,  // measure 23
1002
1000
1000
1003
,  // measure 24
0220
0000
0330
0000
,  // measure 25
2000
3010
1000
0001
,  // measure 26
0020
0000
0000
0032
0000
0003
0100
0000
,  // measure 27
0010
0100
0001
1000
,  // measure 28
0200
0000
0000
0320
0000
0030
0001
0000
,  // measure 29
0002
0000
1000
0000
1003
0000
0001
1000
,  // measure 30
0002
0000
1000
0000
1003
0000
0001
1000
,  // measure 31
0002
1000
1003
0020
,  // measure 32
0100
0200
0000
0330
,  // measure 33
0002
0023
0130
1000
,  // measure 34
2000
3200
0320
0030
,  // measure 35
0002
0000
0000
0000
,  // measure 36
0203
0000
0010
0010
,  // measure 37
0320
1000
1030
0100
,  // measure 38
0020
0001
0031
1000
,  // measure 39
0020
2030
3002
0023
,  // measure 40
0200
0000
0000
0330
,  // measure 41
2002
0000
3003
0000
,  // measure 42
2000
0000
0001
0000
3001
1000
0001
0000
,  // measure 43
2000
0000
3001
0000
0001
1000
0001
0000
,  // measure 44
2000
0000
3001
0000
0001
1000
0001
0000
,  // measure 45
2000
0000
3001
0000
0001
1000
0001
0000
,  // measure 46
0200
0000
0310
0100
0010
0000
1000
0000
,  // measure 47
0200
0000
0310
0100
0010
0000
0001
0000
,  // measure 48
0200
0000
0310
0100
0010
0000
1000
0000
,  // measure 49
2002
0000
3003
0000
,  // measure 50
0002
0000
1003
0001
1000
0000
0010
0000
,  // measure 51
2000
0000
3001
1000
0001
0000
1000
0000
,  // measure 52
0020
0000
1030
0001
1000
0000
0100
0000
,  // measure 53
0020
0032
0203
0310
,  // measure 54
2002
3003
0000
0000
;

//---------------dance-single - ----------------
#NOTEDATA:;
#CHARTNAME:;
#STEPSTYPE:dance-single;
#DESCRIPTION:;
#CHARTSTYLE:;
#DIFFICULTY:Beginner;
#METER:1;
#RADARVALUES:0.127462,0.176810,0.024557,0.155527,0.000000,109.000000,106.000000,3.000000,19.000000,0.000000,0.000000,0.000000,0.000000,0.000000,0.127462,0.176810,0.024557,0.155527,0.000000,109.000000,106.000000,3.000000,19.000000,0.000000,0.000000,0.000000,0.000000,0.000000;
#CREDIT:DDRDAIKENKAI;
#NOTES:
// measure 0
0000
0000
0000
0000
,  // measure 1
0000
0000
0000
0000
,  // measure 2
0000
0000
0000
0000
,  // measure 3
0000
0000
0000
0000
,  // measure 4
2000
0000
3000
0000
,  // measure 5
0002
0000
0003
0000
,  // measure 6
0200
0000
0300
0000
,  // measure 7
0020
0000
0030
0000
,  // measure 8
1000
1000
1000
0000
,  // measure 9
0001
0001
0001
0000
,  // measure 10
0010
0010
0010
0000
,  // measure 11
0100
0000
0000
0000
,  // measure 12
0010
0010
0010
0000
,  // measure 13
0001
0001
0001
0000
,  // measure 14
1000
1000
1000
0000
,  // measure 15
0100
0000
0000
0000
,  // measure 16
1000
1000
1000
0000
,  // measure 17
0010
0010
0010
0000
,  // measure 18
0100
0100
0100
0100
,  // measure 19
0100
0000
0100
0000
,  // measure 20
0001
0001
0001
0000
,  // measure 21
0010
0010
0010
0000
,  // measure 22
0100
0100
0100
0100
,  // measure 23
0200
0000
0300
0000
,  // measure 24
2002
0000
3003
0000
,  // measure 25
1000
0000
1000
0000
,  // measure 26
0002
0000
0003
0000
,  // measure 27
0100
0000
0100
0000
,  // measure 28
0020
0000
0030
0000
,  // measure 29
1000
0000
0010
0000
,  // measure 30
0100
0000
0001
0000
,  // measure 31
1000
0000
0100
0000
,  // measure 32
0010
0000
0001
0000
,  // measure 33
1000
1000
1000
0000
,  // measure 34
0001
0001
0001
0000
,  // measure 35
0100
0100
0100
0000
,  // measure 36
0010
0000
0010
0010
,  // measure 37
0020
0000
0030
0000
,  // measure 38
2000
0000
3000
0000
,  // measure 39
0002
0000
0003
0000
,  // measure 40
0200
0000
0300
0000
,  // measure 41
0220
0000
0330
0000
,  // measure 42
0100
0100
0100
0000
,  // measure 43
0020
0000
0030
0000
,  // measure 44
1000
1000
1000
0000
,  // measure 45
0002
0000
0003
0000
,  // measure 46
1000
0000
0000
0001
,  // measure 47
0001
0000
0000
0100
,  // measure 48
0100
0000
0000
0010
,  // measure 49
0020
0000
0030
0000
,  // measure 50
1000
1000
1000
0000
,  // measure 51
0001
0001
0001
0000
,  // measure 52
0100
0100
0100
0100
,  // measure 53
0200
0000
0300
0000
,  // measure 54
1001
0000
0000
0000
;
