#TITLE:Get Over The Culture;
#SUBTITLE:;
#ARTIST:lapix;
#TITLETRANSLIT:;
#SUBTITLETRANSLIT:;
#ARTISTTRANSLIT:;
#GENRE:;
#CREDIT:;
#BANNER:[VIP3 Last Dance] - Get Over The Culture.png;
#BACKGROUND:[VIP3 Last Dance] - Get Over The Culture-bg.png;
#LYRICSPATH:;
#CDTITLE:;
#MUSIC:[VIP3 Last Dance] - Get Over The Culture.ogg;
#OFFSET:-0.026000;
#SAMPLESTART:79.074997;
#SAMPLELENGTH:15.000000;
#SELECTABLE:YES;
#BPMS:0.000000=170.000000
,160.000000=85.000000
,176.000000=170.000000
;
#STOPS:
;
#BGCHANGES:15.667=[VIP3 Last Dance] - Get Over The Culture.avi=1.000=1=0=0=StretchNoLoop==CrossFade==,
327.500=[VIP3 Last Dance] - Get Over The Culture-bg.png=1.000=0=0=1=====,
99999=-nosongbg-=1.000=0=0=0 // don't automatically add -songbackground-
;
#KEYSOUNDS:;
#ATTACKS:;

//---------------dance-single - ----------------
#NOTES:
     dance-single:
     :
     Hard:
     9:
     0.697801,0.668252,0.413680,0.517100,0.107398,497.000000,52.000000,65.000000,0.000000,0.000000,0.000000,0.697801,0.668252,0.413680,0.517100,0.107398,497.000000,52.000000,65.000000,0.000000,0.000000,0.000000:
0000
0000
0000
0000
,
0000
0000
0000
0000
,
0000
0000
0000
0000
,
0000
0000
0000
0000
,
1000
0100
0010
0001
1000
0100
0010
0001
,
1000
0010
0100
0001
1000
0010
0100
0001
,
1000
0100
0010
0100
0001
0100
1000
0010
,
0200
0010
0000
0310
0100
0001
1000
0001
,
0020
0000
0130
0000
0100
1000
0100
0020
,
0000
0030
0011
0000
0001
0000
0100
0020
,
0000
0030
1010
0000
1000
0001
0000
0001
,
1000
0100
0000
0100
0010
0100
0020
0000
,
0031
2000
0000
0000
3001
0100
0001
0020
,
0000
0030
0110
0000
0100
1000
0010
0000
,
2000
3020
0032
0023
,
2030
3002
0023
0230
,
1300
0100
1000
0100
0000
1000
0001
0010
,
0001
0100
0001
0100
0010
0000
1001
0000
,
0101
0000
0011
0000
0010
0100
1000
0001
,
1100
0000
1010
0000
0100
0001
0001
0001
,
1000
0100
0010
0001
0100
0010
0100
0001
,
1000
0100
0010
0100
1000
0010
0100
0001
,
1000
1000
0001
0001
0010
0100
0010
0001
,
2000
3000
2000
3000
0001
0100
0001
0100
,
0001
1000
0010
0100
0020
0000
2030
0000
,
3001
0010
0100
1000
0002
0000
0203
0000
,
0310
1000
0001
0100
0002
0000
0023
0000
,
0130
1000
0001
0100
0020
0000
0230
0000
,
0301
1000
0100
0010
0200
0000
2300
0000
,
3010
0100
0001
0010
0002
0000
0203
0000
,
0310
1000
0001
1000
0200
0000
0320
0000
,
0130
1000
0010
0100
0002
0000
2003
0000
,
3001
0100
0010
1000
0002
0000
0103
0002
,
0000
1003
0002
0000
0013
0002
0000
1003
,
1000
0010
0100
0001
2000
0000
3100
2000
,
0000
3001
2000
0000
3010
2000
0000
3001
,
0001
0100
0010
1000
0020
0000
0130
0002
,
0000
1003
0200
0000
0310
0200
0000
0310
,
0020
0000
0031
0002
0000
1003
2000
3000
,
0110
0220
0000
0000
0000
0000
0330
0000
,
2002
0000
0000
0000
0000
0000
0000
3003
,
1000
0000
0000
0001
0000
0000
0100
0000
0001
0000
0000
1000
0000
0000
0100
0000
1000
0000
0000
0001
0000
0000
0010
0000
0001
0000
0000
1000
0000
0000
0010
0000
,
0100
0000
0000
0010
0000
0000
1000
0000
0100
0000
0000
0010
0000
0000
0001
0000
0010
0000
0000
0100
0000
0000
1000
0000
0010
0000
0000
0100
0000
0000
0001
0000
,
1000
0000
0000
0010
0000
0000
0001
0000
1000
0000
0000
0100
0000
0000
0001
0000
0020
0000
0000
0000
0000
0000
0000
0000
0000
0000
0000
0000
0000
0000
0000
0000
,
0130
1100
1001
0101
,
0010
0101
1001
1100
,
0001
1010
1001
0011
,
0100
0000
0011
0000
1001
1000
0010
0100
,
0010
0010
1000
1000
0001
0001
0100
0100
,
0001
0001
0010
0010
0100
0100
1000
1000
,
0001
1000
0100
0010
0001
1000
0010
0100
,
0001
0000
0100
0001
0000
0100
0001
0000
1000
0001
1000
0000
0220
0000
0330
0000
,
1000
0100
0001
0100
1000
0001
0100
0001
,
1000
0010
0001
0010
0100
0001
1000
0100
,
0010
0001
1000
0010
1000
0001
0100
0010
,
0100
0001
1000
0100
0010
0100
1000
0000
,
0001
0100
1000
0100
0001
1000
0100
1000
,
0001
0010
1000
0010
0100
1000
0001
0100
,
0010
1000
0001
0010
0001
1000
0100
0010
,
0100
1000
0001
0100
0020
0000
0000
0000
,
1030
0001
1000
0001
0010
0100
1000
0001
,
0100
0010
0100
0010
1000
0001
0010
0100
,
1000
0001
1000
0100
0010
0100
1000
1000
,
0001
0000
1000
0001
0000
0001
0100
0000
0010
0000
0100
0001
0000
0001
1000
0000
,
0100
1000
1001
0000
0001
0010
0110
0000
,
0010
0001
1001
0000
1000
0100
0110
0000
,
0010
0001
0100
0001
1000
0010
1000
0001
,
0200
0300
0200
0300
0020
0000
0000
0030
,
1000
0010
0000
0101
0000
1001
0000
1100
,
0000
1001
0000
0101
0000
1001
0000
1000
,
0001
0010
0000
1001
0000
1010
0000
1001
,
0000
0011
0000
1001
0000
1010
0000
0010
,
0100
0001
0000
0101
0000
1010
0000
1100
,
0000
0011
0000
0101
0000
1010
0000
1000
,
0001
0010
0000
1100
0000
1010
0000
0101
,
0000
0011
0000
1100
0000
1010
1000
0010
,
0200
0001
0000
0010
0000
1000
0000
0010
,
0000
0001
0000
0010
0000
1000
0000
0010
,
0000
0001
0000
0010
0000
1000
0000
0010
,
0000
0001
0000
0010
0000
1000
0000
0310
,
0100
0001
0100
0001
0010
0001
0010
0001
,
1000
0100
1000
0100
1000
0010
1000
0010
,
0200
0300
0200
0300
2002
3003
1000
0001
,
0010
0100
1000
0000
1000
0100
0010
0002
,
0003
0000
0000
0000
;

//---------------dance-single - ----------------
#NOTES:
     dance-single:
     :
     Challenge:
     10:
     0.836452,1.000000,0.429591,0.540966,0.540966,614.000000,54.000000,68.000000,0.000000,0.000000,0.000000,0.836452,1.000000,0.429591,0.540966,0.540966,614.000000,54.000000,68.000000,0.000000,0.000000,0.000000:
// measure 0
0000
0000
0000
0000
,  // measure 1
0000
0000
0000
0000
,  // measure 2
0000
0000
0000
0000
,  // measure 3
0000
0000
0000
0000
,  // measure 4
1000
0100
0010
0100
1000
0001
0010
0010
,  // measure 5
0001
0100
0010
0100
0001
1000
0010
0010
,  // measure 6
1000
0001
1000
0000
0100
0010
0100
0000
0010
0001
0010
0001
1000
0010
1000
0010
,  // measure 7
0200
0000
0000
0000
0310
1000
0001
0010
,  // measure 8
0220
0000
0330
0000
0100
1000
0001
0020
,  // measure 9
0000
0031
0021
0000
0130
0000
1000
0020
,  // measure 10
0000
1030
1020
0000
0130
0001
1000
0100
,  // measure 11
1000
1001
0000
0110
0010
0001
0100
1000
,  // measure 12
0100
0002
0000
0000
0103
0001
0010
0200
,  // measure 13
0000
1300
1200
0000
0310
0001
0010
0100
,  // measure 14
1000
0010
1000
0010
0100
0001
0100
0001
,  // measure 15
0010
0001
0010
0001
1000
0100
0100
0100
,  // measure 16
2000
0000
0000
3000
,  // measure 17
1000
0100
0010
0001
0010
0100
1000
0000
,  // measure 18
1100
0000
0101
0000
0100
0010
1000
0100
,  // measure 19
0011
0001
1010
1000
0001
0100
0100
0100
,  // measure 20
0001
0100
0010
1000
0100
0010
0100
1000
,  // measure 21
0010
0100
0001
0010
0100
1000
0001
0010
,  // measure 22
0001
0100
0010
1000
0001
0010
0100
0010
,  // measure 23
0001
1000
0010
0100
0010
1000
1000
1000
,  // measure 24
0001
0100
0001
0100
0020
0000
0230
0000
,  // measure 25
0301
1000
0001
1000
0200
0000
0320
0000
,  // measure 26
0130
0000
1000
0100
1000
0000
0001
0000
0200
0000
0000
0000
0320
0000
0000
0000
,  // measure 27
1030
0000
0001
0010
0001
0000
1000
0000
0020
0000
0000
0000
0230
0000
0000
0000
,  // measure 28
0301
0000
0010
0001
1000
0000
0001
0000
0022
0000
0003
0000
0200
0000
0300
0000
,  // measure 29
0031
0000
1000
0001
0100
0000
0010
0000
2020
0000
3000
0000
0200
0000
0300
0000
,  // measure 30
1030
0000
0100
1000
0001
0000
1000
0000
2200
0000
3000
0000
0020
0000
0030
0000
,  // measure 31
1300
0000
0001
0100
0010
0000
0100
0000
0202
0000
0003
0000
0020
0000
0030
0000
,  // measure 32
0301
1000
0100
1000
0020
0000
0130
0102
,  // measure 33
0000
0013
0012
0000
0013
0120
0000
0130
,  // measure 34
1000
0001
0100
0001
0020
0000
0130
2100
,  // measure 35
0000
3010
2010
0000
3010
0210
0000
0310
,  // measure 36
1000
0000
0001
0000
0100
0000
0001
0000
0010
0000
0100
1000
0100
0000
1000
0000
,  // measure 37
0010
0000
0100
0001
0100
0000
0001
0000
0010
0000
0100
1000
0001
0000
1000
0000
,  // measure 38
0001
0010
0001
0000
0100
0000
0010
1000
0010
0000
0100
0000
0001
1000
0001
0000
,  // measure 39
0110
0220
0000
0000
0000
0000
0330
0000
,  // measure 40
2002
0000
0000
0000
0000
0000
0000
3003
,  // measure 41
1000
0000
0001
1000
0000
0001
1000
0000
0001
0000
0100
0001
0000
0100
0001
0000
0100
0000
0010
0100
0000
0010
0100
0000
0010
0000
1000
0010
0000
1000
0010
0000
,  // measure 42
1000
0000
0001
0100
0000
0001
1000
0000
0001
0000
0010
0100
0000
0010
0001
0000
1000
0000
0010
0100
0000
0010
1000
0000
0001
0000
0100
0001
0000
0100
0010
0000
,  // measure 43
1000
0000
0001
0010
0000
0100
1000
0000
0001
0000
1000
0010
0000
0100
0001
0000
0020
0000
0000
0000
0000
0000
0000
0000
0000
0000
0000
0000
0000
0000
0000
0000
,  // measure 44
0031
0000
0010
0100
0000
0100
1000
0000
0100
0000
1000
0010
0000
0010
0100
0000
,  // measure 45
0001
0000
0010
0001
0000
0001
1000
0000
0001
0000
0100
0010
0000
0010
1000
0000
,  // measure 46
0001
0000
0010
0100
0000
0100
1000
0000
1100
0000
0100
0010
0000
0010
0001
0000
,  // measure 47
0011
0000
0010
0001
0000
0001
0100
0000
0101
0000
0100
0010
0000
0010
1000
0000
,  // measure 48
0001
0001
0010
0010
0100
0100
1000
1000
,  // measure 49
0001
0001
0100
0100
0010
0010
1000
1000
,  // measure 50
0001
0100
0001
0100
0001
1000
0001
1000
0001
0010
0001
0010
0100
0010
0100
0010
,  // measure 51
0001
0000
1000
0001
0000
0001
1000
0001
0010
0100
0010
0000
0110
0000
0000
0000
,  // measure 52
0010
0000
0100
1000
0000
0001
0010
0000
0010
0000
0001
0000
0100
0000
0001
0000
,  // measure 53
0010
0000
0001
0100
0000
0010
1000
0000
0010
0100
0000
0001
0000
0100
0010
0100
,  // measure 54
0010
0000
0100
0001
0000
1000
0010
0000
0010
0100
0000
0001
0000
1000
0001
0100
,  // measure 55
0001
1000
0010
1000
0001
0010
0001
1000
,  // measure 56
0100
0000
0010
0001
0000
1000
0100
0000
0100
0000
1000
0000
0010
0000
1000
0000
,  // measure 57
0100
0000
1000
0010
0000
0100
0001
0000
0100
0010
0000
1000
0000
0010
0100
0010
,  // measure 58
0100
0000
0010
1000
0000
0001
0100
0000
0100
0010
0000
1000
0000
0001
1000
0100
,  // measure 59
0010
0000
0001
1000
0000
0100
1000
0000
0020
0000
0000
0000
0000
0000
0000
0000
,  // measure 60
1030
0000
0001
0100
0000
0100
0001
0000
0010
0000
0100
0000
0100
0000
0010
0000
,  // measure 61
0001
0000
1000
0010
0000
0010
1000
0000
0001
0000
0010
0000
0010
0000
0100
0000
,  // measure 62
1000
0000
0010
0100
0000
0001
0100
0000
0010
0000
1000
0000
0001
0000
0010
0000
,  // measure 63
0001
0000
0010
0100
0000
1000
0100
0000
1000
0001
1000
0000
0100
0010
0100
0000
,  // measure 64
1000
0000
0100
0000
0001
0000
0100
0000
0010
0000
0001
1000
0000
1000
0001
0010
,  // measure 65
0001
0000
0000
1001
0000
0001
1000
0010
1000
0000
0000
1001
0000
1000
0001
0100
,  // measure 66
0001
1000
0010
0100
0001
1000
0100
0010
,  // measure 67
0002
0000
0003
0001
1000
0200
0000
0000
,  // measure 68
1300
0100
0000
0110
0000
0011
0000
0110
,  // measure 69
0000
1100
0000
0110
0000
0011
0000
0010
,  // measure 70
0001
0100
0000
0110
0000
1010
0000
0110
,  // measure 71
0000
0101
0000
0110
0000
1010
0000
1000
,  // measure 72
0001
0010
0000
1100
0000
1010
0000
0011
,  // measure 73
0000
0101
0000
1100
0000
1010
0000
1000
,  // measure 74
0010
0100
0000
0101
0000
0011
0000
1010
,  // measure 75
0000
1100
0000
0101
0000
0011
0000
0010
,  // measure 76
0200
2300
0000
3200
0000
0320
0000
0032
,  // measure 77
0000
2003
0000
3020
0000
0230
0000
0302
,  // measure 78
0000
0023
0000
0230
0000
2300
0000
3020
,  // measure 79
0000
0230
0000
0302
0000
2003
0000
3010
,  // measure 80
0100
0001
1000
0010
1000
0100
0010
0001
,  // measure 81
0100
0001
0010
0100
1000
0010
0100
0001
,  // measure 82
0020
0000
0130
0000
0020
0000
0130
0000
2002
0000
3003
0000
0001
0000
1000
0010
,  // measure 83
1000
0001
0100
0000
0100
0001
1000
0020
,  // measure 84
0030
0000
0000
0000
;

//---------------dance-single - ----------------
#NOTES:
     dance-single:
     :
     Beginner:
     2:
     0.152289,0.166069,0.071598,0.000000,0.000000,125.000000,9.000000,0.000000,0.000000,0.000000,0.000000,0.152289,0.166069,0.071598,0.000000,0.000000,125.000000,9.000000,0.000000,0.000000,0.000000,0.000000:
0000
0000
0000
0000
,
0000
0000
0000
0000
,
0000
0000
0000
0000
,
0000
0000
0000
0000
,
1000
0000
0000
0000
,
0001
0000
0000
0000
,
1000
0000
0001
0000
,
1001
0000
0000
0000
,
0010
0000
0000
0000
0000
0000
0000
0001
,
0000
0000
0000
0000
0000
0000
0000
0001
,
0000
0000
0000
0000
,
0100
0000
0100
0000
,
0010
0000
0000
0000
0000
0000
0000
1000
,
0000
0000
0000
0000
,
1000
0000
1000
0000
,
0001
0000
0001
0000
,
0100
0000
0000
0000
,
0100
0000
0000
0000
,
0100
0000
0100
0000
,
0001
0000
0001
0000
,
0100
0000
0100
0000
,
1000
0000
1000
0000
,
0100
0000
0100
0000
,
0100
0000
0010
0000
,
1000
0000
0100
0000
,
0001
0001
0001
0000
,
0001
0000
0010
0000
,
1000
1000
1000
0000
,
1000
0000
0010
0000
,
0001
0001
0001
0000
,
0001
0000
0100
0000
,
1000
1000
1000
0000
,
1000
0000
0100
0000
,
0010
0000
0001
0000
,
0001
0000
0100
0000
,
0010
0000
1000
0000
,
0001
0000
0001
0000
,
1000
0000
1000
0000
,
0001
0000
1000
0000
,
1001
0000
0000
0000
,
1001
0000
0000
0000
,
0000
0000
0000
0000
,
0110
0000
0000
0000
,
0000
0000
0100
0000
,
1000
0000
0000
0000
,
1100
0000
0000
0000
,
0001
0000
0000
0000
,
0101
0000
0000
0000
,
1001
0000
0000
0000
,
0110
0000
0000
0000
,
1000
0000
0001
0000
,
1001
0000
0000
0000
,
1000
0000
0000
1000
,
0100
0000
0000
0100
,
0010
0000
0000
0010
,
0001
0000
0000
0000
,
0001
0000
0000
0001
,
0100
0000
0000
0100
,
0010
0000
0000
0010
,
1000
0000
0010
0000
,
1000
0000
0000
1000
,
0010
0000
0000
0010
,
0100
0000
0000
0100
,
0001
0000
0000
0000
,
0001
0000
0000
0001
,
0010
0000
0000
0010
,
0100
0000
0000
0100
,
1000
0000
0001
0000
,
0100
0000
0000
0000
,
0100
0000
0000
0000
,
0010
0000
0000
0000
,
0010
0000
0000
0000
,
1000
0000
0000
0000
,
1000
0000
0000
0000
,
0001
0000
0000
0000
,
0001
0000
0000
0000
,
0100
0000
0000
0000
,
0010
0000
0000
0000
,
0100
0000
0000
0000
,
0010
0000
0000
0000
,
1000
0000
0000
0000
,
0001
0000
0000
0000
,
0100
0000
0010
0000
,
0100
0000
0010
0000
;

//---------------dance-single - ----------------
#NOTES:
     dance-single:
     :
     Easy:
     3:
     0.228433,0.266903,0.031822,0.151152,0.000000,178.000000,4.000000,19.000000,0.000000,0.000000,0.000000,0.228433,0.266903,0.031822,0.151152,0.000000,178.000000,4.000000,19.000000,0.000000,0.000000,0.000000:
0000
0000
0000
0000
,
0000
0000
0000
0000
,
0000
0000
0000
0000
,
0000
0000
0000
0000
,
1000
0000
0001
0000
,
0001
0000
1000
0000
,
1000
0000
0001
0000
,
1000
0001
1001
0000
,
0001
0000
0100
0000
0000
0000
0000
0010
,
0000
0000
0010
0000
0000
0000
0000
1000
,
0000
1000
0001
0000
,
1000
0001
1000
0000
,
1000
0000
0100
0000
0000
0000
0000
0010
,
0000
0010
0001
0000
,
1000
0000
0010
0000
,
0100
0000
0001
0000
,
2000
0000
0000
3000
,
0001
0001
0002
0003
,
0000
1000
0000
0100
,
0000
0010
0000
0100
,
0000
1000
0000
0001
,
0000
0100
0000
0001
,
0000
0010
0000
0100
,
0000
1000
0001
0000
,
0002
0003
0100
0100
,
0020
0030
1000
1000
,
0200
0300
0010
0010
,
0002
0003
0100
0100
,
0020
0030
0100
0100
,
0002
0003
0010
0010
,
0200
0300
1000
1000
,
0020
0030
0100
0100
,
0002
0000
0003
0000
1000
0000
0000
1000
,
0000
0000
1000
0000
0000
1000
0000
0000
,
0002
0000
0003
0000
0100
0000
0000
0100
,
0000
0000
0100
0000
0000
0100
0000
0000
,
0002
0000
0003
0000
0010
0000
0000
0010
,
0000
0000
0010
0000
0000
0010
0000
0000
,
0100
0000
0000
0100
0000
0000
0100
0000
,
0200
0000
0000
0300
,
1001
0000
0000
0000
,
0000
0000
0000
0000
,
1000
1000
0100
0100
,
0010
0000
0010
0000
0002
0000
0000
0003
,
1000
0000
0010
0000
,
1000
0000
0001
0000
,
0100
0000
0001
0000
,
1000
0000
0001
0000
,
0010
0000
0100
0000
,
0010
0000
0100
0000
,
1000
0001
1000
0001
,
1001
0000
0000
0000
,
1000
0100
0000
1000
,
0000
0100
0000
0010
,
0000
0100
0000
0001
,
0000
0100
0000
0010
,
0001
1000
0000
0010
,
0000
0100
0000
0010
,
0000
0001
0000
0010
,
0000
0100
0020
0000
,
0030
1000
0000
0001
,
0000
0100
0000
0010
,
0000
1000
0000
0001
,
0000
0010
0000
0100
,
1000
0000
1000
0000
,
0001
0000
0001
0000
,
0100
0000
0010
0000
,
0200
0300
1001
0000
,
0000
0001
0000
0001
,
0000
0001
0000
0001
,
0000
0100
0000
0100
,
0000
0100
0000
0100
,
0000
0010
0000
0010
,
0000
0010
0000
0010
,
0000
1000
0000
1000
,
0000
1000
0000
1000
,
0020
0000
0000
0030
,
0000
1000
0000
1000
,
0000
0001
0000
0001
,
0000
1000
0000
1000
,
0000
0001
0000
0010
,
0000
0100
0000
1000
,
0100
0000
0010
0000
,
0100
0000
0000
0000
0010
0000
0020
0030
;

//---------------dance-single - ----------------
#NOTES:
     dance-single:
     :
     Medium:
     6:
     0.460276,0.568015,0.111375,0.159108,0.023866,371.000000,14.000000,20.000000,0.000000,0.000000,0.000000,0.460276,0.568015,0.111375,0.159108,0.023866,371.000000,14.000000,20.000000,0.000000,0.000000,0.000000:
0000
0000
0000
0000
,
0000
0000
0000
0000
,
0000
0000
0000
0000
,
0000
0000
0000
0000
,
2000
0000
3100
0000
1000
0001
1000
0000
,
0002
0000
0103
0000
0001
1000
0001
0000
,
0100
0001
1000
0100
,
0020
0030
2002
3003
,
0001
0000
1000
0000
0100
0000
0000
0011
,
0000
0000
0011
0000
0001
0000
0000
1010
,
0000
1010
0010
0100
,
0001
0000
1000
0000
0001
0100
0001
0000
,
0010
0000
0010
0000
0100
0010
0000
1100
,
0000
1100
1000
0001
,
0100
0001
0010
0001
,
1000
0000
0100
0000
1000
0010
1000
0010
,
0200
0000
0000
0300
,
0100
0000
0100
0000
0100
0010
0100
0010
,
1000
0100
0001
0100
,
1000
0100
0010
0001
,
1000
1000
0010
0100
,
0001
0010
0001
0100
,
0001
0001
0010
0100
,
1000
0000
1000
0000
1000
0100
0010
0100
,
1000
0001
0020
0031
,
0001
1000
0020
1030
,
1000
0000
0010
0100
0002
0000
1003
0000
,
0001
0000
0010
0100
2000
0000
3001
0000
,
0100
0000
0001
0100
0020
0000
1030
0000
,
1000
0000
0001
0010
0200
0000
0310
0000
,
0010
0000
0001
1000
0200
0000
1300
0000
,
1000
0000
0010
0100
0002
0000
0013
0000
,
0001
0000
0100
0010
1000
0000
0100
1000
,
0000
0100
1000
0000
0100
1000
0000
0100
,
0010
0000
0100
1000
0001
0000
0100
0001
,
0000
0100
0001
0000
0100
0001
0000
0100
,
0010
1000
0010
0100
0010
0000
0100
0010
,
0000
0100
0010
0000
0100
0010
0000
0100
,
0001
0000
1000
0001
0000
1000
0001
0000
,
1000
0100
0000
0010
0002
0000
0003
0000
,
1001
0000
0000
0000
,
1000
1000
0001
0001
,
1000
0000
0000
0100
0000
0000
1000
0000
0001
0000
0000
0000
0010
0000
0000
0000
0001
0000
0000
0100
0000
0000
0001
0000
1000
0000
0000
0000
0010
0000
0000
0000
,
1000
0000
0000
0100
0000
0000
1000
0000
0001
0000
0000
0000
0100
0000
0000
0000
0020
0000
0000
0000
0000
0000
0000
0000
0000
0000
0000
0000
0000
0000
0000
0000
,
1030
1000
1000
1000
,
0001
0101
0011
0101
,
0001
0001
0001
0001
,
1000
1100
1010
0110
,
0010
1000
0010
0000
0100
0001
0100
0000
,
0010
1000
0010
0000
0100
0001
0100
0000
,
0001
1000
0001
1000
0001
1000
0001
1000
,
0100
0000
0100
0000
0010
0010
0010
0000
,
0100
1000
0010
1000
,
0100
1000
0001
0000
0100
0001
1000
0000
,
0010
0100
0001
0100
,
0010
1000
0100
0000
0010
0001
0100
0000
,
0001
1000
0100
1000
,
0001
1000
0010
0000
1000
0001
0010
0000
,
0100
1000
0001
1000
,
0010
0010
0020
0000
,
1030
0010
0000
0100
0000
0010
0000
1000
,
0001
1000
0000
0100
0000
0010
0000
0001
,
1000
0100
0010
0010
,
0001
0000
0100
0000
0010
0000
0010
0100
,
0001
0001
0100
0100
,
0010
0010
1000
1000
,
0001
1000
0100
0010
,
0001
0000
0001
0010
0200
0000
0300
0000
,
1000
0100
0000
0100
0000
0100
0000
0100
,
0000
0100
0000
0100
0000
0100
0000
0100
,
1000
0001
0000
0001
0000
0001
0000
0001
,
0000
0001
0000
0001
0000
0001
0000
0001
,
0100
0010
0000
0010
0000
0010
0000
0010
,
0000
0010
0000
0010
0000
0010
0000
0100
,
0010
1000
0000
1000
0000
1000
0000
1000
,
0000
1000
0000
1000
0000
1000
0000
0001
,
1000
0100
0000
0100
0000
0100
0000
0100
,
0000
0100
0000
0100
0000
0100
0000
0100
,
0000
1000
0000
0001
0000
1000
0000
0001
,
0000
1000
0000
0001
0000
1000
0000
0001
,
0100
0010
0100
0000
0001
1000
0001
0000
,
0010
0100
0010
0000
0010
0001
1000
0100
,
1000
0100
0020
0000
,
0130
0000
1000
0000
0001
0000
0100
0020
,
0030
0000
0000
0000
;
