#TITLE:Gas Pedal (The Rebirth);
#SUBTITLE:;
#ARTIST:PISS SPEARS feat. $44,000;
#TITLETRANSLIT:;
#SUBTITLETRANSLIT:;
#ARTISTTRANSLIT:;
#GENRE:;
#CREDIT:;
#MUSIC:gaspedal.ogg;
#BANNER:gaspedal-bn.png;
#BACKGROUND:gaspedal-bg.png;
#CDTITLE:;
#SAMPLESTART:62.224;
#SAMPLELENGTH:17.778;
#SELECTABLE:YES;
#OFFSET:-0.002;
#BPMS:0.000=216.000;
#STOPS:;
#BGCHANGES:;
#FGCHANGES:;

//--------------- dance-single - tikal. ----------------
#NOTES:
     dance-single:
     tikal.:
     Challenge:
     9:
     0,0,0,0,0:
0000
0000
0000
0000
,
0000
0000
0000
0000
,
0000
0000
0000
0000
,
0000
0000
0000
0000
,
0000
0000
0000
0000
,
0000
0000
0000
0000
,
0000
0000
0000
0000
,
MMMM
0000
0000
0000
0000
0000
0000
0000
0000
MMMM
0000
0000
0000
0000
0000
0000
0000
0000
MMMM
0000
0000
0000
0000
0000
0000
0000
0000
0000
0000
0000
0000
0000
,
1000
0100
1000
0100
,
0010
0001
0010
0001
,
1000
0010
0100
0001
,
0100
0010
1000
0001
,
1000
0100
0010
0001
,
0010
0100
1000
0001
,
0100
0000
0000
0010
0000
0000
0100
0000
0000
0001
0010
0100
,
1000
0001
000M
0001
,
1000
0000
0000
0000
0100
0000
1000
0000
0010
0000
0000
0100
0001
0000
0010
0000
,
0001
0000
1000
0100
0000
0100
1000
0000
,
0001
0000
0000
0000
0000
0000
0100
0000
0000
0001
0000
0000
0010
0000
0000
0000
0100
0000
1000
0000
0100
0000
0010
0000
,
0001
1000
1000
1000
,
0001
0000
0100
0000
0010
0100
0001
0010
,
0100
1000
0010
0000
1000
0000
0010
0000
,
0100
0001
0100
0001
,
1000
1000
0100
0000
0100
0000
0100
0000
,
1000
0000
1000
0000
0010
0100
0100
0010
,
0010
1000
0001
1000
,
0100
0100
0010
0100
,
1000
0000
0000
0001
0000
0000
0001
0000
0000
1000
0100
0010
,
0001
0000
0001
0000
0010
0100
0100
0010
,
0010
0001
1000
0001
,
0100
0100
0010
0100
,
0001
0000
0000
1000
0000
0000
1000
0000
0000
0001
0100
0010
,
1000
0000
0100
0000
0010
0000
0001
0010
,
0100
0010
0010
0010
,
0001
0000
0100
0000
0010
1000
0100
0000
,
1000
0000
0000
0010
0000
0000
0010
0000
0000
0010
0100
0001
,
1000
0000
0010
0000
0100
0001
0001
0100
,
0010
0100
0010
0100
,
0001
0000
0010
0000
0100
1000
0010
0000
,
1000
0000
0000
0100
0000
0000
0100
0000
0000
0100
0010
0001
,
1000
0000
0020
0000
0130
0000
0020
1030
,
0001
1000
0200
0010
0300
0000
0200
1300
,
0001
0100
0020
0100
0030
0000
0020
0000
,
1030
0000
0000
0001
0000
0000
0200
0000
0000
0310
0000
0000
0000
0000
0000
1000
0000
0000
0200
0000
0310
0000
0100
0000
,
1000
0001
0200
0301
1000
0000
0200
0310
,
0001
0100
0020
1030
0000
0000
0020
1030
,
0001
0000
0010
0000
0100
0000
2000
0000
0000
3010
0000
0000
0100
0000
0000
0001
0000
0000
2000
0000
0000
3100
0000
0000
,
0010
0000
0000
0100
0000
0000
0002
0000
0000
0103
0000
0000
0000
0000
0000
1000
0000
0000
0002
0000
0103
0000
0010
0000
,
1000
0001
1000
0100
0000
0000
0010
0000
,
0001
1000
0001
1000
0100
0000
0001
0100
,
1000
0000
0001
0100
0000
010M
1000
0001
,
1000
0000
0000
0100
0000
0000
0010
0000
0000
0000
0000
0000
0010
0000
0000
0000
0000
0000
0001
0000
0010
0000
0100
0000
,
1000
0000
0001
0100
0010
0100
0001
1000
,
0100
0000
0000
0010
0000
0000
0100
1000
,
0001
0100
1000
0100
0000
0001
0100
0010
,
1000
0000
0000
0000
0000
0000
0000
0000
0000
0001
0000
0000
0000
0000
0000
0000
0000
0000
0100
0000
0010
0000
1000
0000
,
0001
0100
0001
0100
,
0010
1000
0010
1000
,
0001
0010
0100
1000
,
0100
0010
0001
1000
,
0001
0100
0010
1000
,
0010
0100
0001
1000
,
0100
0000
0000
0010
0000
0000
0100
0000
0000
1000
0010
0100
,
0001
1000
M000
1000
,
0001
0000
0000
0000
0100
0000
0001
0000
0010
0000
0000
0100
1000
0000
0010
0000
,
1000
0000
0001
0100
0000
0100
0001
0000
,
1000
0000
0000
0000
0000
0000
0100
0000
0000
1000
0000
0000
0010
0000
0000
0000
0100
0000
0001
0000
0100
0000
0010
0000
,
1000
0001
0001
0001
,
1000
0000
0100
0000
0010
0100
1000
0010
,
0100
0001
0010
0000
0001
0000
0010
0000
,
0100
1000
0100
1000
,
0001
0001
0100
0000
0100
0000
0100
0000
,
0010
0000
1000
0000
0001
0001
0001
0000
,
0010
0001
0100
0000
0M10
0001
0100
0000
,
0010
0000
1000
0001
0001
1000
0100
1000
,
0010
0000
0000
1000
0000
0000
0100
0000
0000
0000
0000
0000
0M10
0000
0000
1000
0000
0000
0100
0000
0010
0000
0001
0000
,
1000
0000
0001
0000
0100
0100
0100
0010
,
0100
0001
0010
0000
0100
1000
0001
1000
,
0010
0000
0001
0000
0010
0000
0000
0100
0000
0000
0001
0000
1000
0000
0100
0000
,
0001
0000
0000
0010
0000
0000
1000
0000
0000
0000
0000
0000
0000
0000
0000
0000
0000
0000
0001
0000
1000
0000
0100
0000
,
0010
0000
0001
0000
1000
1000
1000
0000
,
0010
1000
0100
0000
0M10
1000
0100
0000
,
0010
0000
0001
1000
1000
0001
0100
0001
,
0010
0000
0000
0001
0000
0000
0100
0000
0000
0000
0000
0000
0M10
0000
0000
0001
0000
0000
0100
0000
0010
0000
1000
0000
,
0001
0000
1000
0000
0100
0100
0100
0010
,
0100
1000
0010
0000
0100
0001
1000
0001
,
0010
0000
1000
0000
0010
0000
0000
0100
0000
0000
1000
0000
0001
0000
0100
0000
,
1000
0000
0000
0010
0000
0000
0001
0000
0000
0000
0000
0000
0000
0000
0000
0000
0000
0000
1000
0000
0001
0000
0100
0000
,
0010
0000
0010
0000
1000
0000
0010
1000
,
0100
0010
0100
0010
,
0001
0000
1000
1000
1000
0000
0001
0001
,
0100
0000
0000
0000
0000
0000
0010
0000
0000
0000
0000
0000
0100
0000
0000
0100
0000
0000
0001
0000
1000
0000
0100
0000
,
0010
0000
0010
0000
0001
0000
0010
0001
,
0100
0010
0100
0010
,
1000
0000
0001
0001
0001
0000
1000
1000
,
0100
0000
0000
0000
0000
0000
0010
0000
0000
0000
0000
0000
0100
0000
0000
0100
0000
0000
1000
0000
0010
0000
0100
0000
,
0001
0000
0200
0301
1000
0000
0200
1300
,
0001
0000
0020
0031
1000
0000
0020
0030
,
1000
0000
0001
0001
0001
0000
1000
1000
,
0100
0000
0000
0000
0000
0000
0020
0000
0000
0000
0000
0000
0031
0000
0000
0001
0000
0000
0200
0000
0310
0000
1000
0000
,
0001
0000
1000
0010
0000
0000
0000
0000
,
0100
0000
0000
0100
0001
0000
0000
0000
,
1000
0000
0001
0001
0001
0000
1000
1000
,
1000
0000
0000
0000
0000
0000
0001
0000
0000
0000
0000
0000
0010
0000
0000
0001
0000
0000
1000
0000
0100
0000
0001
0000
,
M000
0000
0000
0000
;
