#TITLE:FUZIN RIZIN;
#SUBTITLE:;
#ARTIST:SOUND HOLIC feat. Nana Takahashi & 709sec.;
#TITLETRANSLIT:;
#SUBTITLETRANSLIT:;
#ARTISTTRANSLIT:;
#GENRE:HYPER DIGIMETAL;
#CREDIT:Graphics made by TonyAkita;
#MUSIC:[VIP3 Last Dance] - FUZIN RIZIN.ogg;
#BANNER:[VIP3 Last Dance] - FUZIN RIZIN.png;
#BACKGROUND:[VIP3 Last Dance] - FUZIN RIZIN-bg.png;
#CDTITLE:;
#SAMPLESTART:45.951;
#SAMPLELENGTH:15.000;
#SELECTABLE:YES;
#OFFSET:-0.023;
#BPMS:0.000=190.000;
#STOPS:;
#DISPLAYBPM:190.000;
#JACKET:[VIP3 Last Dance] - FUZIN RIZIN-jacket.png;
#BGCHANGES:;
#FGCHANGES:;

//--------------- dance-single - FINAL BOSS forcednature ----------------
#NOTES:
     dance-single:
     FINAL BOSS forcednature:
     Beginner:
     5:
     0,0,0,0,0:
0000
0000
0000
0000
,
0000
0000
0000
0000
,
1001
0000
0110
0000
,
0010
0010
0010
0000
,
1000
0100
1000
0100
,
1000
0001
1000
0001
,
0100
0001
0100
0001
,
1000
0001
1000
0001
,
0010
0100
0010
0100
,
1000
0001
1000
0001
,
0100
0010
0100
0010
,
1000
0001
1000
0001
,
0100
0100
0100
0000
,
0010
0010
0010
0000
,
0100
0000
0100
0000
0100
0000
0000
0010
,
0000
0010
0000
0010
0000
0010
0000
0000
,
0010
0010
0010
0000
,
0100
0100
0100
0000
,
0010
0010
0010
0000
,
0110
0110
0110
0000
,
1000
0000
0001
0000
1000
0000
0000
0010
,
0000
0100
0001
1000
,
0001
0000
0000
0100
0000
0000
0010
0000
,
1000
0000
0001
0000
1000
0000
0000
0010
,
0000
0000
0100
0000
0001
0000
0000
0010
,
0000
0000
0100
0000
0000
1000
0000
0000
,
0001
0000
1000
0100
,
1000
0100
1000
0100
,
1000
0000
0001
0100
,
0001
0100
0001
0100
,
0001
0000
0010
0010
,
0010
0010
0010
0010
,
0010
0000
0000
0000
0000
1001
0000
0000
,
0000
0000
0000
1001
0000
0000
0000
0000
,
0000
0110
0000
0000
0000
1001
0000
0000
,
0000
0000
0000
0110
0000
0110
0000
0110
,
0000
0000
0001
0010
,
0100
1000
0010
1000
,
0002
0003
1000
0100
,
0010
0001
0100
0010
,
2000
3000
0100
0010
,
0001
1000
0010
0100
,
0010
0000
0100
0100
,
0000
0110
0000
2002
0000
0000
0000
0000
,
0000
3003
0001
0100
,
0010
1000
0100
0010
,
0002
0003
1000
0010
,
0100
0001
0010
0100
,
2000
3000
0100
1000
,
0001
0100
0010
1000
,
0001
0010
0110
1000
,
0001
0000
0000
1001
0000
0000
0000
0110
,
0000
0000
0000
1001
0000
0000
0010
0000
,
0100
1001
0100
0010
,
0100
1001
0010
0010
,
0010
0010
0100
0100
,
0100
0100
2002
3003
,
0010
0000
0000
0000
,
0100
2002
3003
0010
,
0000
0000
0100
2002
,
3003
0100
0000
0000
,
0000
0010
2002
3003
,
0100
0000
0000
0000
,
0010
0000
1000
0100
,
0001
0100
1000
0010
,
0100
0001
0010
0000
,
0100
0100
0100
0000
,
0010
0000
0000
0010
0000
0000
0010
0000
1000
0000
0000
0000
0010
0000
0000
0000
,
0110
0000
0001
0010
,
0100
1000
0001
0100
,
0010
1000
0100
0010
,
0001
0100
0000
1001
,
0000
0000
0000
0100
0000
0100
0000
0000
,
0000
0010
0000
0000
0000
1001
0000
0000
,
0000
0000
0000
0100
0000
0100
0000
0000
,
0000
1000
0000
0001
0000
0000
0100
0000
,
0010
1000
0001
0010
,
0100
0000
1000
0000
0010
0000
0000
1001
,
0000
1001
0000
2002
0000
0000
0000
0000
,
0000
3003
1000
0001
,
0100
0010
1000
0100
,
0020
0030
0001
1000
,
0001
0100
0010
1000
,
0002
0003
1000
0001
,
0010
0100
1000
0010
,
0100
0001
0100
0010
,
1000
0000
0000
1001
0000
0000
0000
0110
,
0000
0000
0000
1001
0000
1000
0000
0010
,
0000
0100
0000
0001
0000
0010
0000
0100
,
0000
1000
0000
0000
0010
0000
0010
0000
,
0100
0100
0001
1000
,
0001
1000
0010
0010
,
1000
0000
0001
0010
,
0100
1000
0010
0010
,
0010
0000
0100
0001
,
1000
0000
0000
2002
0000
0000
0000
0000
,
3003
0000
0000
0000
;

//--------------- dance-single - FINAL BOSS forcednature ----------------
#NOTES:
     dance-single:
     FINAL BOSS forcednature:
     Easy:
     7:
     0,0,0,0,0:
0000
0000
0000
0000
,
0000
0000
0000
0000
,
1000
1000
0000
0000
0001
0001
0000
0000
,
0100
0010
0110
1001
,
1000
0010
1000
0000
0001
0000
0010
0000
,
0100
1000
0100
0000
0010
0001
0010
0000
,
0001
0100
0001
0000
1000
0000
0010
0000
,
0100
0100
0010
0010
,
1000
0100
1000
0000
0001
0000
0100
0000
,
0010
1000
0010
0000
0100
0001
0100
0000
,
0001
0010
0001
0000
1000
0000
0100
0000
,
0010
0010
0100
0100
,
1000
1000
0001
0001
,
0100
0001
0100
0001
0100
0000
0100
0000
,
0010
0000
0010
0000
0100
0000
0000
0110
,
0000
1001
0000
0110
0000
1001
0000
0000
,
1000
1000
0001
0001
,
0010
0000
0100
0000
1000
0001
1000
0001
,
0000
0010
0100
0010
0000
0100
0000
2002
,
0000
0000
0000
3003
,
1001
0000
0110
0000
1001
0000
0000
0010
,
0000
0010
0000
0000
1010
0000
0101
0000
,
1010
0000
0000
0100
0000
0100
0000
0000
,
0011
0000
1100
0000
0011
0000
0000
0100
,
0000
0000
0010
0000
1001
0000
0000
0100
,
0000
0000
1010
0000
0000
0100
0000
0000
,
0011
0000
1000
0100
,
0001
0100
1000
0010
,
0100
0001
0010
1000
,
0010
0001
1000
0010
,
0100
0001
0100
0001
0100
0000
0010
0000
,
1000
0100
0010
0001
,
0100
0000
0010
0000
0000
1000
0001
1000
,
0001
1000
0000
0001
1000
0001
1000
0001
,
0000
0100
0010
0100
0000
0001
1000
0001
,
1000
0001
0000
1001
0000
0110
0000
2002
,
0000
0000
3003
0000
1000
0100
1000
0000
,
0010
0100
0001
0000
1000
0100
0010
0000
,
0110
0000
1001
0000
0001
0100
0010
0000
,
1000
0100
0010
0000
0100
1000
0001
0000
,
1001
0000
0110
0000
0001
0100
0010
0000
,
1000
0100
0010
0000
0100
0010
0001
0000
,
1000
0001
0100
0000
0010
0100
0010
0100
,
0000
1001
0000
0110
0000
1000
0001
1000
,
0001
1000
0001
0000
0100
0001
1000
0000
,
0010
1000
0001
0000
1000
0100
0010
0000
,
0110
0000
1001
0000
0001
0100
0010
0000
,
1000
0100
0010
0000
0100
1000
0001
0000
,
0110
0000
1001
0000
0001
0100
0010
0000
,
1000
0010
0100
0000
0001
0010
0100
0000
,
1000
0001
0100
0000
0010
1000
0100
0000
,
0010
0001
1000
0001
0000
0100
0010
0100
,
0000
0010
0100
0010
0000
0110
0000
1000
,
0000
0110
0000
0001
0000
1001
0000
0100
,
0000
1001
0000
0010
0000
0010
0100
0000
,
0100
0000
0100
0000
1000
0001
1000
0000
,
0001
1000
0001
0000
2002
0000
3003
0000
,
0100
0100
0001
0010
,
0100
2002
3003
0100
,
0100
1000
0010
2002
,
3003
0100
0100
0001
,
0010
0100
2002
3003
,
0100
0100
1000
0010
,
0100
0100
0100
0000
0010
1000
0010
0000
,
0100
0001
0100
0000
0001
0010
0001
0000
,
1000
0100
1000
0000
0001
1000
0001
1000
,
0001
1000
0001
1000
0001
0000
0100
0000
,
0010
0000
0000
0010
0000
0000
0010
0000
0100
0000
0000
0000
0001
0000
1000
0000
,
0100
0000
0010
0100
1000
0000
0001
0100
,
0010
0000
1000
0100
0010
0000
0010
0000
,
0110
0000
1001
0000
1000
0001
1000
0001
,
1000
0001
1000
0001
0100
0000
0110
0000
,
0000
0000
0000
1000
0000
0001
0000
0000
,
0000
0110
0000
1000
0000
0001
0000
0000
,
0000
0110
0000
1001
0000
1100
0000
0010
,
0000
0001
0100
0010
0000
1000
0001
0010
,
0000
0100
1000
0001
0000
1000
0010
0100
,
0000
0001
0000
0000
1000
0001
1000
0001
,
0000
0110
0000
2002
0000
0000
0000
3003
,
0001
1000
0001
1000
0010
0000
1000
0100
,
0010
0000
0100
1000
0001
0010
0001
0000
,
1001
0000
0110
0000
0001
0000
0100
0010
,
1000
0000
0100
0010
0001
0100
0010
0000
,
0110
0000
1001
0000
1000
0000
0010
1000
,
0001
0000
0010
0001
1000
0100
0010
0000
,
0110
0000
1001
0000
1000
0100
0001
0000
,
0110
0000
1001
0000
0001
0100
1000
0000
,
0110
0000
1001
0000
0000
1000
0010
1000
,
0000
0001
0010
0001
0000
1000
0100
1000
,
0000
0001
0100
0001
0100
0010
0100
0000
,
0010
0100
0010
0000
1000
0001
1000
0001
,
1000
0001
1000
0000
0001
0010
0100
0000
,
1000
0010
0100
0000
0010
0000
0010
0000
,
0100
0000
0100
0000
0001
0010
0100
0000
,
1000
0001
0100
0000
0010
0000
0010
0000
,
0100
0100
0000
2002
0000
0000
0000
0000
,
3003
0000
0000
0000
;

//--------------- dance-single - FINAL BOSS forcednature ----------------
#NOTES:
     dance-single:
     FINAL BOSS forcednature:
     Medium:
     9:
     0,0,0,0,0:
0000
0000
0000
0000
,
0000
0000
0000
0000
,
1000
0100
0001
0000
0001
0100
1000
0000
,
1000
0001
1000
0001
0100
0100
0010
0000
,
1000
0010
1000
0100
0000
0010
0001
0100
,
0000
0001
0010
1000
0010
0100
1000
0001
,
1000
0010
0100
0001
0000
1000
0100
0001
,
0100
0010
0001
1000
0010
0100
1000
0100
,
0010
1000
0100
0010
0000
1000
0010
0001
,
0000
0100
0001
1000
0100
0010
0001
0100
,
1000
0100
0010
1000
0100
0010
0001
1000
,
0010
0100
0001
0010
1000
0010
0001
0100
,
0000
0010
1000
0100
0010
0001
0000
0100
,
0010
1000
0100
0010
0100
1000
0001
0100
,
0000
0010
1000
0001
0010
0100
0000
0110
,
0000
0000
1001
0000
0000
0000
0110
0000
0000
0000
1001
0000
0000
0000
0001
1000
,
0001
1000
0010
0100
0001
1000
0000
0100
,
0010
0001
1000
0010
0000
0100
1000
0100
,
0000
0100
0001
0100
0000
0100
0000
0010
,
0000
1000
0100
0010
0001
0010
1000
0010
,
0001
0000
1001
0000
0110
0000
0001
0100
,
1000
0100
0010
0000
0110
0000
1001
0000
,
0110
0000
1000
0100
0001
0100
0010
0000
,
0110
0000
1001
0000
0001
0010
0100
1000
,
0010
0100
0001
0000
1000
0100
0010
0001
,
0100
0010
1000
0100
0010
0001
0100
0010
,
0100
0000
0110
0000
0001
0010
0100
1000
,
0000
0010
0100
0001
0000
1000
0100
0010
,
0000
0100
1000
0001
1000
0010
0100
0001
,
0000
1000
0100
0001
0000
0100
0010
0001
,
0000
1000
0010
0100
0001
0000
1000
0010
,
1000
0100
0010
0001
0000
0100
0001
0010
,
0100
1000
0010
0000
0000
0100
0100
0100
,
0100
0100
0000
0010
0010
0010
0010
0010
,
0000
1000
1000
1000
0000
0001
0001
0001
,
0001
0001
0000
1001
0000
0110
0000
1001
,
0000
0000
0000
1000
0010
0000
0100
1000
,
0000
0100
0000
0010
0000
1000
0100
0010
,
0001
0010
1000
0010
0001
0000
0100
0010
,
0000
1000
0000
0001
0000
0100
0010
1000
,
0100
0001
0100
1000
0010
0100
0001
0010
,
0000
0100
1000
0001
0000
0000
1000
0000
,
0010
1000
0100
0010
0001
0100
0001
0010
,
0000
0100
1000
0001
0000
1000
0010
0100
,
1000
0100
0010
1000
0100
0000
0010
0001
,
0000
1000
0000
0010
0000
0100
0001
1000
,
0100
0010
0100
1000
0001
0000
0010
0001
,
0000
1000
0000
0010
0000
0100
0001
1000
,
0100
0001
0100
0010
0001
1000
0010
0100
,
0000
0010
1000
0100
0000
0010
0001
1000
,
0000
0001
0100
0010
0000
1000
0100
0001
,
0100
1000
0010
0100
0000
0001
0010
1000
,
0000
0010
0100
1000
0000
0001
0100
1000
,
0000
0100
0010
1000
0000
0100
0001
0100
,
0010
0001
1000
0010
0100
0001
1000
0100
,
0010
0001
0100
0010
1000
0100
0010
0100
,
1000
0001
0100
0000
2002
0000
3003
0000
,
1000
0001
0000
0010
0000
0100
1000
0010
,
0100
0000
2002
0000
3003
1000
0010
0100
,
0000
0001
0000
1000
0100
0010
2002
0000
,
3003
0001
0100
0010
0000
1000
0000
0001
,
0010
0100
1000
0000
2002
0000
3003
1000
,
0010
0100
0000
0001
0000
1000
0001
0100
,
0010
1000
0100
0000
0010
0001
0010
0001
,
1000
0100
1000
0001
1000
0001
1000
0010
,
1000
0001
0100
0010
0100
0010
1000
0010
,
1000
0001
0010
0100
1000
0001
0100
0000
,
0010
0000
0000
1000
0000
0000
0001
0000
1000
0000
0100
0000
0010
0000
0100
0000
,
1000
0001
0010
0000
0001
0100
0010
1000
,
0100
0010
0100
1000
0001
1000
0010
0001
,
0010
1000
0100
0001
0100
0010
0001
1000
,
0010
0100
0001
0000
0100
0000
1001
0010
,
0000
1001
0000
0110
0000
1000
0100
0001
,
0100
0010
0001
0100
1000
0000
0100
0010
,
0000
1001
0000
0110
0000
1000
0100
0001
,
0100
1000
0100
0001
0100
1000
0010
0100
,
0000
0001
0010
1000
0000
0010
0100
1000
,
0001
0100
0010
0000
1000
0001
1000
0001
,
0000
0110
0000
1001
0000
1000
0010
0100
,
0001
0010
0100
1000
0100
0001
0100
1000
,
0000
0010
0100
0001
0000
1000
0100
0010
,
1000
0010
0001
1000
0010
0100
1000
0100
,
0000
0001
1000
0100
0000
0010
0100
1000
,
0001
0100
0010
1000
0100
0001
0100
0010
,
0000
0001
1000
0010
0000
0100
1000
0100
,
0000
0010
1000
0100
0010
0000
0001
0000
,
0100
0010
1000
0001
0000
1000
0100
0001
,
0000
0100
1000
0010
0000
0100
0001
0010
,
0000
0100
1000
0001
0000
1000
0010
0001
,
0010
1000
0100
0001
0100
0010
0001
1000
,
0010
0100
1000
0100
0010
1000
0100
0010
,
0001
0100
0010
0000
1000
0001
0100
0010
,
0000
1000
0100
0001
0000
0100
0010
0001
,
1000
0010
0100
1000
0100
0010
1000
0100
,
0010
0001
1000
0010
0001
0010
1000
0100
,
0001
0100
0010
0002
0000
0000
0000
0000
,
0003
0000
0000
0000
;

//--------------- dance-single - FINAL BOSS forcednature ----------------
#NOTES:
     dance-single:
     FINAL BOSS forcednature:
     Hard:
     10:
     0,0,0,0,0:
0000
0000
0000
0000
,
0000
0000
0000
0000
,
0101
0101
0001
0000
1100
1100
1000
0000
,
0001
0000
1000
0000
0100
0000
0010
0000
0001
1000
0001
1000
0001
0000
0000
0000
,
1000
0100
0010
0100
0000
1000
0001
0100
,
0000
0010
1000
0001
0010
0100
1000
0001
,
0100
0010
1000
0100
0000
0010
0001
0100
,
0010
1000
0010
0000
0100
0001
0100
0000
0001
0010
0001
0000
1000
0100
1000
0000
,
0001
0100
0010
1000
0000
0100
0001
0100
,
0000
1000
0010
0100
1000
0100
0010
1000
,
0100
0010
0001
1000
0010
0100
0001
0010
,
0100
1000
0100
0000
0010
0001
0010
0000
0001
0100
0001
0000
1000
0010
1000
0000
,
0000
0001
0100
1000
0100
0001
0000
1000
,
0100
0010
0100
1000
0001
0010
1000
0010
,
0000
0001
0100
0010
1000
0100
0000
0110
,
0000
0000
1001
0000
0000
0000
0110
0000
0000
0000
1001
0000
0000
0000
0001
1000
,
0001
1000
0100
0010
0100
1000
0000
0001
,
0100
0010
1000
0100
0000
0010
0001
0010
,
0000
0100
1000
0100
0000
1000
0010
0100
,
0000
0001
0100
0010
1000
0100
0010
0001
,
0101
0000
1001
0000
1100
0000
1000
0001
,
0100
0010
1000
0000
1001
0000
1010
0000
,
1001
0000
0001
0010
0100
1000
0001
0000
,
0101
0000
1001
0000
1000
0100
0010
0100
,
1000
0001
0010
0000
0100
1000
0001
0100
,
0000
0010
1000
0000
0001
0010
0100
0000
,
1000
0001
1000
0001
1000
0000
0000
0000
0001
0000
0100
0000
0010
0000
1000
0000
,
0000
0100
0010
0001
0000
0100
0010
1000
,
0100
0010
0100
1000
0001
0010
0100
1000
,
0000
0001
0100
0010
0000
1000
0100
0010
,
0100
1000
0001
0010
0001
0000
0100
0001
,
1000
0010
0100
0001
0000
1000
0100
0001
,
0100
1000
0010
0000
0000
0100
0100
0100
,
0100
0100
0000
0010
0010
0010
0010
0010
,
0000
0000
1000
0000
0001
0000
1000
0000
0000
0000
0100
0000
0100
0000
1000
0001
,
1000
0100
0000
0011
0000
1100
0000
2002
,
0000
0000
3003
1000
0010
0000
0100
0001
,
0000
0000
0010
0000
0000
0000
0100
0000
0000
0000
1000
0000
0001
0000
0100
0001
,
0100
0001
0100
0001
0100
0001
0100
0001
0100
0000
0000
0000
0010
0000
1000
0000
,
0000
0000
0100
0000
0000
0000
0010
0000
0000
0000
0100
0000
1000
0000
0010
1000
,
0010
1000
0010
1000
0010
1000
0010
1000
0010
0000
1000
0000
0100
0000
0010
0000
,
0000
0100
1000
0001
0000
0100
0010
1000
,
0100
0010
0001
0100
0010
1000
0001
0010
,
0000
1001
0000
0110
0000
1000
0100
0001
,
0100
0001
0100
1000
0010
0000
0100
0001
,
0000
0000
1000
0000
0010
0000
0100
0000
0000
0000
1000
0000
0100
0000
0001
0100
,
0001
0100
0001
0100
0001
0100
0001
0100
0001
0000
0000
0000
1000
0000
0100
0000
,
0000
0000
0010
0000
0100
0000
1000
0000
0000
0000
0001
0000
0010
0000
0001
0100
,
0001
0100
0001
0100
0001
0100
0001
0100
0001
0000
1000
0000
0010
0000
0100
0000
,
0000
1000
0100
0010
0000
1000
0100
0010
,
0100
1000
0001
0010
0100
0000
0110
0000
,
1000
0000
0001
0000
0100
0000
0110
0000
0000
0000
0001
1000
0001
0000
0100
0000
,
0010
0000
1000
0001
1000
0000
0100
0000
0000
0000
0001
0000
0100
0000
1000
0000
,
0000
0001
0100
1000
0000
1000
0100
0001
,
0000
1000
0100
0001
0100
1000
0100
0010
,
0100
0000
1000
0000
0001
0000
0100
0000
0010
1000
0010
0000
0100
0000
0001
0000
,
0010
0001
0010
0000
0100
0000
0000
0000
2002
0000
0000
0000
3003
0000
1000
0010
,
1000
0001
0000
0010
0000
0100
1000
0001
,
0100
0010
2002
0000
3003
1000
0100
0010
,
0000
0001
0000
1000
0010
0100
2002
0000
,
3003
0000
0001
0100
0001
0000
1000
0000
0000
0000
0100
0000
0000
0000
0010
0000
,
0001
1000
0010
1000
2002
0000
3003
0001
,
0100
0010
0000
1000
0000
0100
0010
0100
,
1000
0001
0010
0100
1000
0010
1000
0010
,
0001
0010
0001
0010
1000
0100
1000
0100
,
0001
0100
0001
0100
1000
0010
0100
0001
,
0010
0100
1000
0001
2002
0000
0000
3003
,
1001
0000
0000
0110
0000
0000
1001
0000
1000
0000
0001
0000
0100
0000
1000
0000
,
0100
0001
1000
0000
1000
0100
0001
1000
,
0001
0000
0100
0000
1000
0000
0000
0000
0001
0100
0010
1000
0010
0100
0001
0000
,
1000
0100
0010
0001
0010
0100
1000
0000
0001
0010
0100
1000
0100
0010
0001
0000
,
1000
0010
0100
0001
0100
0010
1000
0000
0000
0000
0000
0000
1001
0000
0000
0000
,
0000
0000
0000
0110
0000
1010
0000
0000
,
0000
0101
0000
0000
0000
1001
0000
0000
,
0000
0000
0000
0110
0000
1000
0001
1000
,
0001
0010
0100
1000
0001
0100
0010
1000
,
0000
0100
0001
0100
0000
1000
0010
0100
,
0001
0010
0100
1000
0010
0100
0010
0100
,
0000
0110
0000
1001
0000
1000
0100
0010
,
0001
1000
0001
1000
0001
1000
0001
1000
0001
0000
0000
0000
0100
0000
0010
0000
,
0000
0000
1000
0000
0100
0000
0010
0000
0000
0000
0100
0000
1000
0000
0001
0100
,
0001
0100
0001
0100
0001
0100
0001
0100
0001
0000
0000
0000
1000
0000
0010
0000
,
0000
0000
1000
0000
0100
0000
0010
0000
0000
0000
0100
0000
1000
0000
0010
1000
,
0010
1000
0010
1000
0010
1000
0010
1000
0010
0000
0100
0000
0001
0000
1000
0000
,
0000
0100
0001
0100
0000
1000
0001
0100
,
0010
1000
0100
0010
0000
0100
1000
0001
,
0010
0100
1000
1001
0000
1000
0010
1001
,
0000
1000
0100
0010
0000
1000
0010
0001
,
0000
1000
0010
0001
0000
0001
0010
1000
,
0000
0001
0010
1000
0001
1000
0010
0100
,
1000
0000
0010
0000
0100
0000
0001
0000
1000
0001
1000
0000
0100
0000
0010
0000
,
0001
1000
0001
1000
0001
0000
0000
0000
1000
0000
0100
0000
0010
0000
0001
0000
,
0000
0100
0010
1000
0000
0001
0100
1000
,
0100
0010
1000
0100
0010
0001
0010
1000
,
0010
0000
0001
0000
0010
0000
0100
0000
1000
0001
1000
0001
1000
0001
1000
0001
,
1000
0100
0010
0001
0010
0100
2000
0000
0000
0000
0000
0000
0000
0000
0000
0000
,
3000
0000
0000
0000
;

//--------------- dance-single - FINAL BOSS forcednature ----------------
#NOTES:
     dance-single:
     FINAL BOSS forcednature:
     Challenge:
     12:
     0,0,0,0,0:
0000
0000
0000
0000
,
0000
0000
0000
0000
,
0001
0100
0002
0000
1003
0100
2000
0000
,
3001
0000
0010
0000
0100
0000
1000
0000
0001
1000
0001
1000
0001
0000
0000
0000
,
1000
0010
0100
1000
0000
0100
0001
1000
,
0000
0000
0100
0000
0010
0000
0001
0000
1000
0000
0001
0100
0001
0000
1000
0000
,
0010
0100
0010
0001
0000
0010
1000
0001
,
1000
0100
0010
0000
0100
1000
0001
0000
0100
0001
1000
0000
0010
1000
0001
0000
,
1000
0010
0001
0010
0000
1000
0100
0010
,
0000
0000
0001
0000
0100
0000
1000
0000
0100
0000
0001
0010
0001
0000
1000
0000
,
0100
0000
0010
0000
0100
0000
1000
0000
0001
0000
0100
0000
0010
1000
0010
0000
,
1000
0001
0010
0000
0001
1000
0100
0000
1000
0001
0100
0000
0010
1000
0010
1000
,
0001
0010
0100
0010
0001
0100
0000
0010
,
1000
0000
0100
0000
0001
0000
0100
0000
1000
0000
0010
0100
0010
0000
0001
0000
,
0000
0010
1000
0001
0010
1000
0000
1010
,
0000
0000
0011
0000
0000
0000
1100
0000
0000
0000
0101
0000
0000
0000
1000
0100
,
1000
0001
0100
1000
0100
0010
0000
1000
,
0010
0000
0001
0000
0010
0000
1000
0000
0001
0000
0010
0100
0010
0000
0001
0000
,
0000
1000
1001
0001
0000
0010
0110
0100
,
0000
0000
1000
0000
0001
0000
0100
0000
0001
0010
0100
1000
0001
1000
0010
0100
,
0001
0000
0101
0000
1010
0000
1000
0100
,
0001
0000
0100
0010
0100
0000
0000
0000
1010
0000
0000
0000
0011
0000
0000
0000
,
1001
0000
0000
0000
0001
0000
0100
0000
0010
0001
0010
0001
0010
0000
1000
0000
,
1001
0000
1100
0000
0011
0001
0100
0010
,
1000
0000
0100
1000
0100
0000
0000
0000
1000
0000
0100
0000
0010
0000
0001
0000
,
0100
0000
0010
1000
0010
0000
0000
0000
1000
0000
0001
0010
0001
0000
0100
0010
,
0100
0010
0100
0010
0100
0000
0000
0000
0010
0000
1000
0000
0001
0000
1000
0000
,
0100
0001
0100
1000
0010
0100
1000
0100
,
0001
1000
0100
0000
0010
0100
1000
0010
,
0001
0010
1000
0001
0010
0100
0001
0100
,
1000
0000
0001
0100
0001
0000
0010
0000
1000
0000
0000
0000
0010
0000
0100
0000
,
1000
0001
0100
0010
0000
1000
0001
0010
,
0100
1000
0001
0000
0000
0101
0101
1001
,
0101
1001
0000
1100
1100
1001
1100
1001
,
0000
0000
1001
0000
0110
0000
1001
0000
0000
0000
1000
0000
0001
0000
1000
0010
,
1000
0000
0010
0000
0100
0001
0200
0000
0300
0000
0220
0000
0330
0000
2002
0000
,
0000
0000
3003
1000
0010
0100
0001
0010
,
0100
0000
0001
0000
0100
0000
0010
0000
0001
0000
0010
0000
0100
0000
1000
0001
,
1000
0100
0010
0001
0100
0001
0100
0010
1000
0000
0001
0000
1000
0000
0010
0000
,
0001
0000
0010
0000
1000
0000
0100
0000
0010
0000
1000
0000
0010
0000
0001
1000
,
0001
0010
0100
1000
0001
1000
0010
0100
0001
0000
0010
0000
0100
0000
1000
0000
,
0100
0001
0100
1000
0001
0100
0010
1000
,
0100
0000
0010
0000
0001
0000
1000
0001
1000
0000
1001
0000
1001
0000
0110
0000
,
0000
1001
0100
1001
0000
0001
1000
0001
,
1000
0100
0010
0100
1000
0001
0010
0001
0100
0000
0010
0000
1000
0000
0100
0000
,
0001
0000
0100
0000
0010
0000
0001
0000
1000
0000
0010
0000
0100
0000
0001
1000
,
0001
0100
0010
1000
0100
1000
0001
0010
0100
0000
1000
0000
0001
0000
0100
0000
,
1000
0000
0100
0000
0010
0000
1000
0000
0001
0000
0010
0000
0100
0000
1000
0100
,
1000
0001
0010
0100
0010
0001
0010
0001
1000
0000
0010
0000
0100
0000
0001
0000
,
0100
0010
1000
0100
0001
0100
0010
0001
,
1000
0010
0100
1000
0100
0001
1000
0100
,
0010
0000
1000
0000
0010
0000
0110
0000
0000
0000
0001
1000
0001
0000
1001
0000
,
1000
0000
0001
0100
0001
0000
1000
0000
0001
0000
1000
0000
0100
0000
0002
0000
,
0003
0001
0100
2000
3000
1000
0010
0100
,
0001
0010
1000
0010
0001
0100
0010
1000
,
0100
0000
0010
0000
0001
0000
1000
0000
0001
0100
0001
0000
1000
0000
0010
0000
,
1000
0000
0000
0000
0000
0000
0100
0000
0000
0000
0000
0000
1000
0000
0000
0000
0000
0000
0000
0000
0000
0000
0000
0000
0010
0000
0000
0000
0000
0000
0000
0000
0000
0000
0000
0000
0000
0000
0000
0000
0000
0000
0000
0000
0000
0000
0000
0000
2002
0000
0000
0000
0000
0000
0000
0000
0000
0000
0000
0000
0000
0000
0000
0000
0000
0000
0000
3003
0000
0000
0000
0000
1000
0000
0000
0000
0000
0000
0000
0000
0000
0000
0000
0000
0001
0000
0000
0000
0000
0000
0100
0000
0000
0000
0000
0000
,
0001
0000
0010
0000
0000
0000
0100
0000
0000
0000
1000
0000
0010
0000
0100
1000
,
0100
0000
0000
0000
0000
0000
0000
0000
0000
0000
0000
0000
0001
0000
0000
0000
0000
0000
0000
0000
0000
0000
0000
0000
0022
0000
0000
0000
0000
0000
0000
0000
0000
0000
0000
0000
0000
0000
0000
0000
0000
0000
0000
0033
0000
0000
0000
0000
0000
0000
0000
0000
0000
0000
0000
0000
0000
0000
0000
0000
1000
0000
0000
0000
0000
0000
0100
0000
0000
0000
0000
0000
1000
0000
0000
0000
0000
0000
0000
0000
0000
0000
0000
0000
0010
0000
0000
0000
0000
0000
0000
0000
0000
0000
0000
0000
,
0000
0000
0000
0000
0000
0000
0000
0000
0000
0000
0000
0000
0100
0000
0000
0000
0000
0000
0000
0000
0000
0000
0000
0000
0000
0000
0000
0000
0000
0000
0000
0000
0000
0000
0000
0000
0001
0000
0000
0000
0000
0000
0000
0000
0000
0000
0000
0000
0010
0000
0000
0000
0000
0000
0000
0000
0000
0000
0000
0000
1000
0000
0000
0000
0000
0000
0010
0000
0000
0000
0000
0000
2000
0000
0000
0000
0000
0000
0000
0000
0000
0000
0000
0000
0000
0000
0000
0000
0000
0000
0000
3000
0000
0000
0000
0000
,
0010
0000
0001
0100
0001
0000
1000
0000
0000
0000
0010
0000
0000
0000
0001
0000
,
0010
0000
0000
0000
0000
0000
0000
0000
0000
0000
0000
0000
1000
0000
0000
0000
0000
0000
0100
0000
0000
0000
0000
0000
1000
0000
0000
0000
0000
0000
0000
0000
0000
0000
0000
0000
0010
0000
0000
0000
0000
0000
0000
0000
0000
0000
0000
0000
2020
0000
0000
0000
0000
0000
0000
0000
0000
0000
0000
0000
0000
0000
0000
0000
0000
0000
0000
3030
0000
0000
0000
0000
0000
0000
0000
0000
0000
0000
0000
0000
0000
0000
0000
0000
0001
0000
0000
0000
0000
0000
0100
0000
0000
0000
0000
0000
,
0001
0000
0010
0000
0000
0000
0100
0000
0000
0000
1000
0000
0010
0100
0010
0000
,
1000
0000
0001
0010
0100
1000
0001
0010
0100
0000
1000
0010
1000
0001
0100
0000
,
0010
0000
1000
0010
0100
0001
0100
0000
0001
0000
1000
0100
0010
0100
1000
0000
,
0001
0000
1000
0001
0010
0100
1000
0001
0100
0001
1000
0001
1000
0010
0100
0001
,
0010
0100
1000
0100
0010
0001
1000
0010
1000
0000
0010
0100
0010
0000
1000
0000
,
1001
0000
0000
0110
0000
0000
0001
1000
0001
0000
0100
0000
0010
0000
0001
0000
,
0010
0000
1000
0001
1000
0000
0100
0000
0000
0000
0010
0001
0010
0000
0100
0000
,
1000
0010
1000
0001
1000
0100
0010
0001
1000
0001
0010
0100
0010
0001
1000
0001
,
0100
0010
1000
0100
1000
0001
0010
0001
1000
0010
0100
0001
0010
0100
1000
0100
,
0010
0001
0100
0010
2000
0000
3100
0000
0010
0000
0000
0000
1001
0000
0100
0000
,
0000
0010
0000
0110
0000
1001
0000
1000
,
0010
0000
1010
0000
0000
0000
0001
0100
0001
0000
0101
0000
0001
0000
0010
0000
,
0000
0000
0100
0000
0000
0000
1000
0001
1000
0000
1001
0000
0001
0000
1001
0000
,
0000
0000
1000
0010
1000
0010
1000
0010
1000
0000
0100
0000
0001
0000
0100
0000
,
0010
0001
1000
0010
0100
1000
0100
0010
,
1000
0000
0100
0000
0001
0000
0100
0010
0100
0000
0110
0000
0110
0000
1001
0000
,
0000
0110
0000
1001
0000
1000
0001
0100
,
0010
1000
0100
0010
0001
1000
0001
0100
0010
0000
1000
0000
0100
0000
0010
0000
,
0001
0000
0100
0000
1000
0000
0100
0000
0010
0000
1000
0000
0100
0000
0010
0001
,
1000
0100
0010
0001
0010
0100
1000
0001
0100
0000
1000
0000
0100
0000
0001
0000
,
1000
0000
0100
0000
0010
0000
1000
0000
0010
0000
0001
0000
0100
0000
0010
1000
,
0001
0100
0001
1000
0010
0100
0001
1000
0010
0000
0100
0000
0001
0000
0010
0000
,
1000
0010
0001
0100
0010
1000
0100
0010
,
0100
1000
0010
0001
0010
0100
0001
0010
,
1000
0010
0100
1000
0001
1000
0001
1000
,
0010
0000
1000
0100
1000
0000
0010
0000
0100
0000
1000
0000
0100
0000
0002
0000
,
0003
0001
0100
2000
3000
0100
0001
0010
,
0100
0000
1000
0000
0010
0000
0100
0000
1000
0000
0100
0000
0001
0000
0100
0010
,
0100
0000
0001
0000
1000
0000
0100
0000
0010
0001
0010
0000
0100
0000
1000
0000
,
0001
0100
0001
0100
0001
0000
0000
0000
1000
0000
0010
0000
0100
0000
0001
0000
,
0000
1000
0100
0001
0000
0100
0010
0001
,
1000
0000
0001
0100
0001
0000
0010
0000
0100
0000
1000
0000
0001
0000
1000
0000
,
0100
0000
0001
0000
0100
0000
0010
0000
0001
1000
0001
0010
0100
1000
0001
1000
,
0010
0100
0001
1000
0001
0010
0200
0000
0000
0000
0000
0000
0000
0000
0000
0000
,
0300
0000
0000
0000
;

//--------------- dance-double - FINAL BOSS forcednature ----------------
#NOTES:
     dance-double:
     FINAL BOSS forcednature:
     Easy:
     7:
     0,0,0,0,0:
00000000
00000000
00000000
00000000
,
00000000
00000000
00000000
00000000
,
00010000
00001000
00010000
00000000
00001000
00010000
00001000
00000000
,
00011000
00011000
00011000
00000000
,
00001000
01000000
00001000
00000000
00100000
00000000
01000000
00000000
,
10000000
00100000
01000000
00010000
,
00100000
00001000
00100000
00000000
00001000
00000000
00010000
00000000
,
00000010
00001000
00000010
00000000
00000100
00000001
00000100
00000000
,
00000010
00001000
00000010
00000000
00001000
00000000
00000100
00000000
,
00000010
00000001
00001000
00000100
,
00010000
00001000
00010000
00000000
00001000
00000000
00100000
00000000
,
00010000
01000000
00010000
00000000
10000000
00100000
10000000
00000000
,
01000000
01000000
00100000
00100000
,
00001000
00010000
00000010
00000010
,
00000100
00000000
00000100
00000000
00000001
00000000
00000000
00001001
,
00000000
00000110
00000000
00001001
00000000
00000110
00000000
00000000
,
00000001
00000001
00000100
00000010
,
00010000
00010000
00001000
00100000
,
01000000
10000000
00010000
01000000
,
00100000
00100000
01000000
00000000
,
10010000
00000000
01100000
00000000
10010000
00000000
00000000
01000000
,
00000000
00001000
00000000
00000000
00011000
00000000
00010100
00000000
,
00011000
00000000
00000000
00000010
00000000
00001000
00000000
00000000
,
00001001
00000000
00000110
00000000
00001001
00000000
00000000
00000010
,
00000000
00000100
00000000
00000000
00011000
00000000
00000000
01000000
,
00000000
00000000
10010000
00000000
00000000
00100000
00000000
00000000
,
00022000
00000000
00033000
00000000
00001000
01000000
00010000
00000000
,
10000000
00000000
00100000
00000000
10000000
01000000
00100000
00000000
,
01000000
00000000
10000000
00000000
00010000
00100000
00001000
00000000
,
00010000
00000000
00000010
00000000
00001000
00000001
00000010
00000000
,
00000100
00000000
00001000
00000000
00000001
00000100
00000010
00000000
,
00001000
00000000
00000100
00000000
00010000
00001000
01000000
00000000
,
00010000
00000000
10000000
00000000
00000000
00100000
01000000
00100000
,
01000000
00100000
00000000
00010000
00001000
00010000
00001000
00010000
,
00000000
00000010
00000100
00000010
00000000
00010000
00001000
00010000
,
00001000
00010000
00000000
00011000
00000000
00011000
00000000
00022000
,
00000000
00000000
00033000
00000000
00010000
00001000
00010000
00000000
,
00001000
00000000
01000000
00000000
00010000
00100000
01000000
00000000
,
10000000
00100000
01000000
00000000
00010000
00100000
00001000
00000000
,
00010000
00000000
00000010
00000000
00001000
00000001
00000010
00000000
,
00000100
00001000
00000001
00000000
00000100
00000010
00001000
00000000
,
00000100
00000000
00000010
00000000
00000001
00000100
00000010
00000000
,
00010000
00001000
01000000
00000000
00010000
00100000
00010000
00100000
,
00000000
11000000
00000000
00220000
00000000
00000000
00330000
00000000
,
00101000
00000000
00011000
00000000
00010000
00000010
00001000
00000000
,
00000001
00000000
00000100
00000000
00000010
00001000
00000100
00000000
,
00000010
00000001
00000100
00000000
00000010
00010000
00001000
00000000
,
01000000
00000000
00010000
00000000
10000000
01000000
00100000
00000000
,
01000000
10000000
00010000
00000000
01000000
00001000
00010000
00000000
,
00000100
00000000
00001000
00000000
00000001
00000100
00000010
00000000
,
00001000
00000100
00000010
00000000
00000100
00001000
00000010
00000000
,
00010000
00000000
00000000
00011000
00000000
00001000
00000000
01001000
,
00000000
01000000
00000000
01100000
00000000
00100000
10000000
01000000
,
00000000
00100000
00010000
01000000
00000000
00001000
00010000
00000010
,
00000000
00001000
00000001
00000100
00000000
00000010
00000100
00000000
,
00000110
00000000
00001001
00000000
00000100
00000100
00000100
00000000
,
00000010
00000010
00000010
00000000
00002200
00000000
00003300
00000000
,
00010000
00000000
00000000
01000000
00000000
00000000
10000000
00000000
,
00100000
20020000
30030000
01000000
,
00000000
00001000
00000000
00000000
00010000
00000000
00002200
00000000
,
00003300
00000000
00000010
00000000
00000000
00000001
00000000
00000000
,
00000100
00000010
00002002
00003003
,
00000010
00000000
00000000
00010000
00000000
00000000
00001000
00000000
,
01000000
00000000
00100000
00000000
10000000
01000000
10000000
00000000
,
00010000
01000000
00010000
00000000
00100000
00001000
00100000
00000000
,
00000010
00010000
00000010
00000000
00001000
00000001
00001000
00000000
,
00000010
00000100
00000010
00000000
00000110
00000000
00000000
00000000
,
00010000
00000000
00000000
00001000
00000000
00000000
00010000
00000000
00001000
00000000
00000000
00000000
01000000
00000000
00000000
00000000
,
00010000
00000000
10000000
00000000
01000000
00100000
00010000
00000000
,
01000000
00001000
00010000
00000000
00000010
00001000
00000010
00000000
,
00010000
00001000
00010000
00000000
00001000
00100000
00001000
00000000
,
00010000
00001000
00010000
00000000
00000000
00000000
00011000
00000000
,
00000000
00000000
00000000
01001000
00000000
00010100
00000000
00000000
,
00000000
00011000
00000000
00000000
00000000
01100000
00000000
00000000
,
00000000
00000000
00000000
10010000
00000000
01100000
00000000
00000000
,
00000000
10000000
01000000
00100000
00000000
00010000
01000000
00001000
,
00000000
00010000
00000010
00001000
00000000
00000001
00000100
00000010
,
00000000
00000000
00000100
00000000
00000010
00000100
00000010
00000100
,
00000000
00011000
00000000
02200000
00000000
00000000
00000000
00000000
,
00000000
00000000
03300000
00000000
10000000
00000000
00010000
01000000
,
00000000
00001000
00000000
00010000
00000000
00000100
00001000
00000000
,
00000000
00000000
00000000
00000000
00000010
00000000
00000100
00000001
,
00000000
00000010
00000000
00000100
00000000
00010000
00001000
00000000
,
00000000
01000000
00010000
10000000
00000000
00100000
10000000
01000000
,
00000000
00100000
00010000
01000000
00000000
00001000
00010000
00000010
,
00000000
00000100
00000001
00000100
00000000
00000000
00000110
00000000
,
00001001
00000000
00001010
00000000
00010000
00001000
00100000
00000000
,
00010000
01000000
00100000
00000000
00000000
10000000
01000000
00100000
,
00000000
01000000
10000000
00010000
00000000
01000000
00001000
00010000
,
00000000
00000100
00001000
00000001
00000000
00000100
00000010
00000100
,
00000010
00000100
00000010
00000100
00000010
00000010
00000010
00000000
,
00010000
00010000
00010000
00000000
00011000
00000000
00001000
00000000
,
01000000
00000000
00010000
00000000
00100000
01000000
10000000
00000000
,
00100000
01000000
00010000
00000000
01010000
00000000
01000000
00000000
,
00001000
00000000
00010000
00000000
00000100
00001000
00000001
00000010
,
00000100
00001000
00000000
00002002
00000000
00000000
00000000
00000000
,
00003003
00000000
00000000
00000000
;

//--------------- dance-double - FINAL BOSS forcednature ----------------
#NOTES:
     dance-double:
     FINAL BOSS forcednature:
     Medium:
     9:
     0,0,0,0,0:
00000000
00000000
00000000
00000000
,
00000000
00000000
00000000
00000000
,
00010000
00001000
01000000
00000000
00100000
10000000
01000000
00000000
,
00100000
00010000
01000000
00001000
00010000
00000000
00001100
00000000
,
00001000
00000001
00000100
00000010
00000000
00001000
00000100
00000010
,
00000000
00000100
00010000
00001000
01000000
00010000
00100000
10000000
,
00100000
00010000
01000000
00100000
00000000
10000000
01000000
00010000
,
01000000
00100000
00001000
00010000
00000100
00000010
00000001
00000100
,
00000010
00001000
00000001
00000010
00000000
00000100
00001000
00000010
,
00000000
00010000
00001000
01000000
00010000
10000000
01000000
00100000
,
01000000
10000000
00010000
01000000
00100000
01000000
00001000
00010000
,
00000100
00010000
00000010
00001000
00000001
00001000
00000001
00000100
,
00000000
00000010
00001000
00000100
00000010
00000001
00000000
00000100
,
00000010
00010000
00001000
01000000
00010000
00100000
10000000
00100000
,
00000000
01000000
10000000
00010000
01000000
00100000
00000000
01100000
,
00000000
10010000
00000000
01100000
00000000
00011000
00000000
00001000
,
00000010
00000100
00000001
00000100
00001000
00000100
00000000
00000010
,
00010000
00001000
00100000
01000000
00000000
10000000
00100000
01000000
,
00000000
00010000
00100000
01000000
00000000
10000000
00010000
01000000
,
00001000
00010000
00000100
00001000
00000001
00000100
00000010
00001000
,
00001010
00000000
00000011
00000000
00001001
00000000
00000001
00000100
,
00001000
00010000
00100000
00000000
01010000
00000000
10010000
00000000
,
11000000
00000000
10000000
00100000
00010000
00001000
00000010
00000000
,
00001001
00000000
00000110
00000000
00000001
00000100
00001000
00000100
,
00000010
00001000
00000100
00000000
00010000
00001000
00010000
01000000
,
10000000
00100000
00010000
00000000
00100000
10000000
01000000
00000000
,
00100000
01000000
00100000
01000000
00100000
00000000
00000000
00000000
01000000
00000000
10000000
00000000
00010000
00000000
01000000
00000000
,
00001000
00010000
00000010
00001000
00000001
00000100
00000010
00001000
,
00000100
00000001
00000100
00000000
00000010
00000001
00000100
00000010
,
00010000
00001000
00100000
00010000
01000000
10000000
01000000
00010000
,
10000000
01000000
00100000
00000000
01000000
10000000
00010000
01000000
,
00001000
00010000
00000010
00001000
00000010
00000001
00000010
00001000
,
00000100
00000010
00000001
00000000
00000000
00000100
00001000
00010000
,
01000000
10000000
00000000
01000000
00010000
00001000
00000100
00000001
,
00000000
00000100
00001000
00010000
00000000
01000000
00010000
00001000
,
00000100
00000001
00000000
00001001
00000000
00000110
00000000
00001001
,
00000000
00000000
00000000
00000000
00000001
00000100
00000010
00001000
,
00000100
00000010
00000100
00001000
00000010
00010000
00001000
01000000
,
00010000
00100000
01000000
00000000
01000000
10000000
00100000
01000000
,
00010000
10000000
01000000
00010000
01000000
00100000
00001000
00010000
,
00000010
00000100
00000001
00000000
00000001
00000010
00001000
00000010
,
00000001
00000100
00000010
00010000
00001000
01000000
00010000
00100000
,
10000000
00100000
00010000
00000000
10000000
01000000
00010000
01000000
,
00000000
01100000
00000000
10010000
00000000
10000000
00100000
01000000
,
00010000
00100000
01000000
10000000
00010000
01000000
00001000
00010000
,
00000010
00001000
00000001
00000010
00001000
00000010
00000001
00000100
,
00000010
00001000
00000100
00000000
00000100
00000010
00000001
00000100
,
00000010
00010000
00001000
01000000
00010000
00100000
01000000
10000000
,
00100000
01000000
00010000
00000000
00010000
10000000
01000000
00100000
,
00010000
01000000
00001000
00010000
00000010
00001000
00000001
00000010
,
00000100
00001000
00000001
00000100
00000010
00001000
00000100
00010000
,
00001000
01000000
00010000
00100000
10000000
00100000
00010000
01000000
,
00001000
00010000
00000010
00001000
00000000
00000001
00000100
00001000
,
00000000
00010000
01000000
10000000
00000000
10000000
01000000
00010000
,
00000000
00001000
00000100
00000001
00000000
00000000
00000001
00001000
,
00000001
00001000
00000001
00001000
00000010
00010000
00001000
00100000
,
00010000
01000000
00100000
00000000
02200000
00000000
03300000
00000000
,
10000000
01000000
00000000
01100000
00000000
00100000
00010000
01000000
,
00001000
00000000
00022000
00000000
00033000
00010000
00000010
00001000
,
00000000
00000101
00000000
00000001
00000010
00000100
00000220
00000000
,
00000330
00000100
00010000
00001000
00000000
00011000
00000000
00001000
,
01000000
00010000
00100000
00000000
20020000
00000000
30030000
10000000
,
01000000
00100000
00000000
01100000
00000000
01000000
10000000
00010000
,
01000000
00001000
00010000
00000100
00001000
00000001
00001000
00000001
,
00001000
00000010
00001000
00000010
00001000
00000100
00001000
00000100
,
00010000
00001000
00010000
00001000
00100000
00000000
00100000
01000000
,
10000000
00010000
01000000
00100000
10000000
00000000
00000000
00000000
,
10010000
00000000
00000000
01100000
00000000
00000000
10010000
00000000
10000000
00000000
00000000
00000000
00100000
00000000
10000000
00000000
,
01000000
00000000
00100000
00010000
01000000
00001000
00010000
00000100
,
00001000
00000001
00001000
00000010
00010000
00001000
01000000
00010000
,
00100000
10000000
00100000
00010000
01000000
00001000
00010000
00000010
,
00001000
00000010
00000001
00000010
00001000
00000000
00000101
00000010
,
00000000
00001000
00000000
00000101
00000000
00001000
00000100
00010000
,
00000000
00001000
01000000
00010000
00100000
00000000
01100000
10000000
,
00000000
00010000
00000000
01100000
00000000
10000000
00010000
10000000
,
01000000
00010000
00001000
00000001
00001000
00000000
00000010
00001000
,
00000001
00000000
00000100
00000010
00001000
00000100
00010000
00001000
,
00100000
00010000
01000000
00100000
10000000
01000000
00100000
01000000
,
00000000
01100000
00000000
10010000
00000000
10000000
01000000
00010000
,
00001000
00000010
00000001
00000100
00000010
00000000
00001001
00000000
,
00000101
00000000
00001100
00000000
00010000
00001000
01000000
00010000
,
00100000
01000000
10000000
00100000
01000000
00000000
10100000
00000000
,
10010000
00000000
00110000
00000000
01000000
10000000
00010000
01000000
,
00001000
00010000
00000010
00001000
00000001
00000000
00001001
00000000
,
00000110
00000000
00001001
00000000
00000001
00000010
00000100
00001000
,
00000010
00000100
00001000
00000000
00000100
00000010
00001000
00000100
,
00000010
00010000
00001000
00000000
01000000
00010000
00100000
01000000
,
10000000
00010000
01000000
00100000
10000000
01000000
00010000
00001000
,
00000010
00000001
00000100
00001000
00010000
00100000
10000000
01000000
,
00010000
00001000
00000010
00000001
00000100
00001000
00010000
00100000
,
10000000
01000000
00010000
00001000
00000010
00000001
00000100
00001000
,
00010000
00100000
10000000
00000000
10010000
00000000
01100000
00000000
,
10010000
00000000
10100000
00000000
10000000
01000000
00010000
01000000
,
00100000
00001000
00010000
00000000
00000010
00001000
00000001
00000100
,
00000010
00001000
00000100
00000010
00000001
00000100
00000010
00001000
,
00000100
00010000
00001000
00022000
00000000
00000000
00000000
00000000
,
00033000
00000000
00000000
00000000
;

//--------------- dance-double - FINAL BOSS forcednature ----------------
#NOTES:
     dance-double:
     FINAL BOSS forcednature:
     Hard:
     10:
     0,0,0,0,0:
00000000
00000000
00000000
00000000
,
00000000
00000000
00000000
00000000
,
00011000
01001000
00000000
00000000
00011000
00010100
00000000
00000000
,
00001000
00000000
00010000
00000000
00001000
00000000
01000000
00000000
00010000
10000000
00010000
10000000
00010000
00000000
00000000
00000000
,
10000000
01000000
00100000
01000000
10000000
00010000
01000000
00001000
,
00010000
00000010
00001000
00000001
00000100
00000010
00001000
00000000
,
00000100
00000010
00000001
00000100
00000010
00010000
00001000
01000000
,
00100000
10000000
01000000
00000000
00100000
00010000
01000000
00000000
00100000
10000000
01000000
00000000
00100000
00010000
01000000
00000000
,
00100000
10000000
01000000
00100000
00010000
01000000
00001000
00010000
,
00000100
00001000
00000001
00000100
00000010
00001000
00000100
00000000
,
00000010
00000001
00001000
00000010
00010000
00001000
01000000
00010000
,
00100000
00001000
00010000
00000000
00000010
00010000
00001000
00000000
00100000
00001000
00010000
00000000
00000010
00010000
00001000
00000000
,
00000000
00010000
00001000
01000000
00010000
10000000
00000000
01000000
,
00100000
00010000
01000000
00001000
00010000
00000100
00001000
00000001
,
00000000
00000100
00000010
00001000
00000100
00000010
00000000
00000110
,
00000000
00001001
00000000
00001001
00000000
00000110
00000000
00000001
,
00000100
00000010
00010000
00001000
01000000
00010000
00000000
10000000
,
01000000
00100000
01000000
10000000
00010000
01000000
00001000
00010000
,
00000000
00000010
00001000
00000001
00000000
00000100
00000010
00001000
,
00000000
00000000
00000100
00000000
00000010
00000000
00000001
00000000
00001000
00000001
00001000
00000001
00001000
00000001
00001000
00000001
,
00001000
00000000
00001010
00000000
00011000
00000000
01000000
00010000
,
00100000
01000000
10000000
00000000
10010000
00000000
10100000
00000000
,
10010000
00000000
10000000
01000000
00100000
00010000
01000000
00000000
,
01001000
00000000
00011000
00000000
00001000
00010000
00000100
00001000
,
00000001
00000100
00000010
00000000
00001000
00000100
00000010
00000001
,
00000100
00000010
00001000
00000000
00000001
00000010
00000100
00000000
,
00000110
00000000
00001100
00000000
00000001
00000100
00000010
00001000
,
00000100
00010000
00001000
01000000
00010000
00100000
10000000
00100000
,
00010000
01000000
00001000
00000000
00010000
00000010
00001000
00000001
,
00001000
00000100
00000001
00000100
00001000
00000010
00000100
00000001
,
00000010
00001000
00000010
00000000
00000001
00000100
00001000
00010000
,
00001000
01000000
00010000
00100000
10000000
00100000
00010000
01000000
,
00100000
10000000
01000000
00000000
00000000
10000000
00010000
10000000
,
00010000
10000000
00000000
00001000
00010000
00001000
00010000
00001000
,
00000000
00001000
00000001
00001000
00000000
00000010
00010000
00001000
,
00100000
00001000
00000000
00011000
00000000
01000100
00000000
00011000
,
00000000
00000000
00000000
00001000
01000000
00000000
00010000
00100000
,
00000000
00000000
01000000
00000000
10000000
00000000
00010000
00000000
00000000
00000000
01000000
00000000
00001000
00000000
00010000
00000100
,
00010000
00000100
00010000
00000100
00010000
00000100
00010000
00000100
00010000
00000000
00000000
00000000
00000010
00000000
00001000
00000000
,
00000000
00000000
00000001
00000000
00000100
00000000
00000010
00000000
00000000
00000000
00001000
00000000
00000100
00000000
00010000
00001000
,
00010000
00001000
00010000
00001000
00010000
00001000
00010000
00001000
00010000
00000000
00001000
00000000
01000000
00000000
00010000
00000000
,
00000000
10000000
01000000
00100000
00000000
01000000
10000000
00010000
,
01000000
00001000
00010000
00000010
00001000
00000001
00000100
00000010
,
00000000
00000000
00000110
00000000
00000000
00000000
00001001
00000000
00000000
00000000
00000001
00001000
00000001
00001000
00000001
00001000
,
00000001
00001000
00000001
00001000
00000001
00001000
00000001
00001000
00000010
00000000
00000100
00000000
00000010
00000000
00010000
00000000
,
00000000
00000000
00001000
00000000
01000000
00000000
00010000
00000000
00000000
00000000
10000000
00000000
01000000
00000000
00100000
00010000
,
00100000
00010000
00100000
00010000
00100000
00010000
00100000
00010000
00100000
00000000
00001000
00000000
00010000
00000000
00000010
00000000
,
00000000
00000000
00001000
00000000
00000001
00000000
00000100
00000000
00000000
00000000
00000010
00000000
00001000
00000000
00000100
00010000
,
00000100
00010000
00000100
00010000
00000100
00010000
00000100
00010000
00000100
00000000
00001000
00000000
00000100
00000000
00010000
00000000
,
00000000
00001000
01000000
00010000
00000000
10000000
01000000
00100000
,
00010000
01000000
00001000
00010000
00000000
00000010
00001000
00000001
,
00000100
00000010
00001000
00000100
00000000
00000010
00000001
00000100
,
00000000
00000010
00010000
00001000
00000000
00000100
00001000
00010000
,
00000000
01000000
00010000
00001000
00000000
00000100
00001000
00010000
,
00000000
01000000
00010000
00001000
00100000
00010000
01000000
00100000
,
10000000
00000000
01000000
00000000
00100000
00000000
00010000
00000000
01000000
00001000
01000000
00000000
00001000
00000000
00010000
00000000
,
00000100
00001000
00000100
00000000
00000010
00000000
00000000
00000000
00002002
00000000
00000000
00000000
00003003
00000000
00000001
00000100
,
00000001
00000000
00001000
00000000
00000000
00000000
00000010
00000000
00000000
00000000
00010000
00000000
00001000
00000000
00100000
00010000
,
00100000
00000000
01000000
00000000
20020000
00000000
00000000
00000000
30030000
00000000
10000000
00100000
10000000
00000000
00010000
00000000
,
00000000
01000000
00000000
00001000
00010000
00000100
00002200
00000000
,
00003300
00000000
00001000
00000010
00001000
00000000
00000001
00000000
00000000
00000000
00000100
00000000
00000000
00000000
00000010
00000000
,
00010000
00000000
00001000
00100000
00001000
00000000
10000000
00000000
20020000
00000000
00000000
00000000
30030000
00000000
10000000
00100000
,
10000000
01000000
00000000
00100000
00000000
00010000
01000000
00001000
,
00010000
00000010
00010000
00000010
00010000
00000000
00000000
00000000
00000001
00000000
00000010
00000000
00001000
00000000
00010000
00000000
,
00001000
00000010
00000001
00000100
00001000
00010000
01000000
10000000
,
00010000
00100000
10000000
00100000
00010000
00001000
00000100
00010000
,
01000000
00010000
00001000
00100000
00010000
00000000
00010000
01000000
,
01010000
00000000
00000000
00011000
00000000
00000000
00001100
00000000
00000001
00000000
00000010
00000000
00000100
00000000
00001000
00000000
,
00000010
00000100
00000001
00000000
00001000
00000100
00000010
00000100
,
00001000
00000001
00001000
00000010
00010000
00001000
01000000
00010000
,
10000000
00000000
01000000
00000000
00100000
00000000
01000000
00000000
10000000
00010000
10000000
00010000
10000000
00010000
10000000
00010000
,
01000000
01000000
01000000
01000000
00000000
00000000
00220000
00000000
,
00000000
00330000
00000000
00022000
00033000
00002020
00000000
00003030
,
00000000
00002002
00000000
00003003
00000000
00000220
00000000
00000000
,
00000000
00000330
00000000
00002002
00003003
00001000
00000100
00010000
,
00001000
01000000
00010000
00100000
01000000
10000000
00100000
01000000
,
00000000
00010000
10000000
01000000
00000000
00100000
00010000
01000000
,
00001000
00010000
00000010
00001000
00000001
00000010
00000100
00001000
,
00000000
00001001
00000000
00000110
00000000
00010000
00001000
01000000
,
00010000
10000000
00010000
10000000
00010000
10000000
00010000
10000000
00010000
00000000
10000000
00000000
01000000
00000000
00100000
00000000
,
01000000
00000000
10000000
00000000
00010000
00000000
01000000
00000000
00001000
00000000
00010000
00000000
00000010
00000000
00001000
00000001
,
00001000
00000001
00001000
00000001
00001000
00000001
00001000
00000001
00001000
00000000
00000010
00000000
00010000
00000000
00001000
00000000
,
01000000
00000000
00010000
00000000
10000000
00000000
00100000
00000000
10000000
00000000
00010000
00000000
01000000
00000000
00001000
00100000
,
00001000
00100000
00001000
00100000
00001000
00100000
00001000
00100000
00010000
00000000
01000000
00000000
00001000
00000000
00010000
00000000
,
00000010
00001000
00000001
00000100
00000010
00001000
00000100
00000010
,
00000001
00000100
00000010
00000110
00000000
00000001
00001000
00000010
,
00010000
00001000
01000000
01010000
00010000
00100000
01000000
10000000
,
00100000
01000000
00010000
10000000
00000000
01000000
00010000
00001000
,
00000000
00000100
00001000
00010000
00000000
01000000
00010000
00001000
,
00000000
00000100
00001000
00010000
00001000
00010000
00000010
00001000
,
00000001
00000010
00000100
00001000
00000001
00000100
00000010
00001000
,
00010000
01000000
10000000
00000000
01000000
00010000
10000000
01000000
,
00000000
00100000
00010000
01000000
00000000
00001000
00010000
00000010
,
00001000
00000001
00000010
00000100
00001000
00000001
00000100
00001000
,
00000100
00000000
00000001
00000000
00001000
00000000
00000100
00000000
00010000
00001000
00010000
00001000
00100000
00010000
00100000
00010000
,
10000000
00010000
10000000
00010000
01000000
00010000
02000000
00000000
00000000
00000000
00000000
00000000
00000000
00000000
00000000
00000000
,
03000000
00000000
00000000
00000000
;

//--------------- dance-double - FINAL BOSS forcednature ----------------
#NOTES:
     dance-double:
     FINAL BOSS forcednature:
     Challenge:
     12:
     0,0,0,0,0:
00000000
00000000
00000000
00000000
,
00000000
00000000
00000000
00000000
,
00001000
00010000
00000200
00000000
00010300
00001000
02000000
00000000
,
03001000
00000000
00010000
00000000
00000010
00000000
00000100
00000000
00000001
00001000
00000001
00001000
00000001
00000000
00000000
00000000
,
00001000
00000010
00000100
00001000
00010000
01000000
10000000
00010000
,
01000000
00000000
00100000
00000000
00010000
00000000
00001000
00000000
00000010
00000000
00000001
00000100
00000001
00000000
00001000
00000000
,
00000100
00010000
01000000
00100000
00010000
01000000
00100000
10000000
,
01000000
10000000
01000000
00000000
00100000
00010000
00100000
00000000
00010000
01000000
00010000
00000000
10000000
00100000
10000000
00000000
,
00100000
01000000
00010000
00000100
00001000
00010000
00000100
00000010
,
00000001
00000000
00000100
00000000
00001000
00000000
00010000
00000000
01000000
00000000
10000000
01000000
10000000
00000000
00010000
00000000
,
00100000
00000000
00010000
00000000
00001000
00000000
00000100
00000000
00010000
00000000
00001000
00000000
00100000
01000000
00100000
00000000
,
10000000
00100000
01000000
00000000
00010000
01000000
00100000
00000000
10000000
01000000
00100000
00000000
00001000
00010000
00001000
00010000
,
00000100
00000010
00000001
00000100
00000010
00001000
00000000
00100000
,
10000000
00000000
01000000
00000000
00010000
00000000
00001000
00000000
00010000
00000000
00100000
01000000
00100000
00000000
10000000
00000000
,
00000000
00100000
00010000
00001000
00000100
00000001
00000000
00001001
,
00000000
00000000
00011000
00000000
00000000
00000000
10010000
00000000
00000000
00000000
00011000
00000000
00000000
00000000
10000000
01000000
,
10000000
00010000
00100000
00001000
00000010
00000001
00000000
00001000
,
00000100
00000000
00010000
00000000
01000000
00000000
10000000
00000000
00010000
00000000
01000000
00100000
01000000
00000000
00001000
00000000
,
00000000
00010000
00011000
00001000
00000000
00010000
00011000
00001000
,
00000000
00000000
00010000
00000000
00011000
00000000
00001000
00000000
00010000
00000100
00010000
00001000
01000000
00010000
00100000
01000000
,
10000000
00000000
11000000
00000000
00110000
00000000
10000000
01000000
,
00100000
00000000
00001000
00010000
00001000
00000000
00000000
00000000
00110000
00000000
00000000
00000000
00011000
00000000
00000000
00000000
,
00001100
00000000
00000000
00000000
00000001
00000000
00000010
00000000
00000100
00010000
00001000
00010000
00000100
00000000
00010000
00000000
,
00011000
00000000
10100000
00000000
01010000
00010000
00100000
00001000
,
01000000
00000000
00100000
10000000
00100000
00000000
00000000
00000000
10000000
00000000
01000000
00000000
00100000
00000000
00001000
00000000
,
00010000
00000000
00000100
00000010
00000100
00000000
00000000
00000000
00010000
00000000
00001000
01000000
00001000
00000000
00100000
10000000
,
00100000
10000000
00100000
10000000
00100000
00000000
00000000
00000000
10000000
00000000
01000000
00000000
00010000
00000000
01000000
00000000
,
10000000
00010000
00100000
00001000
00010000
00000010
00001000
00000010
,
00000001
00000010
00001000
00000000
00000001
00000100
00001000
00000100
,
00000010
00010000
00001000
00100000
00010000
00100000
10000000
00100000
,
00010000
00000000
01000000
00001000
01000000
00000000
00100000
00000000
00010000
00000000
00000000
00000000
00001000
00000000
00000010
00000000
,
00000001
00000100
00010000
01000000
00000000
00001000
00010000
00001000
,
00000010
00000001
00001000
00000000
00000000
00000001
00000100
00010000
,
01000000
10000000
00000000
10000000
01000000
00001000
00000100
00000001
,
00000000
00000000
00000010
00000000
00010000
00000000
00100000
00000000
00000000
00000000
00010000
00000000
10000000
00000000
00100000
01000000
,
00100000
00000000
10000000
00000000
00001000
00010000
00001000
00000000
00000000
00000000
00011000
00000000
00000000
00000000
01000100
00000000
,
00000000
00000000
00000000
10000000
01000000
00100000
00001000
00010000
,
00000100
00000000
00001000
00000000
01000000
00000000
00100000
00000000
00010000
00000000
01000000
00000000
00100000
00000000
10000000
00010000
,
00100000
00001000
00010000
00000010
00000100
00000010
00001000
00000100
00010000
00000000
00001000
00000000
00100000
00000000
01000000
00000000
,
10000000
00000000
00100000
00000000
00010000
00000000
00001000
00000000
00000100
00000000
00000001
00000000
00001000
00000000
00000001
00000010
,
00000100
00001000
00000010
00000100
00000001
00000010
00000100
00001000
00000010
00000000
00001000
00000000
00000100
00000000
00010000
00000000
,
01000000
00100000
00010000
01000000
00100000
00010000
00001000
00000100
,
00000010
00000000
00001000
00000000
00000001
00000000
00001000
00000100
00001000
00000000
00000010
00000000
00010000
00000000
00100000
00000000
,
00000000
10010000
10010000
10010000
00000000
10000000
00010000
01000000
,
00001000
00010000
00000010
00001000
00000100
00010000
00001000
00100000
00010000
00000000
01000000
00000000
10000000
00000000
01000000
00000000
,
00010000
00000000
00001000
00000000
00000010
00000000
00000001
00000000
00000010
00000000
00001000
00000000
00000100
00000000
00010000
00001000
,
00100000
00010000
10000000
01000000
00100000
00010000
00100000
01000000
10000000
00000000
00100000
00000000
01000000
00000000
00001000
00000000
,
00010000
00000000
00000100
00000000
00000010
00000000
00000100
00000000
00010000
00000000
00000010
00000000
00000100
00000000
00000001
00000010
,
00000100
00001000
00000001
00001000
00000001
00000010
00000100
00001000
00000001
00000000
00000100
00000000
00000010
00000000
00010000
00000000
,
00100000
01000000
00010000
00100000
10000000
00100000
01000000
10000000
,
00010000
01000000
00001000
00000100
00000010
00001000
00000100
00000010
,
00000001
00000000
00000100
00000000
00000010
00000000
00001001
00000000
00000000
00000000
00010000
00001000
00010000
00000000
00011000
00000000
,
10000000
00000000
00010000
00100000
01000000
00000000
10000000
00000000
00000000
00000000
10000000
00000000
00010000
00000000
00001000
00000000
,
00000000
00010000
00001000
00000001
00000000
00000001
00001000
00010000
,
00000000
00001000
00010000
10000000
10000000
01000000
00100000
10000000
,
00100000
00000000
00010000
00000000
01000000
00000000
00001000
00000000
00010000
00000100
00010000
00000000
00000010
00000000
00000100
00000000
,
00000001
00000010
00000001
00000000
00000100
00000000
00000000
00000000
00020200
00000000
00000000
00000000
00030300
00000000
01000000
00001000
,
01000000
00000000
00100000
00000000
00000000
00000000
10000000
00000000
00000000
00000000
01000000
00000000
00100000
00000000
00001000
00010000
,
00001000
00000000
00000010
00000000
00002002
00000000
00000000
00000000
00003003
00000000
00000001
00000010
00000100
00000000
00010000
00000000
,
00000000
00000000
00001000
00000000
00000000
00000000
01000000
00000000
00100000
00000000
10000000
01000000
00200000
00000000
00000000
00000000
,
00300000
00000000
00001000
01000000
00100000
00000000
10000000
00000000
00000000
00000000
01000000
00000000
00000000
00000000
00100000
00000000
,
00010000
00000000
01000000
00001000
01000000
00000000
00010000
00000000
00022000
00000000
00000000
00000000
00033000
00000000
00000001
00000100
,
00000001
00000000
00000010
00000000
00000000
00000000
00001000
00000000
00000000
00000000
00010000
00000000
00100000
01000000
00100000
00000000
,
10000000
00000000
00010000
00100000
00001000
00010000
00000100
00001000
00000010
00000000
00000100
00000001
00000010
00000100
00001000
00000000
,
00000010
00000000
00010000
00001000
01000000
00100000
10000000
00000000
00010000
00000000
10000000
01000000
00100000
00001000
00010000
00000000
,
00000100
00000000
00000010
00000001
00000010
00000100
00001000
00000001
00000100
00000010
00010000
00001000
01000000
00010000
10000000
01000000
,
00100000
00010000
01000000
00100000
10000000
00010000
00100000
00001000
00010000
00000000
00000100
00000010
00000100
00000000
00010000
00000000
,
00011000
00000000
00000000
01100000
00000000
00000000
10000000
00010000
10000000
00000000
01000000
00000000
00100000
00000000
00001000
00000000
,
00010000
00000000
00000100
00001000
00000100
00000000
00000010
00000000
00000000
00000000
00000001
00000100
00000001
00000000
00000010
00000000
,
00000100
00010000
00001000
01000000
00100000
10000000
01000000
00100000
00010000
01000000
00001000
00010000
00001000
00010000
00000100
00000010
,
00000100
00001000
00000001
00000100
00000001
00001000
00000010
00010000
00001000
00100000
01000000
10000000
00100000
01000000
00010000
01000000
,
00001000
00010000
00000100
00001000
00000001
00000000
00000010
00000000
00000100
00000000
00000000
00000000
00011000
00000000
00010000
00000000
,
00000000
00100000
00000000
01100000
00000000
10010000
00000000
00100000
,
00001000
00000000
00011000
00000000
00000000
00000000
00000001
00000100
00000010
00000000
00001010
00000000
00001000
00000000
00000100
00000000
,
00000000
00000000
01000000
00000000
00000000
00000000
00010000
10000000
00010000
00000000
01010000
00000000
10000000
00000000
11000000
00000000
,
00000000
00000000
00010000
00100000
00001000
00100000
00010000
00100000
00001000
00000000
00010000
00000000
00000100
00000000
00000010
00000000
,
00000001
00000100
00000010
00010000
00100000
10000000
01000000
00100000
,
00010000
00000000
01000000
00000000
00001000
00000000
00010000
00000100
00010000
00000000
00010100
00000000
00011000
00000000
01001000
00000000
,
00000000
10010000
00000000
00011000
00000000
00000100
00001000
00000010
,
00000100
00000001
00000010
00000100
00001000
00000010
00010000
00001000
00100000
00000000
01000000
00000000
10000000
00000000
00010000
00000000
,
01000000
00000000
00010000
00000000
00001000
00000000
00000010
00000000
00000100
00000000
00000001
00000000
00000010
00000000
00000100
00010000
,
00001000
01000000
00010000
00100000
01000000
10000000
00010000
01000000
00001000
00000000
00010000
00000000
00100000
00000000
10000000
00000000
,
01000000
00000000
00100000
00000000
10000000
00000000
00100000
00000000
00010000
00000000
01000000
00000000
00001000
00000000
00100000
01000000
,
10000000
00010000
01000000
00001000
00010000
00000100
00001000
00000001
00000010
00000000
00000100
00000000
00010000
00000000
00001000
00000000
,
00100000
01000000
10000000
00010000
01000000
00001000
00000100
00000010
,
00001000
00000001
00000010
00000100
00010000
01000000
00100000
00010000
,
10000000
00100000
01000000
00001000
00010000
00000100
00000010
00000100
,
00010000
00000000
00001000
01000000
00010000
00000000
00100000
00000000
00000000
00000000
01000000
00000000
00010000
00000000
00000010
00000000
,
00000000
00000100
00001000
00100000
00000000
00000010
00010000
01000000
,
00000000
00000000
00100000
00000000
00001000
00000000
00000100
00000000
00000001
00000000
00001000
00000000
00000010
00000000
00010000
00001000
,
00100000
00000000
01000000
00000000
10000000
00000000
00010000
00000000
01000000
00001000
01000000
00000000
00010000
00000000
00100000
00000000
,
00001000
00010000
00001000
00010000
00000010
00000000
00000000
00000000
00000100
00000000
00000001
00000000
00000010
00000000
00001000
00000000
,
00010000
01000000
10000000
00010000
01000000
00100000
00010000
00001000
,
00000100
00000000
00000001
00000010
00000001
00000000
00001000
00000000
00000100
00000000
00010000
00000000
01000000
00000000
10000000
00000000
,
00010000
00000000
01000000
00000000
00001000
00000000
00000100
00000000
00000001
00000010
00000100
00001000
00000100
00010000
00001000
00100000
,
01000000
10000000
00010000
01000000
00001000
00100000
00002000
00000000
00000000
00000000
00000000
00000000
00000000
00000000
00000000
00000000
,
00003000
00000000
00000000
00000000
;
