#TITLE:Carol of the Cartels;
#SUBTITLE:;
#ARTIST:Bossfight;
#TITLETRANSLIT:;
#SUBTITLETRANSLIT:;
#ARTISTTRANSLIT:;
#GENRE:;
#CREDIT:;
#BANNER:Carol of the Cartels.png;
#BACKGROUND:Carol of the Cartels-bg.png;
#LYRICSPATH:;
#CDTITLE:;
#MUSIC:Carol of the Cartels.ogg;
#OFFSET:0.000000;
#SAMPLESTART:16.529821;
#SAMPLELENGTH:11.033215;
#SELECTABLE:YES;
#BPMS:0.000000=174.020004
;
#STOPS:
;
#BGCHANGES:;
#KEYSOUNDS:;
#ATTACKS:;

//---------------dance-single - ----------------
#NOTES:
     dance-single:
     :
     Hard:
     9:
     0.539044,0.816201,0.283403,0.218625,0.032389,466.000000,431.000000,35.000000,27.000000,0.000000,0.000000,0.539044,0.816201,0.283403,0.218625,0.032389,466.000000,431.000000,35.000000,27.000000,0.000000,0.000000:
0000
0000
0000
0000
,
0000
0000
0000
0000
,
0000
0000
0000
0000
,
0000
0000
0000
0000
,
0000
0000
0000
0000
,
0000
0000
0000
0000
,
1000
0001
0020
0031
,
1000
0020
1030
0001
,
0200
0301
1000
0200
,
1300
0010
2000
3010
,
1000
0000
0002
0003
1001
0001
0100
0010
,
1000
0000
1001
1000
0010
0100
0001
0000
,
1100
0000
0010
0001
0100
0000
1010
0000
,
0010
0100
0001
0000
0001
0010
0001
1000
,
0010
0000
1000
0010
1000
0001
0100
0000
,
1010
0000
0010
0100
0001
0000
0011
0000
,
0010
0100
1000
0000
0100
0010
0001
0100
,
0010
0000
0100
0010
1000
0100
0010
0000
,
0110
0000
0100
1000
0010
0000
0110
0000
,
0100
0001
0010
0000
0001
0010
0100
1000
,
0001
0000
1000
0100
0010
0001
1000
0000
,
0101
0000
0001
1000
0010
0000
0110
0000
,
0100
0010
1000
0000
0100
0010
0001
1000
,
0010
0000
0100
0010
1000
0001
0010
0000
,
0001
1000
1000
0100
,
1000
1000
0010
1000
,
1000
0001
0100
0010
,
1000
0010
0010
0100
,
0001
0001
0010
0100
,
0100
0000
0010
0001
1000
0010
0200
0000
,
0301
0000
1000
1000
0001
0010
0100
0000
,
0010
0010
0100
1000
0001
0000
0100
0100
,
0001
0010
0001
0000
1000
0001
0010
0000
,
0001
0100
1000
0100
0001
0010
0100
1000
,
0002
0000
2003
0000
3001
0100
1000
0100
,
0001
0010
0100
1000
0002
0000
2003
0000
,
3001
0000
0100
0001
0100
0000
0010
0000
,
1000
0010
1000
0000
1001
0000
0000
0000
,
0010
0000
0100
0001
0100
0000
0001
0000
,
0010
0100
0010
0000
1100
0000
0000
0000
,
0100
0000
0010
0001
0010
0000
0001
0000
,
1000
0010
1000
0000
1001
0000
0000
0000
,
0110
0000
1001
1001
1001
0000
0110
0000
,
1001
1001
1001
0000
2010
0000
3002
0000
,
0013
0001
0100
0000
0010
1000
0100
0000
,
0010
0001
1000
0000
0001
0100
0010
0000
,
1000
0010
0100
0000
0010
1000
0100
0000
,
0010
0100
1000
0000
0100
0010
0001
0000
,
1000
0001
0010
0001
1000
0001
1000
0010
,
1000
0001
0100
0001
1000
0001
0010
0001
,
1000
0001
1000
0001
1000
0001
1000
0001
1000
0001
1000
0001
1000
0001
1000
0001
,
0000
0000
0000
0000
,
0110
0000
0000
0100
0001
0000
0010
0000
,
0100
0010
0001
1010
,
0110
0000
0000
0100
0010
0000
1000
0000
,
0001
0000
0010
0000
0100
0010
0001
0000
,
1001
0000
0000
0001
0010
0000
0001
0000
,
0100
0001
1000
0100
,
0020
0000
0031
0100
2000
0000
3200
0000
,
0310
1000
0001
0010
0100
1000
0020
0000
,
0130
0000
0001
0010
0100
0000
0100
0010
,
0001
0001
1000
0000
0010
0000
0200
0000
,
0301
0000
0000
0010
0001
1000
0010
1000
,
0100
0010
0100
0000
0010
0001
1000
0010
,
1000
0000
0001
0010
0001
0000
1000
0010
,
1000
0100
0010
0100
1000
0001
0100
0000
,
0020
0000
1030
0010
0002
0000
0023
0000
,
0130
0001
0010
0000
1200
0000
0000
0000
,
0310
0000
0001
0100
0010
0000
0100
0000
,
0001
0100
0001
1010
,
0101
0000
0001
0010
0100
0000
0010
0000
,
0100
0000
0100
0000
0010
0100
1000
0000
,
1001
0000
0001
1000
0010
0100
0010
0000
,
0100
0001
1000
0000
0100
1000
0001
0001
,
0200
0000
0310
0010
1000
0001
0010
0000
,
0100
0000
0100
0010
0001
0000
0010
0000
,
1001
0000
0001
1000
0010
0100
0001
0010
,
0100
0010
0001
0000
1010
0000
0000
0000
,
0101
0000
0001
0000
0010
0001
1000
0010
,
1000
0001
0010
0000
0110
0000
0000
0000
,
1001
0000
0001
1000
0010
0000
0010
1000
,
0001
0010
0100
0010
0001
1000
0010
0000
,
0200
0000
1300
0001
0020
0000
0230
0000
,
0310
0001
1000
0100
0001
0100
2000
0000
,
3001
0000
0000
0000
;

//---------------dance-single - ----------------
#NOTES:
     dance-single:
     :
     Medium:
     7:
     0.440721,0.544134,0.202431,0.008097,0.000000,381.000000,356.000000,25.000000,1.000000,0.000000,0.000000,0.440721,0.544134,0.202431,0.008097,0.000000,381.000000,356.000000,25.000000,1.000000,0.000000,0.000000:
0000
0000
0000
0000
,
0000
0000
0000
0000
,
0000
0000
0000
0000
,
0000
0000
0000
0000
,
0000
0000
0000
0000
,
0000
0000
0000
0000
,
1000
0100
0100
1000
,
0010
0010
0100
0001
,
0001
0010
0100
0100
,
0010
0001
0001
1000
,
0010
0000
0010
0000
0110
0100
0000
0000
,
0000
0000
1001
0000
0001
1000
0010
0000
,
1000
0000
0010
1000
0010
0000
0100
0000
,
0001
0100
0001
0000
0010
0000
0100
1000
,
0100
0000
1000
0000
0001
0100
0001
0000
,
0100
0000
0010
1000
0010
0000
0100
0000
,
0001
1000
0001
0000
1000
0000
0100
0010
,
0001
0000
0010
0000
0100
1000
0010
0000
,
0100
0000
0001
0100
0001
0000
0100
0000
,
0010
1000
0010
0000
1000
0000
0001
0010
,
0001
0000
1000
0000
0010
0100
0010
0000
,
1000
0000
0001
0010
0001
0000
0100
0000
,
0010
1000
0010
0000
0100
0000
0001
1000
,
0001
0000
0010
0000
0001
1000
0001
0000
,
0100
0001
0001
0010
,
0100
0100
0010
0100
,
0100
0000
1000
0000
0100
0010
0001
0000
,
0010
0001
0001
1000
,
0100
0100
1000
0010
,
0010
0000
0100
0010
1000
0001
0010
0000
,
0100
0010
0010
0001
,
1000
1000
0001
0100
,
0100
0001
1000
0001
,
1000
0100
0010
0001
0010
0100
1000
0001
,
1000
0000
0001
0000
1000
0100
0010
0001
,
0010
0100
1000
0001
1000
0000
0001
0000
,
0100
0000
0001
0100
0001
0000
0100
0000
,
0001
0100
0001
0000
0101
0000
0000
0000
,
1000
0000
0010
1000
0010
0000
1000
0000
,
0010
1000
0010
0000
1010
0000
0000
0000
,
1000
0000
0001
1000
0001
0000
1000
0000
,
0001
1000
0001
0000
1001
0000
0000
0000
,
0101
0000
0001
0100
1000
0000
1100
0000
,
1000
0100
0001
0000
0101
0000
1010
0000
,
1001
1000
0100
0000
0000
0010
0001
0000
,
0000
0010
0100
0000
0000
0100
1000
0000
,
0000
1000
0001
0000
0000
0100
0010
0000
,
0000
1000
0010
0000
0000
0100
0001
0100
,
0010
0010
1000
1000
,
0001
0001
0100
0100
,
0010
0100
0001
1000
0010
0100
0001
1000
,
0000
0000
0000
0000
,
0110
0000
0001
1000
,
0100
1000
0001
0101
,
1010
0000
1000
0010
,
0100
0001
1000
0100
,
1100
0000
0010
0001
,
0100
0001
1000
0001
,
0100
0000
0010
1000
0100
0000
0001
0000
,
0100
0010
0001
0000
0010
0100
1000
0000
,
1001
0000
0001
0100
,
0010
1000
0010
0100
,
1001
0000
0001
0010
,
0001
1000
0100
1000
,
1001
0000
0001
0100
,
0010
1000
0010
0100
,
1001
0000
0001
0100
1000
0000
1100
0000
,
1000
0100
0010
0000
0200
0000
0000
0000
,
0301
0000
1000
0010
0100
0000
0010
0000
,
1000
0001
0010
0100
,
0011
0000
0001
0010
0100
0000
0010
0000
,
0001
1000
0010
0100
,
0110
0000
0010
0100
0001
0000
1000
0000
,
0001
0000
1000
0010
1000
0000
0010
0000
,
0000
0000
0010
0100
0100
0010
1000
0000
,
0001
0000
1000
1000
0001
1000
0001
0000
,
1001
0000
0001
0100
0010
0000
1000
0000
,
0010
0100
0101
0000
,
0001
0000
1000
0100
0010
0000
0100
0000
,
1000
0010
0110
0000
,
0100
0000
0010
1000
0001
0000
0100
0000
,
0010
1000
0010
0000
,
0100
0000
0010
1000
0001
0000
0010
0000
,
0100
0010
0001
0100
1000
0100
0010
0000
,
1001
0000
0000
0000
;

//---------------dance-single - ----------------
#NOTES:
     dance-single:
     :
     Easy:
     5:
     0.300754,0.510126,0.113361,0.008097,0.000000,260.000000,246.000000,14.000000,1.000000,0.000000,0.000000,0.300754,0.510126,0.113361,0.008097,0.000000,260.000000,246.000000,14.000000,1.000000,0.000000,0.000000:
0000
0000
0000
0000
,
0000
0000
0000
0000
,
0000
0000
0000
0000
,
0000
0000
0000
0000
,
0000
0000
0000
0000
,
0000
0000
0000
0000
,
1001
0000
0000
0001
,
0000
0000
1000
0000
,
0000
0010
0000
0000
,
0100
0000
0000
0010
,
0000
0000
1001
0000
,
0000
0110
0000
0000
,
1000
0010
1000
0100
,
0000
0000
0010
0001
,
0010
0100
0000
0000
,
0010
0001
1000
0010
,
0000
0000
0100
1000
,
0100
0001
0100
1000
,
0100
0000
0000
0010
0000
0000
1001
0000
,
0000
0000
0000
0001
0100
0001
1000
0000
,
0001
1001
0000
0000
,
1000
0000
0000
0010
0000
0000
0101
0000
,
0000
0000
0001
0010
,
1000
0010
0001
1000
,
0010
0000
0000
1000
,
0000
0000
0001
0000
,
0000
0010
0000
0000
,
0001
0000
0000
1000
,
0000
0000
0100
0000
,
0000
1000
0001
0100
,
0110
0010
1000
0010
,
0100
0001
0100
0010
,
1000
0001
0100
0001
,
1000
0010
1000
0010
1000
0010
1000
0010
,
1000
0000
0010
0000
0100
0001
0100
0001
,
0100
0001
0100
0001
0100
0000
0001
0000
,
1000
0000
0001
1000
0001
0000
1000
0000
,
0001
1000
0001
0000
1000
0000
0000
0000
,
0010
0000
0100
0010
0100
0000
0010
0000
,
0100
0010
0100
0000
0010
0000
0000
0000
,
1000
0000
0010
1000
0010
0000
1000
0000
,
0010
1000
0010
0000
1000
0000
0000
0000
,
0010
0000
0100
0010
1000
0000
1000
0000
,
1000
0010
0100
0000
0110
0000
1001
0000
,
0001
1000
0000
1000
,
0000
0001
0000
0001
,
0000
0100
0000
0100
,
0000
0010
0000
0010
,
1000
1000
0010
0010
,
0100
0100
0001
0001
,
0100
0010
1000
0001
,
0000
0000
0000
0000
,
0110
0000
1000
0000
,
0001
0000
0010
0001
,
0100
0000
0010
0000
,
1000
0000
0100
1000
,
0001
0000
0100
0000
,
1000
0000
0100
0000
,
0010
1000
0001
0010
,
0001
0000
1000
0000
0100
1000
0010
0000
,
0100
0000
0010
0000
,
1000
0001
0010
0000
,
0001
0000
0100
0000
,
0010
0010
1000
0000
,
0001
0000
1000
0000
,
0100
0010
0001
0000
,
0010
0001
0100
0010
,
1000
0100
0020
0000
,
0130
0000
1000
0000
,
0001
1000
0010
1000
,
0001
0000
0100
0000
,
0010
0010
0010
0100
,
0001
0000
1000
0000
,
0001
0010
0001
0000
,
0010
0001
0010
1000
,
0010
0001
0100
0010
,
1000
0001
0100
0010
,
1000
0100
0110
0000
,
0010
0100
1000
0001
,
0100
0010
1010
0000
,
1000
0001
0100
0001
,
1000
0100
0110
0000
,
0100
1000
0010
0100
,
0001
0000
1000
0100
0010
0001
1000
0000
,
0110
0000
0000
0000
;

//---------------dance-single - ----------------
#NOTES:
     dance-single:
     :
     Beginner:
     3:
     0.139966,0.238059,0.137653,0.000000,0.000000,121.000000,104.000000,17.000000,0.000000,0.000000,0.000000,0.139966,0.238059,0.137653,0.000000,0.000000,121.000000,104.000000,17.000000,0.000000,0.000000,0.000000:
// measure 0
0000
0000
0000
0000
,  // measure 1
0000
0000
0000
0000
,  // measure 2
0000
0000
0000
0000
,  // measure 3
0000
0000
0000
0000
,  // measure 4
0000
0000
0000
0000
,  // measure 5
0000
0000
0000
0000
,  // measure 6
1000
0000
0000
0000
,  // measure 7
0000
0000
0000
0000
,  // measure 8
0000
0000
0000
0000
,  // measure 9
0000
0000
0000
0000
,  // measure 10
0000
0000
0110
0000
,  // measure 11
0000
0110
0000
0000
,  // measure 12
1001
0000
0000
0001
,  // measure 13
0000
0000
1000
0000
,  // measure 14
0000
0010
0000
0000
,  // measure 15
1000
0000
0000
0100
,  // measure 16
0000
0000
1000
1000
,  // measure 17
1000
0001
0001
0001
,  // measure 18
1000
0000
0000
0010
,  // measure 19
0000
0000
0100
0000
,  // measure 20
0000
0010
0000
0000
,  // measure 21
1000
0000
0000
0001
,  // measure 22
0000
0000
0010
0000
,  // measure 23
0000
0100
0000
0000
,  // measure 24
1001
0000
0000
0000
,  // measure 25
0000
0000
0000
0000
,  // measure 26
0000
0000
0000
0000
,  // measure 27
0000
0000
0000
0000
,  // measure 28
0000
0000
0000
0000
,  // measure 29
0000
0000
0000
0000
,  // measure 30
0010
0000
0000
1000
,  // measure 31
0000
0000
0100
0000
,  // measure 32
0000
1000
0000
0000
,  // measure 33
0010
0000
0000
0000
,  // measure 34
0000
0000
0010
0000
,  // measure 35
0000
0000
0000
0000
,  // measure 36
1001
0000
0000
0000
,  // measure 37
0000
0000
0010
0000
,  // measure 38
1001
0000
0000
0000
,  // measure 39
0000
0000
0100
0000
,  // measure 40
1001
0000
0000
0000
,  // measure 41
0000
0000
0010
0000
,  // measure 42
1001
0000
0000
0110
,  // measure 43
0000
0000
0100
0100
,  // measure 44
0010
0000
0000
0000
,  // measure 45
1000
0000
0000
0000
,  // measure 46
0001
0000
0000
0000
,  // measure 47
0010
0000
0000
0000
,  // measure 48
0001
0000
0000
0000
,  // measure 49
1000
0000
0000
0000
,  // measure 50
0010
0000
0100
0000
,  // measure 51
0000
0000
0000
0000
,  // measure 52
1001
0000
0001
0000
,  // measure 53
0001
0000
0000
0000
,  // measure 54
1001
0000
1000
0000
,  // measure 55
1000
0000
0000
0000
,  // measure 56
0110
0000
0010
0000
,  // measure 57
0010
0000
0000
0000
,  // measure 58
0100
0000
0000
0010
,  // measure 59
0000
0000
1000
0000
,  // measure 60
0001
0000
0000
0000
,  // measure 61
1000
0000
0000
0000
,  // measure 62
0010
0000
0000
0000
,  // measure 63
1000
0000
0000
0000
,  // measure 64
0100
0000
0000
0000
,  // measure 65
1000
0000
0000
0000
,  // measure 66
0001
0000
0000
1000
,  // measure 67
0000
0000
0010
0000
,  // measure 68
1001
0000
0001
0000
,  // measure 69
1000
0000
0001
0000
,  // measure 70
0100
0000
0010
0000
,  // measure 71
0100
0100
0100
0000
,  // measure 72
0010
0000
1000
0000
,  // measure 73
0001
0001
0001
0000
,  // measure 74
1001
0000
0000
0000
,  // measure 75
0010
0000
0000
0000
,  // measure 76
0100
0000
0010
0000
,  // measure 77
1000
1000
1000
0000
,  // measure 78
0001
0000
1000
0000
,  // measure 79
0010
0010
0010
0000
,  // measure 80
0100
0000
0010
0000
,  // measure 81
1000
1000
1000
0000
,  // measure 82
1001
0000
0000
0110
,  // measure 83
0000
0000
0100
0000
,  // measure 84
1001
0000
0000
0000
;
