#TITLE:fallen leaves;
#SUBTITLE:;
#ARTIST:猫叉Master;
#TITLETRANSLIT:;
#SUBTITLETRANSLIT:;
#ARTISTTRANSLIT:Nekomata Master;
#GENRE:World Electronica;
#CREDIT:;
#BANNER:[VIP2 Full Flavor] - fallen leaves.png;
#BACKGROUND:[VIP2 Full Flavor] - fallen leaves-bg.png;
#LYRICSPATH:;
#CDTITLE:cdtitle.png;
#MUSIC:[VIP2 Full Flavor] - fallen leaves.ogg;
#OFFSET:-0.915193;
#SAMPLESTART:35.824284;
#SAMPLELENGTH:11.616360;
#SELECTABLE:YES;
#BPMS:0.000000=165.000000
,192.000000=82.500000
,194.000000=165.000000
;
#STOPS:
;
#BGCHANGES:;
#KEYSOUNDS:;
#ATTACKS:;

//---------------dance-single - ----------------
#NOTES:
     dance-single:
     11-16 ROLL:
     Challenge:
     11:
     0.753113,0.906793,0.396511,0.198255,0.802033,585.000000,541.000000,44.000000,22.000000,0.000000,0.000000,0.753113,0.906793,0.396511,0.198255,0.802033,585.000000,541.000000,44.000000,22.000000,0.000000,0.000000:
// measure 0
0000
0000
0000
0000
,  // measure 1
0000
0000
0000
0000
,  // measure 2
0000
0000
0000
0000
,  // measure 3
0000
0000
0000
0000
,  // measure 4
0000
0000
0000
0000
,  // measure 5
0000
0000
0000
0000
,  // measure 6
0000
0000
0000
0000
,  // measure 7
0000
0000
0000
0000
,  // measure 8
0001
0000
0010
0001
1000
0000
0001
1000
,  // measure 9
0010
0000
1000
0001
0100
0001
1000
0000
,  // measure 10
0100
0000
0010
0100
1000
0000
0010
0100
,  // measure 11
0001
0000
0010
0100
1000
0001
0100
0000
,  // measure 12
0110
0000
0010
0000
0010
0000
0010
0100
,  // measure 13
1010
0000
0000
0000
0010
0000
0000
0000
0010
0000
0000
0010
1000
0000
0100
0000
,  // measure 14
0110
0000
0000
0000
0010
0000
0000
0000
0010
0000
0000
0100
0010
0000
0100
0000
,  // measure 15
0012
0000
0000
0000
0000
0000
0000
0000
0003
0000
0000
0010
0001
0000
0110
0000
,  // measure 16
1001
0000
0000
1000
0100
0000
0010
0000
0001
0000
0000
0001
0100
0000
0000
0100
,  // measure 17
0010
0000
0000
0010
0100
0000
0000
0100
1000
0000
0000
1000
0100
0000
0010
0100
,  // measure 18
0001
0000
0000
0001
0010
0000
0100
0000
1000
0000
0000
1000
0010
0000
0000
0010
,  // measure 19
0100
0000
0000
0100
0001
0000
0010
0000
1000
0000
0000
1000
0010
0000
0000
0010
,  // measure 20
0001
0000
0100
0001
0100
0001
1000
0000
0100
1000
0100
0000
1000
0010
1000
0010
,  // measure 21
1000
0000
0100
1000
0100
1000
0001
0000
0100
0001
0010
0000
0001
0010
0001
0010
,  // measure 22
0001
0000
1000
0010
0100
0010
1000
0000
0001
1000
0001
0000
0010
0001
0100
0001
,  // measure 23
0010
0000
0001
1000
0010
0000
0100
0000
0001
0010
0001
0010
0100
1000
0010
0100
,  // measure 24
0002
0000
0000
0000
0103
0000
0002
0000
0010
0000
0000
0013
0001
0000
1000
0010
,  // measure 25
2000
0000
0000
0000
3100
0000
1000
0000
0010
0000
1000
0000
0001
0010
0001
0000
,  // measure 26
2000
0000
0000
0000
3010
0000
0200
0000
0001
0000
0000
0301
0100
0000
0010
0000
,  // measure 27
4000
0000
0400
0000
0000
0000
0000
0300
0000
3000
0000
0000
0001
0000
0000
0000
1000
0000
0000
0000
0010
0000
0000
0000
0100
0000
0000
0000
0001
0000
0000
0000
,  // measure 28
2000
0000
0000
0000
3100
0000
2000
0000
0010
0000
0000
3010
1000
0000
0001
0010
,  // measure 29
0002
0000
0000
0000
0103
0000
0001
0000
0010
0000
0001
0000
1000
0010
1000
0000
,  // measure 30
0002
0000
0000
0000
0013
0000
0200
0000
1000
0000
0000
1300
0100
0000
0010
0001
,  // measure 31
0100
0010
1000
0000
0100
0000
0010
0000
0001
0000
1000
0010
0100
0001
0100
0001
,  // measure 32
0020
0000
0000
0000
0031
0000
0020
0000
1000
0000
0000
0130
0010
0000
0001
1000
,  // measure 33
0020
0000
0000
0000
1030
0000
0010
0000
0001
0000
0010
0000
1000
0001
1000
0000
,  // measure 34
0200
0000
0000
0000
0301
0000
0200
0000
1000
0000
0000
0310
0100
0000
1000
0000
,  // measure 35
0004
0000
0400
0000
0000
0000
0000
0300
0000
0003
0000
0000
1000
0000
0000
0000
0100
0000
0000
0000
0001
0000
0000
0000
0100
0000
0000
0000
1000
0000
0000
0000
,  // measure 36
0020
0000
0000
0000
1030
0000
0020
0000
0001
0000
0000
0130
0010
0000
1000
0001
,  // measure 37
0020
0000
0031
0010
1000
0001
0100
1000
,  // measure 38
0020
0000
0000
0000
0130
0000
0002
0000
0010
0000
0000
0013
0001
0000
1000
0000
,  // measure 39
0001
0000
0100
0000
0110
0000
0000
1000
0010
0000
0001
0000
0010
0000
1000
0000
,  // measure 40
0101
0000
0000
0101
0000
0000
0011
0000
1001
0000
0000
1000
0100
0000
0000
1100
,  // measure 41
0000
0000
1010
0000
0000
0000
1000
0001
0010
0000
0001
1000
0010
0000
0100
0000
,  // measure 42
0101
0000
0000
1010
0000
0000
1010
0000
1001
0000
0000
1000
0100
0000
0000
0011
,  // measure 43
0000
0000
0011
0000
0000
0000
0010
0001
0100
0000
0010
1000
0100
0000
0010
0000
,  // measure 44
0011
0000
0000
0011
0000
0000
0101
0000
1001
0000
0000
1000
0010
0000
0000
1010
,  // measure 45
0000
0000
1100
0000
0000
0000
0100
0010
0001
0000
0100
0010
1000
0000
0010
0000
,  // measure 46
1010
0000
0000
1010
0000
0000
1100
0000
1001
0000
0000
0001
0010
0000
0000
0011
,  // measure 47
0000
0000
0101
0000
0000
0010
0000
1000
0100
0000
0010
0001
0100
0000
0210
0000
,  // measure 48
0000
0000
0000
0000
0000
0000
0000
0000
0000
0000
0310
0000
1000
0010
0100
0001
0040
0000
0000
0000
0000
0000
0001
0000
0000
0000
0000
0000
0000
0000
0031
0000
,  // measure 49
4000
0000
0000
3001
0400
0000
0000
0301
4000
0000
0000
0001
0000
0000
0000
0001
,  // measure 50
3000
0000
0010
1000
0400
0000
0000
1300
0040
0000
0000
1000
0000
0000
0000
1030
,  // measure 51
0004
0000
0000
1003
0400
0000
0000
1300
0004
0000
0000
1000
0000
0000
0000
1000
,  // measure 52
0003
0000
0010
0001
1000
0010
1000
0001
0010
0000
0100
1000
0004
0000
0000
0010
,  // measure 53
0000
0000
0000
1000
0000
0000
0000
0100
0003
0000
0100
0010
1000
0010
0100
0001
,  // measure 54
1000
0000
0100
1000
0001
0000
0100
0001
1000
0000
0000
1100
0000
0000
0011
0000
,  // measure 55
1001
0000
0000
0001
0100
0000
0010
1000
0100
0000
0010
0000
0011
0000
0001
0100
,  // measure 56
0001
0000
1000
0100
0010
0001
0100
0010
4000
0000
0000
0010
0000
0000
0000
3010
,  // measure 57
0400
0000
0000
0310
0004
0000
0000
0013
4000
0000
0000
0010
0000
0000
0000
0010
,  // measure 58
3000
0000
0010
1000
0400
0000
0000
0310
0004
0000
0000
0010
0000
0000
0000
0013
,  // measure 59
0400
0000
0000
0310
4000
0000
0000
3010
0004
0000
0000
0010
0000
0000
0000
0010
,  // measure 60
0003
0000
1000
0100
0010
0001
0100
0010
1000
0000
0001
1000
0100
0000
1000
0001
,  // measure 61
0100
0000
0001
1000
0100
0000
0010
0001
1000
0000
0010
1000
0001
0000
0010
0001
,  // measure 62
1000
0000
0010
1000
0001
0000
0100
0000
1010
0000
0000
0101
0000
0000
1100
0000
,  // measure 63
0011
0000
0000
0001
0010
0000
0000
1100
0000
0000
0101
0000
1010
0000
0000
0010
,  // measure 64
1000
0001
0010
0000
0100
0000
0010
0000
0011
0000
0000
0001
0100
0000
0010
0000
,  // measure 65
1000
0000
0000
1000
0100
0000
0000
0100
0010
0000
0000
0010
0100
0000
0000
0100
,  // measure 66
0001
0000
0000
0001
0100
0000
0010
0100
1000
0000
0000
1000
0010
0000
0100
0000
,  // measure 67
0001
0000
0000
0001
0010
0000
0000
0010
0100
0000
1000
0000
0001
0100
0010
1000
,  // measure 68
0100
0000
1000
0100
0010
0001
0100
0010
1000
0000
0100
1000
0010
1000
0001
0000
,  // measure 69
0100
0001
0100
0000
0001
0010
0001
1000
0001
0000
0100
0001
0010
0001
1000
0000
,  // measure 70
0100
1000
0010
0000
1000
0001
1000
0100
1000
0000
0001
0010
0100
1000
0010
0000
,  // measure 71
0100
0001
0010
0000
0100
1000
0010
0100
0001
0000
0010
0001
0010
0001
0100
0000
;

//---------------dance-single - ----------------
#NOTES:
     dance-single:
     09-13:
     Hard:
     9:
     0.608927,0.744866,0.351453,0.216279,0.324418,473.000000,434.000000,39.000000,24.000000,0.000000,0.000000,0.608927,0.744866,0.351453,0.216279,0.324418,473.000000,434.000000,39.000000,24.000000,0.000000,0.000000:
// measure 0
0000
0000
0000
0000
,  // measure 1
0000
0000
0000
0000
,  // measure 2
0000
0000
0000
0000
,  // measure 3
0000
0000
0000
0000
,  // measure 4
0000
0000
0000
0000
,  // measure 5
0000
0000
0000
0000
,  // measure 6
0000
0000
0000
0000
,  // measure 7
0000
0000
0000
0000
,  // measure 8
0001
0000
0010
0001
0010
0000
0100
0010
,  // measure 9
0100
0000
1000
0100
0010
0100
1000
0000
,  // measure 10
0001
0000
1000
0010
1000
0000
0010
0100
,  // measure 11
0010
0000
0100
0001
0100
0010
0100
0000
,  // measure 12
0001
0000
0001
0000
0001
0000
0010
0001
,  // measure 13
1000
0000
0000
0000
1000
0000
0000
0000
1000
0000
0000
0010
1000
0000
0001
0000
,  // measure 14
0010
0000
0000
0000
0010
0000
0000
0000
0010
0000
0000
0100
0010
0000
0001
0000
,  // measure 15
2000
0000
0000
0000
0000
0000
0000
0000
0000
0000
3000
0001
0100
0000
0010
0000
,  // measure 16
1010
0000
0000
1000
0001
0000
0010
0000
0011
0000
0000
0001
1000
0000
0100
0000
,  // measure 17
1000
0000
0001
0000
0100
0000
0000
0001
0100
0000
0000
0001
1000
0000
0000
0001
,  // measure 18
0010
0000
0000
0010
0100
0000
1000
0000
1100
0000
0000
1000
0001
0000
0100
0000
,  // measure 19
0001
0000
1000
0000
0100
0000
0010
0000
0001
0000
0000
0001
1000
0000
0000
1000
,  // measure 20
0010
0000
0000
0010
1000
0000
0100
0000
1000
0000
0010
0000
1000
0000
0001
0000
,  // measure 21
0011
0000
0000
0010
0001
0000
0100
0000
0001
0000
0010
0000
0001
0000
1000
0000
,  // measure 22
1010
0000
0000
0010
1000
0000
0010
0000
0001
0000
0010
0000
1000
0000
0100
0000
,  // measure 23
0010
0001
0100
0010
1000
0100
1000
0100
,  // measure 24
0020
0000
0031
2000
0010
0000
3001
1000
,  // measure 25
0020
0000
1030
0001
0010
0001
0010
0100
,  // measure 26
2000
0000
3010
0200
0001
0000
0010
0000
,  // measure 27
0301
0010
0100
1000
0100
0010
0001
0100
,  // measure 28
0020
0000
1030
0002
0010
0000
1003
0001
,  // measure 29
0020
0000
0031
1000
0010
1000
0010
0100
,  // measure 30
0002
0000
0013
0200
1000
0000
0310
0001
,  // measure 31
1000
0010
0100
0002
0000
0013
0100
1000
,  // measure 32
0002
0000
1003
0002
0100
0000
1003
0001
,  // measure 33
0020
0000
1030
0010
1000
0010
0100
0010
,  // measure 34
0002
0000
1003
0020
0100
0000
0001
0000
,  // measure 35
0130
0001
0010
0100
1000
0010
0100
0001
,  // measure 36
2000
0000
3001
2000
0100
0000
3001
1000
,  // measure 37
0020
0000
1030
0010
0001
0010
0100
0010
,  // measure 38
2000
0000
3001
0020
0100
0000
1000
0000
,  // measure 39
0130
0010
1001
0000
1000
0010
0100
0001
,  // measure 40
0010
0000
0000
0010
0000
0000
0001
0000
1001
0000
0000
0000
0010
0000
0000
0010
,  // measure 41
0000
1001
0000
1000
0100
0010
0001
0100
,  // measure 42
0010
0000
0000
0010
0000
0000
1000
0000
1001
0000
0000
0000
0010
0000
0000
0010
,  // measure 43
0000
1001
0000
0001
0100
0001
1000
0100
,  // measure 44
1000
0000
0000
1000
0000
0000
0010
0000
1010
0000
0000
0000
0001
0000
0000
0001
,  // measure 45
0000
0011
0000
0001
0010
0100
1000
0001
,  // measure 46
0100
0000
0000
0100
0000
0000
0001
0000
0101
0000
0000
0000
1000
0000
0000
0100
,  // measure 47
0000
1100
0000
0001
0010
1000
0010
0002
,  // measure 48
0000
0000
0000
0000
0000
0013
0100
1000
0001
0000
0000
0001
0100
0000
0000
0100
,  // measure 49
0010
0000
0000
0010
1000
0000
0000
1000
0001
0000
0000
0001
0010
0000
0000
0010
,  // measure 50
0001
0000
0000
0000
0011
0000
0000
0000
1010
0000
0000
1000
0100
0000
0000
0100
,  // measure 51
0010
0000
0000
0010
0001
0000
0000
0001
1000
0000
0000
1000
0010
0000
0000
0010
,  // measure 52
0100
0001
0010
0100
1100
0000
1020
0000
,  // measure 53
0100
0000
0100
0000
0031
0010
1000
0100
,  // measure 54
0001
0000
0000
0000
0101
0000
0000
0000
1100
0000
0000
0001
0000
0000
0001
0000
,  // measure 55
0101
0000
0000
0000
0011
0000
0000
1000
0000
0000
1000
0000
1010
0000
0000
0000
,  // measure 56
0010
0000
1000
0000
0100
0000
0010
0000
0001
0000
0000
0001
1000
0000
0000
1000
,  // measure 57
0010
0000
0000
0010
0001
0000
0000
0001
0010
0000
0000
0010
1000
0000
0000
1000
,  // measure 58
0100
0000
0000
0000
1100
0000
0000
0000
0101
0000
0000
0100
0001
0000
0000
0001
,  // measure 59
0010
0000
0000
0010
1000
0000
0000
1000
0010
0000
0000
0010
0001
0000
0000
0001
,  // measure 60
0100
0000
0010
0000
1000
0000
0001
0000
0100
0000
0000
0100
0001
0000
0000
0001
,  // measure 61
0010
0000
0000
0010
0100
0000
1000
0000
0100
0000
0000
0100
1000
0000
0000
1000
,  // measure 62
0010
0000
0000
0010
0100
0000
0001
0000
1001
0000
0000
1010
0000
0000
0101
0000
,  // measure 63
1001
0000
0000
0000
1001
0000
0000
0011
0000
0000
1100
0000
1001
0000
0000
0001
,  // measure 64
0010
0000
1000
0000
0010
0000
0001
0000
0011
0000
0000
0001
1000
0000
0010
0000
,  // measure 65
1010
0000
0000
1000
0001
0000
0100
0000
0001
0000
1000
0000
0100
0000
0000
1000
,  // measure 66
0100
0000
0000
1000
0001
0000
0000
1000
0010
0000
0000
0010
0100
0000
0001
0000
,  // measure 67
0101
0000
0000
0001
1000
0000
0100
0000
1000
0000
0001
0000
0100
0000
0010
0000
,  // measure 68
1000
0000
0000
1000
0001
0000
0000
0001
0010
0000
0000
0010
0001
0000
0100
0000
,  // measure 69
1000
0000
0100
0000
0001
0000
1000
0000
1010
0000
0000
0010
1000
0000
0100
0000
,  // measure 70
0001
0000
0100
0000
1000
0000
0001
0000
0011
0000
0000
0010
0001
0000
0100
0000
,  // measure 71
1000
0001
0010
1000
0100
0010
0100
1001
;

//---------------dance-single - ----------------
#NOTES:
     dance-single:
     07-10:
     Medium:
     7:
     0.484052,0.518167,0.243313,0.279360,0.000000,376.000000,349.000000,27.000000,31.000000,0.000000,0.000000,0.484052,0.518167,0.243313,0.279360,0.000000,376.000000,349.000000,27.000000,31.000000,0.000000,0.000000:
// measure 0
0000
0000
0000
0000
,  // measure 1
0000
0000
0000
0000
,  // measure 2
0000
0000
0000
0000
,  // measure 3
0000
0000
0000
0000
,  // measure 4
0000
0000
0000
0000
,  // measure 5
0000
0000
0000
0000
,  // measure 6
0000
0000
0000
0000
,  // measure 7
0000
0000
0000
0000
,  // measure 8
0002
0010
0010
2003
,  // measure 9
3020
1000
0230
0302
,  // measure 10
2003
3200
0320
0100
,  // measure 11
0100
0100
0130
2000
,  // measure 12
3002
0000
0203
0000
0001
0000
0010
0010
,  // measure 13
0010
0000
1000
0000
0010
0000
0001
0001
,  // measure 14
0001
0000
0010
0000
1000
0000
0301
1000
,  // measure 15
0200
0000
0000
0000
0300
0000
1000
0100
,  // measure 16
1100
0000
0001
0100
0101
0000
1000
0000
,  // measure 17
0010
0000
1000
0000
0001
0100
0001
0010
,  // measure 18
0011
0000
1000
0010
1010
0000
0001
0000
,  // measure 19
0100
0001
1100
0011
,  // measure 20
1000
0100
1000
0000
0010
1000
0010
0000
,  // measure 21
0100
0001
0100
0000
0001
0010
0001
0000
,  // measure 22
1000
0010
0100
0000
0001
0010
0100
0000
,  // measure 23
1000
0010
0100
0001
0010
0100
0010
0100
,  // measure 24
1000
0000
0010
1000
0000
0010
1000
0001
,  // measure 25
1000
0000
0001
1000
0000
0100
1000
0100
,  // measure 26
0010
0000
0001
1000
0000
1000
0001
0000
,  // measure 27
1000
0000
0010
1000
0010
1000
0010
1000
,  // measure 28
0001
0000
0010
0001
0000
0010
0001
1000
,  // measure 29
0001
0000
1000
0001
0000
0100
0001
0100
,  // measure 30
0010
0000
1000
0001
0000
0001
1000
0000
,  // measure 31
0001
0010
0100
1000
0001
0000
0100
0000
,  // measure 32
0010
0000
1000
0001
0000
0010
0001
1000
,  // measure 33
0100
0000
1000
0001
0000
0100
0001
1000
,  // measure 34
0100
0000
0010
0001
0000
0001
1000
0000
,  // measure 35
0010
0000
0100
0001
0100
0001
0100
0001
,  // measure 36
0010
0000
0001
1000
0000
0010
1000
0001
,  // measure 37
0100
0000
0001
1000
0100
1000
0100
0010
,  // measure 38
0001
0000
1000
0010
0000
0010
1000
0000
,  // measure 39
0001
0000
1001
0000
0001
0010
0100
1000
,  // measure 40
0001
0000
0100
0001
0010
0000
1010
0000
,  // measure 41
0010
1000
0100
0000
0010
0001
0100
0001
,  // measure 42
1000
0000
0100
1000
0010
0000
0011
0000
,  // measure 43
0010
0001
0100
0000
0010
1000
0100
1000
,  // measure 44
0001
0000
0010
0001
0100
0000
1100
0000
,  // measure 45
0100
1000
0010
0000
1000
0010
1000
0001
,  // measure 46
0010
0000
0100
0010
0100
0000
1000
0000
,  // measure 47
0001
0000
0100
0000
0020
0000
0000
0030
,  // measure 48
0000
0000
0000
0100
2001
0000
3010
1000
,  // measure 49
0200
0302
0203
0001
,  // measure 50
0010
0000
1300
0000
1002
0000
0013
0001
,  // measure 51
0200
2300
3200
1000
,  // measure 52
0310
0100
0001
1000
0200
0000
0320
0000
,  // measure 53
0001
0000
0100
0000
1030
0000
1000
0010
,  // measure 54
0001
0000
0101
0000
1001
0000
0010
1000
,  // measure 55
0100
0000
1001
0000
0010
0001
0100
0000
,  // measure 56
0001
0100
0010
1000
1020
0000
0031
0010
,  // measure 57
2000
3002
0023
1000
,  // measure 58
0100
0000
0031
0000
0021
0000
1030
0010
,  // measure 59
0002
2003
3020
0001
,  // measure 60
0130
0001
1000
0100
0010
0000
0011
0000
,  // measure 61
1100
0000
0001
0100
0010
0000
1010
0000
,  // measure 62
0101
0000
0010
1000
1010
0000
0100
0001
,  // measure 63
0010
0000
0011
0000
0100
1000
0010
0000
,  // measure 64
0001
0010
1000
0001
0101
0000
1000
0100
,  // measure 65
1100
0001
0010
0001
,  // measure 66
1000
0100
1000
0010
1010
0000
0001
0010
,  // measure 67
0011
0000
1000
0000
0100
0000
0010
0001
,  // measure 68
0100
0010
1000
0000
0001
0100
0010
1000
,  // measure 69
0000
1000
0000
1000
0100
0010
0001
0100
,  // measure 70
0000
0010
0000
1000
0010
1000
0001
0010
,  // measure 71
0001
0010
0001
1000
0010
0100
0100
0001
;

//---------------dance-single - ----------------
#NOTES:
     dance-single:
     04-06:
     Easy:
     4:
     0.328280,0.485782,0.252325,0.351453,0.000000,255.000000,227.000000,28.000000,39.000000,0.000000,0.000000,0.328280,0.485782,0.252325,0.351453,0.000000,255.000000,227.000000,28.000000,39.000000,0.000000,0.000000:
// measure 0
0000
0000
0000
0000
,  // measure 1
0000
0000
0000
0000
,  // measure 2
0000
0000
0000
0000
,  // measure 3
0000
0000
0000
0000
,  // measure 4
0000
0000
0000
0000
,  // measure 5
0000
0000
0000
0000
,  // measure 6
0000
0000
0000
0000
,  // measure 7
0000
0000
0000
0000
,  // measure 8
0002
0000
0000
2003
,  // measure 9
3002
0000
0023
0230
,  // measure 10
2300
3002
0203
0000
,  // measure 11
0000
0000
0000
0302
,  // measure 12
2003
3200
1000
1000
,  // measure 13
0010
0010
0001
0001
,  // measure 14
0010
0010
1000
1300
,  // measure 15
0100
0000
0000
1001
,  // measure 16
1000
1000
0010
0010
,  // measure 17
1000
1000
0010
1000
,  // measure 18
0001
0001
0010
0010
,  // measure 19
0001
0001
0100
0010
,  // measure 20
1000
0100
1000
0100
,  // measure 21
0010
0001
0010
0001
,  // measure 22
1000
0010
1000
0010
,  // measure 23
0100
0001
2000
0000
,  // measure 24
3001
0010
0002
0000
,  // measure 25
0013
0001
1000
0001
,  // measure 26
0100
0010
2000
0000
,  // measure 27
3010
0010
0100
0001
,  // measure 28
1000
0010
2000
0000
,  // measure 29
3010
1000
0001
1000
,  // measure 30
0100
0010
0002
0000
,  // measure 31
1003
0100
0010
0001
,  // measure 32
1000
0010
0200
0000
,  // measure 33
0301
0010
0100
0001
,  // measure 34
0100
0010
0002
0000
,  // measure 35
1003
1000
0010
0100
,  // measure 36
0001
0010
0200
0000
,  // measure 37
1300
0010
0100
1000
,  // measure 38
0100
0010
2000
0000
,  // measure 39
3001
0010
0100
1000
,  // measure 40
1100
0010
0011
0101
,  // measure 41
0010
1010
0001
0001
,  // measure 42
0011
0100
1100
1010
,  // measure 43
0100
0101
1000
1000
,  // measure 44
1100
0001
0101
0011
,  // measure 45
1000
1010
0001
0001
,  // measure 46
0101
1000
0011
1010
,  // measure 47
0001
1100
0001
0002
,  // measure 48
0000
0003
2000
0000
,  // measure 49
3002
0023
2030
0000
,  // measure 50
3010
0010
0002
0000
,  // measure 51
2003
3020
0032
0000
,  // measure 52
0013
1000
0200
0320
,  // measure 53
0000
0001
0100
0001
,  // measure 54
0130
1000
1010
1000
,  // measure 55
1010
0011
0001
0011
,  // measure 56
0001
1000
0002
0000
,  // measure 57
0203
2300
3002
0000
,  // measure 58
0013
0010
2000
0000
,  // measure 59
3200
0302
2003
0000
,  // measure 60
3010
0001
1000
0010
,  // measure 61
0100
0001
0010
0100
,  // measure 62
1000
0001
0101
0001
,  // measure 63
0011
1100
1000
1010
,  // measure 64
1001
0100
1001
0001
,  // measure 65
0010
0010
0001
0001
,  // measure 66
0010
0001
1000
1000
,  // measure 67
0010
0010
1000
1000
,  // measure 68
0100
0010
0001
0100
,  // measure 69
1000
0100
0001
0010
,  // measure 70
1000
0010
0001
0100
,  // measure 71
0010
0000
1000
0000
0100
0000
0000
0110
;

//---------------dance-single - ----------------
#NOTES:
     dance-single:
     02-03:
     Beginner:
     2:
     0.181520,0.291469,0.027035,0.171221,0.000000,141.000000,138.000000,3.000000,19.000000,0.000000,0.000000,0.181520,0.291469,0.027035,0.171221,0.000000,141.000000,138.000000,3.000000,19.000000,0.000000,0.000000:
// measure 0
0000
0000
0000
0000
,  // measure 1
0000
0000
0000
0000
,  // measure 2
0000
0000
0000
0000
,  // measure 3
0000
0000
0000
0000
,  // measure 4
0000
0000
0000
0000
,  // measure 5
0000
0000
0000
0000
,  // measure 6
0000
0000
0000
0000
,  // measure 7
0000
0000
0000
0000
,  // measure 8
0002
0000
0003
0000
,  // measure 9
0001
0000
0010
0000
,  // measure 10
0100
0000
2000
0000
,  // measure 11
0000
0000
3000
0000
,  // measure 12
0020
0000
0000
0000
,  // measure 13
0000
0000
0000
0000
,  // measure 14
0000
0000
0000
0000
,  // measure 15
0030
0000
0000
0000
,  // measure 16
1000
1000
1000
0000
,  // measure 17
0010
0000
1000
0000
,  // measure 18
0001
0001
0001
0000
,  // measure 19
0010
0000
0001
0000
,  // measure 20
0100
0100
0100
0000
,  // measure 21
0100
0100
0100
0000
,  // measure 22
0100
0100
0100
0000
,  // measure 23
0010
0000
1000
0000
,  // measure 24
0001
0001
0001
0000
,  // measure 25
0001
0001
0001
0000
,  // measure 26
0100
0100
0100
0000
,  // measure 27
0000
0000
0010
0000
,  // measure 28
1000
1000
1000
0000
,  // measure 29
1000
1000
1000
0000
,  // measure 30
0100
0100
0100
0000
,  // measure 31
0010
0000
0001
0000
,  // measure 32
1000
1000
1000
0000
,  // measure 33
0010
0010
0010
0000
,  // measure 34
0100
0100
0100
0000
,  // measure 35
0000
0000
0100
0000
,  // measure 36
0001
0001
0001
0000
,  // measure 37
0010
0010
0010
0000
,  // measure 38
0100
0100
0100
0000
,  // measure 39
1000
0000
0001
0000
,  // measure 40
0200
0000
0300
0020
,  // measure 41
0000
0030
1000
0000
,  // measure 42
0200
0000
0300
0020
,  // measure 43
0000
0030
0001
0000
,  // measure 44
2000
0000
3000
0020
,  // measure 45
0000
0030
0100
0000
,  // measure 46
0002
0000
0003
0020
,  // measure 47
0000
0000
0030
0000
0200
0000
0000
0300
,  // measure 48
0000
0000
1000
0000
,  // measure 49
1000
0010
2000
0000
,  // measure 50
3000
0001
0001
0000
,  // measure 51
0001
0010
0002
0000
,  // measure 52
0003
0100
0010
0200
,  // measure 53
0000
0000
0000
0300
,  // measure 54
0000
0100
0010
0000
,  // measure 55
1000
1000
0000
0001
,  // measure 56
0001
0000
1000
0000
,  // measure 57
1000
0100
2000
0000
,  // measure 58
3000
0001
0001
0000
,  // measure 59
0001
0100
0002
0000
,  // measure 60
0003
1000
1000
0000
,  // measure 61
0100
0000
0010
0000
,  // measure 62
0001
0000
1000
0000
,  // measure 63
0001
0001
0000
1001
,  // measure 64
1001
0000
0001
0001
,  // measure 65
0001
0000
0010
0000
,  // measure 66
0001
0000
1000
1000
,  // measure 67
1000
0000
0010
0000
,  // measure 68
1000
0000
0100
0010
,  // measure 69
0100
0000
0010
0100
,  // measure 70
0010
0000
0100
0010
,  // measure 71
0100
0000
0000
0000
2002
0000
0000
3003
;

//---------------dance-single - Wadatsumi Edition----------------
#NOTES:
     dance-single:
     11-16 WADATSUMI:
     Edit:
     11:
     0.784010,0.906793,0.396511,0.288371,0.802033,609.000000,565.000000,44.000000,32.000000,0.000000,0.000000,0.784010,0.906793,0.396511,0.288371,0.802033,609.000000,565.000000,44.000000,32.000000,0.000000,0.000000:
// measure 0
0000
0000
0000
0000
,  // measure 1
0000
0000
0000
0000
,  // measure 2
0000
0000
0000
0000
,  // measure 3
0000
0000
0000
0000
,  // measure 4
0000
0000
0000
0000
,  // measure 5
0000
0000
0000
0000
,  // measure 6
0000
0000
0000
0000
,  // measure 7
0000
0000
0000
0000
,  // measure 8
0001
0000
0010
0001
1000
0000
0001
1000
,  // measure 9
0010
0000
1000
0001
0100
0001
1000
0000
,  // measure 10
0100
0000
0010
0100
1000
0000
0010
0100
,  // measure 11
0001
0000
0010
0100
1000
0001
0100
0000
,  // measure 12
0110
0000
0010
0000
0010
0000
0010
0100
,  // measure 13
1010
0000
0000
0000
0010
0000
0000
0000
0010
0000
0000
0010
1000
0000
0100
0000
,  // measure 14
0110
0000
0000
0000
0010
0000
0000
0000
0010
0000
0000
0100
0010
0000
0100
0000
,  // measure 15
0012
0000
0000
0000
0000
0000
0000
0000
0003
0000
0000
0010
0001
0000
0110
0000
,  // measure 16
1001
0000
0000
1000
0100
0000
0010
0000
0001
0000
0000
0001
0100
0000
0000
0100
,  // measure 17
0010
0000
0000
0010
0100
0000
0000
0100
1000
0000
0000
1000
0100
0000
0010
0100
,  // measure 18
0001
0000
0000
0001
0010
0000
0100
0000
1000
0000
0000
1000
0010
0000
0000
0010
,  // measure 19
0100
0000
0000
0100
0001
0000
0010
0000
1000
0000
0000
1000
0010
0000
0000
0010
,  // measure 20
0001
0000
0100
0001
0100
0001
1000
0000
0100
1000
0100
0000
1000
0010
1000
0010
,  // measure 21
1000
0000
0100
1000
0100
1000
0001
0000
0100
0001
0010
0000
0001
0010
0001
0010
,  // measure 22
0001
0000
1000
0010
0100
0010
1000
0000
0001
1000
0001
0000
0010
0001
0100
0001
,  // measure 23
0010
0000
0001
1000
0010
0000
0100
0000
0001
0010
0001
0010
0100
1000
0010
0100
,  // measure 24
0002
0000
0000
0000
0103
0000
0002
0000
0010
0000
0000
0013
0001
0000
1000
0010
,  // measure 25
2000
0000
0000
0000
3100
0000
1000
0000
0010
0000
1000
0000
0001
0010
0001
0000
,  // measure 26
2000
0000
0000
0000
3010
0000
0200
0000
0001
0000
0000
0301
0100
0000
0010
0000
,  // measure 27
4000
0000
0400
0000
0000
0000
0000
0300
0000
3000
0000
0000
0001
0000
0000
0000
1000
0000
0000
0000
0010
0000
0000
0000
0100
0000
0000
0000
0001
0000
0000
0000
,  // measure 28
2000
0000
0000
0000
3100
0000
2000
0000
0010
0000
0000
3010
1000
0000
0001
0010
,  // measure 29
0002
0000
0000
0000
0103
0000
0001
0000
0010
0000
0001
0000
1000
0010
1000
0000
,  // measure 30
0002
0000
0000
0000
0013
0000
0200
0000
1000
0000
0000
1300
0100
0000
0010
0001
,  // measure 31
0100
0010
1000
0000
0100
0000
0010
0000
0001
0000
1000
0010
0100
0001
0100
0001
,  // measure 32
0020
0000
0000
0000
0031
0000
0020
0000
1000
0000
0000
0130
0010
0000
0001
1000
,  // measure 33
0020
0000
0000
0000
1030
0000
0010
0000
0001
0000
0010
0000
1000
0001
1000
0000
,  // measure 34
0200
0000
0000
0000
0301
0000
0200
0000
1000
0000
0000
0310
0100
0000
1000
0000
,  // measure 35
0004
0000
0400
0000
0000
0000
0000
0300
0000
0003
0000
0000
1000
0000
0000
0000
0100
0000
0000
0000
0001
0000
0000
0000
0100
0000
0000
0000
1000
0000
0000
0000
,  // measure 36
0020
0000
0000
0000
1030
0000
0020
0000
0001
0000
0000
0130
0010
0000
1000
0001
,  // measure 37
0020
0000
0031
0010
1000
0001
0100
1000
,  // measure 38
0020
0000
0000
0000
0130
0000
0002
0000
0010
0000
0000
0013
0001
0000
1000
0000
,  // measure 39
0001
0000
0100
0000
0110
0000
0000
1000
0010
0000
0001
0000
0010
0000
1000
0000
,  // measure 40
0101
0000
0000
0101
0000
0000
0011
0000
1001
0000
0000
1000
0100
0000
0000
1100
,  // measure 41
0000
0000
1010
0000
0000
0000
1000
0001
0010
0000
0001
1000
0010
0000
0100
0000
,  // measure 42
0101
0000
0000
1010
0000
0000
1010
0000
1001
0000
0000
1000
0100
0000
0000
0011
,  // measure 43
0000
0000
0011
0000
0000
0000
0010
0001
0100
0000
0010
1000
0100
0000
0010
0000
,  // measure 44
0011
0000
0000
0011
0000
0000
0101
0000
1001
0000
0000
1000
0010
0000
0000
1010
,  // measure 45
0000
0000
1100
0000
0000
0000
0100
0010
0001
0000
0100
0010
1000
0000
0010
0000
,  // measure 46
1010
0000
0000
1010
0000
0000
1100
0000
1001
0000
0000
0001
0010
0000
0000
0011
,  // measure 47
0000
0000
0101
0000
0000
0010
0000
1000
0100
0000
0010
0001
0100
0000
0210
0000
,  // measure 48
0000
0000
0000
0000
0000
0000
0000
0000
0000
0000
0310
0000
1000
0010
0100
0001
0020
0000
0000
0000
0001
0000
1000
0000
0000
0000
0000
0000
1030
0000
0001
0000
,  // measure 49
0010
0000
0010
0100
1000
0000
1000
0001
0200
0000
0001
1000
0000
0000
1000
0001
,  // measure 50
0000
0000
0301
1000
0010
0000
0010
1000
0200
0000
0010
0001
0000
0000
0310
1000
,  // measure 51
0100
0000
0100
0010
0001
0000
0001
1000
0020
0000
0100
0001
0000
0000
0100
1000
,  // measure 52
0000
0000
0130
0001
1000
0100
0010
0001
1000
0000
0010
1000
0200
0000
1000
0001
,  // measure 53
0000
0000
0001
1000
0000
0000
1000
0001
0000
0000
0310
1000
0010
0100
0001
1000
,  // measure 54
0100
0000
0010
0001
1000
0000
0010
1000
0001
0000
0000
0011
0000
0000
1100
0000
,  // measure 55
1001
0000
0000
0001
0100
0000
0010
1000
0100
0000
0010
0000
0011
0000
0001
0100
,  // measure 56
0001
0000
1000
0100
0010
0001
1000
0010
0200
0000
0010
1000
0000
0000
0310
0001
,  // measure 57
0100
0000
0100
0001
0010
0000
0010
0100
0002
0000
0100
0010
0000
0000
0100
0010
,  // measure 58
0000
0000
0013
0100
0001
0000
0001
1000
0200
0000
0010
0001
0000
0000
0310
1000
,  // measure 59
0100
0000
0100
1000
0010
0000
0010
0100
2000
0000
0100
0010
0000
0000
0100
0010
,  // measure 60
0000
0000
3010
0100
0010
0001
0100
0010
1000
0000
1000
0001
0020
0000
0001
1000
,  // measure 61
0000
0000
1000
0001
0000
0000
0001
0100
0000
0000
1000
0100
0000
0000
0001
0100
,  // measure 62
0000
0000
1030
0100
1000
0000
0001
0000
1001
0000
0000
0101
0000
0000
1100
0000
,  // measure 63
0011
0000
0000
0001
0010
0000
0000
1100
0000
0000
0101
0000
1010
0000
0000
0010
,  // measure 64
1000
0001
0010
0000
0100
0000
0010
0000
0011
0000
0000
0001
0100
0000
0010
0000
,  // measure 65
1000
0000
0000
1000
0100
0000
0000
0100
0010
0000
0000
0010
0100
0000
0000
0100
,  // measure 66
0001
0000
0000
0001
0100
0000
0010
0100
1000
0000
0000
1000
0010
0000
0100
0000
,  // measure 67
0001
0000
0000
0001
0010
0000
0000
0010
0100
0000
1000
0000
0001
0100
0010
1000
,  // measure 68
0100
0000
1000
0100
0010
0001
0100
0010
1000
0000
0100
1000
0010
1000
0001
0000
,  // measure 69
0100
0001
0100
0000
0001
0010
0001
1000
0001
0000
0100
0001
0010
0001
1000
0000
,  // measure 70
0100
1000
0010
0000
1000
0001
1000
0100
1000
0000
0001
0010
0100
1000
0010
0000
,  // measure 71
0100
0001
0010
0000
0100
1000
0010
0100
0001
0000
0010
0001
0010
0001
0100
0000
;
