#VERSION:0.82;
#TITLE:Yellow Sketch(RX-Ver.S.P.L.);
#SUBTITLE:;
#ARTIST:高田雅史;
#TITLETRANSLIT:;
#SUBTITLETRANSLIT:;
#ARTISTTRANSLIT:Masafumi Takada;
#GENRE:ALTERNATIVE ELECTRO;
#ORIGIN:;
#CREDIT:;
#BANNER:[VIP2 Full Flavor] - Yellow Sketch(RX-Ver.S.P.L.).png;
#BACKGROUND:[VIP2 Full Flavor] - Yellow Sketch(RX-Ver.S.P.L.)-bg.png;
#PREVIEWVID:;
#JACKET:[VIP2 Full Flavor] - Yellow Sketch(RX-Ver.S.P.L.)-jacket.png;
#CDIMAGE:;
#DISCIMAGE:;
#LYRICSPATH:;
#CDTITLE:;
#MUSIC:[VIP2 Full Flavor] - Yellow Sketch(RX-Ver.S.P.L.).ogg;
#OFFSET:-1.924200;
#SAMPLESTART:29.234743;
#SAMPLELENGTH:15.000000;
#SELECTABLE:YES;
#BPMS:0.000=176.000;
#STOPS:208.000=1.023;
#DELAYS:;
#WARPS:;
#TIMESIGNATURES:0.000=4=4;
#TICKCOUNTS:0.000=4;
#COMBOS:0.000=1;
#SPEEDS:0.000=1.000=0.000=0;
#SCROLLS:0.000=1.000;
#FAKES:;
#LABELS:0.000=Song Start;
#BGCHANGES:;
#KEYSOUNDS:;
#ATTACKS:
;

//---------------dance-single - ----------------
#NOTEDATA:;
#CHARTNAME:;
#STEPSTYPE:dance-single;
#DESCRIPTION:;
#CHARTSTYLE:;
#DIFFICULTY:Hard;
#METER:8;
#RADARVALUES:0.553165,0.504770,0.040002,0.296012,0.132005,442.000000,5.000000,37.000000,0.000000,0.000000,0.000000,0.000000,0.000000,0.553165,0.504770,0.040002,0.296012,0.132005,442.000000,5.000000,37.000000,0.000000,0.000000,0.000000,0.000000,0.000000;
#CREDIT:;
#NOTES:
0000
0000
0000
0000
,
0000
0000
0000
0000
,
0000
0000
0000
0000
,
0000
0000
0000
0000
,
1000
0000
0000
0000
0000
0000
1000
0000
0000
0100
0000
0000
0010
0000
0000
0000
0100
0000
0000
0000
1000
0000
0000
0000
,
0001
0000
0100
0001
0010
0000
0100
1000
,
0010
0000
0000
0000
0000
0000
1000
0000
0000
0010
0000
0000
0100
0000
0000
0000
0010
0000
0000
0000
1000
0000
0000
0000
,
0001
0000
0010
0001
0100
0000
0010
1000
,
0100
0000
0000
0000
0000
0000
1000
0000
0000
0001
0000
0000
0010
0000
0000
0000
0100
0000
0000
0000
1000
0000
0000
0000
,
0001
0000
0100
0010
1000
0000
0100
0010
,
0001
0000
0000
0000
0000
0000
0001
0000
0000
1000
0000
0000
0010
0000
0000
0000
0100
0000
0000
0000
0001
0000
0000
0000
,
1000
0010
1000
0001
0010
0001
2000
0000
,
3002
0000
0000
0103
0000
0100
0010
0000
,
2000
0000
0000
3100
0000
1000
0000
0001
,
0020
0000
0000
0130
0000
0100
1000
0000
,
0200
0000
0000
1300
0020
0000
0000
0000
,
2030
0000
0000
3010
0000
0010
0100
0000
,
0002
0000
0000
1003
0000
1000
0002
0000
,
0023
0000
0000
0130
0000
0100
1000
0002
,
0000
0100
1000
0103
,
1000
0100
1000
0000
0100
1000
0100
0010
,
0001
0100
0001
0000
0010
0100
0010
0000
,
0001
0000
0100
0000
0001
0000
0000
0100
0000
0000
0001
0000
0000
1000
0000
0000
,
0020
0000
0000
0000
0030
1000
0200
0000
,
1300
0010
1000
0000
0010
1000
0010
0100
,
0001
0010
0001
0000
0100
0010
1000
0000
,
0001
0010
0001
0000
1000
0001
1000
0010
,
0200
0000
0300
0001
0020
0000
0000
0000
,
0130
0000
1000
0100
0000
0001
0100
0000
,
0010
0000
0001
0100
0000
1000
0100
0000
,
0100
0000
1000
0010
0000
0001
0010
0000
,
0100
0000
0010
0001
0000
0001
0100
0010
,
1000
0000
0000
0000
0001
0000
0000
0000
0010
0000
0000
0000
0001
0000
0000
0010
0000
0000
0100
0000
0000
0010
0000
0000
,
0000
0010
0001
1000
0000
1000
0010
0210
,
0000
0000
1000
0000
0301
0001
0100
0010
,
0000
0100
0002
2000
0000
0000
3003
0000
,
2000
0000
0000
0000
0000
0000
0000
0000
0000
3001
0000
0000
1000
0000
0000
0000
0100
0000
0000
0000
0010
0000
0000
0000
,
0001
0000
0100
0010
1000
0000
0100
0010
,
0002
0000
0000
1003
0000
0001
1000
0001
,
0020
0000
0000
0130
0000
0100
1000
0001
,
2000
0000
0000
0000
0000
0000
0000
0000
0000
3001
0000
0000
1000
0000
0000
0000
0100
0000
0000
0000
0010
0000
0000
0000
,
0001
0000
0010
0100
1000
0000
0010
0100
,
0002
0000
0000
1003
0000
1000
0001
0100
,
0020
0100
1000
0031
,
1000
0000
0000
0000
0000
0000
1000
0000
0000
0100
0000
0000
0010
0000
0000
0000
0100
0000
0000
0000
1000
0000
0000
0000
,
0001
0000
0100
0001
0010
0000
0100
1000
,
0010
0000
0000
0000
0000
0000
1000
0000
0000
0010
0000
0000
0100
0000
0000
0000
0010
0000
0000
0000
1000
0000
0000
0000
,
0001
0000
0010
0001
0100
0000
0010
1000
,
0100
0000
0000
0000
0000
0000
1000
0000
0000
0001
0000
0000
0010
0000
0000
0000
0100
0000
0000
0000
1000
0000
0000
0000
,
0001
0000
0100
0010
1000
0000
0100
0010
,
0001
0000
0000
0000
0000
0000
0001
0000
0000
1000
0000
0000
0010
0000
0000
0000
0100
0000
0000
0000
0001
0000
0000
0000
,
1000
0010
1000
0001
0010
0001
1000
0100
,
0010
0000
0100
1000
0100
0010
0000
0100
,
1000
0000
0001
0100
0001
0010
0000
0001
,
0000
0100
0010
1000
0010
0100
0000
0100
,
0010
0000
0100
0001
1000
0000
0100
1000
,
0001
0000
0100
0001
0100
0010
0000
0100
,
0001
1000
0000
1000
0000
0100
0000
1000
,
0000
0001
0000
0001
0000
0100
0000
0001
,
0000
0011
0000
0110
0000
2200
0000
0000
,
3300
0000
2000
0000
3001
0000
1000
0010
,
0000
0010
0000
0000
0200
0000
0000
0000
0301
0000
0000
0000
0100
0000
0010
0000
,
0000
0010
0000
0000
1000
0000
0000
0001
0000
0000
0010
0000
0000
0000
0010
0000
,
0100
0000
1000
0000
0001
0000
0000
0010
0000
0000
0001
0000
0000
0000
0001
0000
,
0100
0010
1000
0001
1000
0100
0000
0100
,
1000
0010
0100
0001
0010
0001
0000
0001
,
1000
0100
0010
0100
1000
0000
0001
0100
,
1000
0100
0002
0000
0003
1000
0020
0000
,
0000
0000
1030
0001
1000
0000
1000
0010
,
0100
0001
0100
0010
1000
0000
0001
0010
,
0001
0000
0000
0000
1000
0000
0100
0000
1000
0000
0000
0100
0000
0000
0010
0000
,
0000
0001
0000
0000
0020
0000
0000
0000
0000
0000
0000
0000
0030
0000
0001
0000
,
0200
0000
0301
1000
0001
0000
0001
0010
,
0100
1000
0100
0010
0001
0000
1000
0010
,
1000
0000
0001
0100
0001
0000
0001
1000
,
0001
0100
0020
0000
0030
1000
0200
0000
,
0000
0000
1300
0001
0100
0001
1000
0010
,
0100
0000
0001
1000
0001
0010
0100
0010
,
0001
0000
0000
0000
1000
0000
0001
0000
0100
0000
0000
0001
0000
0000
1000
0000
,
0000
0100
0000
0000
0020
0000
0000
0000
0000
0000
0000
0000
0030
0000
0100
0000
,
2000
0000
3001
0100
0010
1000
0001
0100
,
1000
0000
0100
0001
1000
0001
0010
0100
,
1000
0001
1000
0100
0001
0100
1000
1000
,
1000
0000
0100
0000
0020
0000
0000
0000
0030
0000
0100
0000
1000
0000
0000
0001
,
0000
1001
0000
0000
0000
0000
0000
0000
;

//---------------dance-single - ----------------
#NOTEDATA:;
#CHARTNAME:;
#STEPSTYPE:dance-single;
#DESCRIPTION:;
#CHARTSTYLE:;
#DIFFICULTY:Beginner;
#METER:2;
#RADARVALUES:0.118862,0.134005,0.008000,0.000000,0.000000,103.000000,1.000000,0.000000,0.000000,0.000000,0.000000,0.000000,0.000000,0.118862,0.134005,0.008000,0.000000,0.000000,103.000000,1.000000,0.000000,0.000000,0.000000,0.000000,0.000000,0.000000;
#CREDIT:;
#NOTES:
0000
0000
0000
0000
,
0000
0000
0000
0000
,
0000
0000
0000
0000
,
0000
0000
0000
0000
,
1000
0000
0000
0000
,
0001
0000
0000
0000
,
1000
0000
0000
0000
,
0001
0000
0000
0000
,
0100
0000
0000
0000
,
0010
0000
0000
0000
,
0100
0000
0000
0000
,
0010
0000
0000
0000
,
1000
0000
0000
0000
,
0100
0000
0000
0000
,
0010
0000
0000
0000
,
0001
0000
0000
0000
,
1000
0000
0000
0000
,
0010
0000
0000
0000
,
0100
0000
0000
0000
,
0001
0000
0000
0000
,
1000
0000
1000
0000
,
0100
0000
0100
0000
,
1000
0000
1000
0000
,
0010
0000
0000
0000
,
0001
0000
0001
0000
,
0100
0000
0100
0000
,
0001
0000
0001
0000
,
0010
0000
0100
0000
,
1000
0000
0000
0000
,
0001
0000
0000
0000
,
1000
0000
0000
0000
,
0001
0000
0000
0000
,
0010
0000
0000
0000
,
0100
0000
0000
0000
,
0010
0000
0000
0000
,
0110
0000
0000
0000
,
1000
0000
1000
0000
,
0010
0000
0010
0000
,
1000
0000
0001
0000
,
0010
0000
0000
0000
,
0001
0000
0001
0000
,
0010
0000
0010
0000
,
0001
0000
1000
0000
,
1000
0000
0001
0000
,
0001
0000
0000
0000
,
0100
0000
0000
0000
,
1000
0000
0000
0000
,
0100
0000
0000
0000
,
0001
0000
0000
0000
,
0010
0000
0000
0000
,
1000
0000
0000
0000
,
0010
0000
0000
0000
,
0001
0001
0000
0000
,
0000
0001
0000
0100
,
0000
1000
0000
0000
,
0000
1000
0000
0100
,
0000
0001
0000
0000
,
0000
0001
0000
0100
,
0000
0010
0000
0000
,
0000
0010
0000
0100
,
0000
0001
0000
0000
,
0000
1000
0000
0000
,
0000
0100
0000
0000
,
0000
0010
0000
0000
,
0000
0001
0000
0000
,
0000
1000
0000
0000
,
0000
0001
0000
0001
,
0000
0100
0000
0010
,
0000
1000
0000
0000
,
0000
0100
0000
0000
,
0000
0001
0000
0000
,
0000
0010
0000
0000
,
0000
0001
0000
0000
,
0000
0100
0000
0000
,
0000
1000
0000
0000
,
0000
0010
0000
0010
,
0000
1000
0000
0000
,
0000
0100
0000
0000
,
0000
0001
0000
0000
,
0000
0010
0000
0000
,
0000
0001
0000
0000
,
0000
0100
0000
0000
,
0000
1000
0000
0000
,
0000
0010
0000
0010
;

//---------------dance-single - ----------------
#NOTEDATA:;
#CHARTNAME:;
#STEPSTYPE:dance-single;
#DESCRIPTION:;
#CHARTSTYLE:;
#DIFFICULTY:Easy;
#METER:3;
#RADARVALUES:0.229723,0.302862,0.032001,0.176007,0.000000,175.000000,4.000000,22.000000,0.000000,0.000000,0.000000,0.000000,0.000000,0.229723,0.302862,0.032001,0.176007,0.000000,175.000000,4.000000,22.000000,0.000000,0.000000,0.000000,0.000000,0.000000;
#CREDIT:;
#NOTES:
0000
0000
0000
0000
,
0000
0000
0000
0000
,
0000
0000
0000
0000
,
0000
0000
0000
0000
,
1000
0000
0000
1000
,
0001
0000
0001
0000
,
1000
0000
0000
1000
,
0100
0000
0100
0000
,
1000
0000
0000
1000
,
0010
0000
0010
0000
,
1000
0000
0000
1000
,
0002
0000
0000
0003
,
1000
0000
1000
0000
,
0100
0000
0100
0000
,
0010
0000
0010
0000
,
0001
0000
1000
0000
,
0001
0000
0001
0000
,
0100
0000
0100
0000
,
0010
0000
1000
0000
,
0200
0000
0000
0300
,
1000
0000
1000
0100
,
1000
0000
0001
0100
,
0001
0000
1000
0100
,
0020
0000
0000
0030
,
0001
0000
1000
0010
,
1000
0000
0001
0100
,
0010
0000
0100
0001
,
0020
0030
0200
0300
,
1000
0000
0000
1000
,
0010
0000
1000
0000
,
0001
0000
0000
0001
,
0010
0000
0000
1000
,
0010
0000
0200
0000
,
0000
0000
0000
0000
0300
0000
0000
1001
,
0000
0000
0000
0000
0000
0001
0000
2000
,
0000
0000
0000
3000
,
0100
1000
0100
0000
,
0010
0000
0001
0000
,
0100
0001
0100
0000
,
0010
1000
0010
0000
,
1000
0100
1000
0000
,
0001
0000
0010
0000
,
0001
0100
0001
0000
,
0020
0000
0000
0030
,
0002
0000
0003
0001
,
1000
0000
1000
0000
,
0002
0000
0003
0001
,
0010
0000
0010
0000
,
0002
0000
0003
0001
,
0100
0000
0100
0000
,
0002
0000
0003
0001
,
2000
0000
0000
3000
,
1001
1000
0000
1000
,
0000
0100
0000
1000
,
0000
0010
0000
0010
,
0000
0100
0000
0001
,
0000
0100
0000
0100
,
0000
0010
0000
1000
,
0000
0001
0000
0001
,
0000
1000
0000
1000
0000
1000
0000
0000
,
0000
0001
0000
0001
,
0000
0100
0000
0001
,
0000
0010
0000
0010
,
0000
0100
0000
1000
,
0000
0100
0000
0100
,
0000
1000
0000
0001
,
0000
0010
0000
0010
,
0000
0002
0000
2003
,
0000
3001
0000
0001
,
0100
0010
0000
0100
,
0010
1000
0000
0010
,
1000
0200
0000
0000
,
0300
1000
0000
1000
,
0100
0010
0000
0100
,
0010
0001
0000
1000
,
0001
0020
0000
0230
,
0000
1300
0000
0001
,
1000
0010
0000
1000
,
0010
0100
0000
0100
,
0001
2002
0000
0000
,
3003
0001
0000
1000
,
0001
0010
0000
0001
,
0010
0100
0000
0100
,
1000
0010
0000
0220
,
0000
0330
0000
0000
0000
0000
0000
0000
;

//---------------dance-single - ----------------
#NOTEDATA:;
#CHARTNAME:;
#STEPSTYPE:dance-single;
#DESCRIPTION:;
#CHARTSTYLE:;
#DIFFICULTY:Medium;
#METER:6;
#RADARVALUES:0.421731,0.437467,0.040002,0.256010,0.056002,332.000000,5.000000,32.000000,0.000000,0.000000,0.000000,0.000000,0.000000,0.421731,0.437467,0.040002,0.256010,0.056002,332.000000,5.000000,32.000000,0.000000,0.000000,0.000000,0.000000,0.000000;
#CREDIT:;
#NOTES:
0000
0000
0000
0000
,
0000
0000
0000
0000
,
0000
0000
0000
0000
,
0000
0000
0000
0000
,
1000
0001
0010
0100
,
1000
0000
0001
0000
0100
0010
0100
0000
,
0001
1000
0010
0100
,
0001
0100
0001
0000
1000
0100
1000
0000
,
1000
0001
0100
0010
,
1000
0000
0100
0000
0010
0100
0010
0000
,
0001
1000
0100
0010
,
0001
0010
0001
0000
1000
0010
1000
0000
,
0002
0000
0000
0100
0000
0000
0103
0000
,
2000
0000
0000
0010
0000
0000
3010
0000
,
0200
0000
0000
0001
0000
0000
0301
0000
,
0020
0030
0200
0300
,
2000
0000
0000
0100
0000
0000
3100
0000
,
0002
0000
0000
1000
0000
0000
0103
0000
,
0020
0000
0000
0100
0000
0030
0100
0020
,
0000
0000
0030
1001
,
0001
0100
0010
0100
,
0001
0010
0100
0010
,
0001
0100
0010
1000
,
0002
0000
0000
0103
,
1000
0100
0010
0100
,
1000
0010
0100
0001
,
1000
0010
0100
0010
,
2000
0000
3002
0000
,
0013
0000
0000
0000
0000
0000
0100
0000
0000
0000
1000
0000
0000
0100
0000
0000
,
0010
0000
0001
0100
0000
0100
0000
0010
,
0000
0000
0010
0000
1000
0000
0001
0100
,
0010
0000
1000
0000
0001
0000
0010
0100
,
1000
0000
1000
0001
0010
0000
0010
0100
,
0000
0100
1000
0001
0000
2000
0000
3020
,
0000
0000
0000
0000
0130
0001
1000
0001
,
0000
0011
0110
1100
,
0200
0000
0000
1300
0000
0001
1000
0000
,
0001
0100
1000
0100
,
0002
0000
0000
0013
0000
0010
0100
0000
,
2000
0000
0000
3001
0000
1000
0010
0000
,
0200
0000
0000
0301
0000
1000
0001
0000
,
1000
0100
0001
0100
,
2000
0000
0000
3010
0000
0010
0100
0000
,
0002
0000
0000
0003
,
1000
0001
0100
0010
,
1000
0000
0001
0000
0010
0100
0010
0000
,
0001
1000
0100
0010
,
0001
0100
0001
0000
1000
0100
1000
0000
,
1000
0001
0010
0100
,
1000
0000
0010
0000
0100
0010
0100
0000
,
0001
1000
0010
0100
,
0001
0010
0001
0000
1000
0010
1000
0000
,
0110
0000
1000
0000
0100
1000
0001
0000
,
0010
0000
0001
0000
0100
0001
1000
0000
,
0010
0000
1000
0000
0001
1000
0010
0000
,
0100
0000
0001
0000
1000
0001
0010
0000
,
0010
0100
1000
0000
1000
0000
0100
0000
,
0100
0010
0001
0000
0001
0000
0100
0000
,
0100
0010
0000
0010
0000
1000
0000
0001
,
0000
0010
0000
0100
0000
2000
0000
0000
,
3000
0000
0002
0000
0000
0000
0003
0001
,
0000
0100
0000
0000
0020
0000
0000
0000
0000
0000
0000
0000
0030
0000
0010
0000
,
0000
1000
0000
0000
0100
0000
0000
1000
0000
0000
0001
0000
0000
0000
0001
0000
,
0000
0010
0000
0000
0001
0000
0000
0100
0000
0000
1000
0000
0000
0000
0100
0000
,
0000
0010
0000
0000
1000
0000
0000
0001
0000
0000
0001
0000
0000
0000
0010
0000
,
0000
0100
0000
0000
2000
0000
0000
0000
0000
0000
0000
0000
3000
0000
0001
0000
,
0000
1000
0000
0000
0010
0000
0000
0100
0000
0000
0002
0000
0000
0000
0000
0000
,
0003
0100
0020
0000
0030
0010
2000
0000
,
3000
0000
1000
0000
0100
0000
0010
0100
,
1000
0000
0001
0000
0100
0000
0001
0100
,
0010
1000
0100
0001
,
0100
0020
0000
0000
,
0130
0000
1000
0000
0010
0000
0100
0001
,
1000
0000
0001
0000
0010
0000
0100
1000
,
0001
1000
0100
0000
1000
0000
0001
0000
,
0100
0020
0000
0230
,
0000
0000
0301
0000
0010
0000
0001
1000
,
0100
0000
1000
0010
1000
0000
0010
0100
,
0010
0000
0000
0000
1000
0000
0000
0000
0001
0000
0000
0100
0000
0000
0001
0000
,
0000
1000
0000
0000
0020
0000
0000
0000
0000
0000
0000
0000
0000
0000
0000
0000
,
0130
0000
1000
0000
0010
0000
1000
0001
,
0100
0000
0001
0010
0001
0000
0010
0100
,
1000
0001
0100
0010
,
1000
0000
0010
0000
0200
0000
0000
0000
0300
0000
0001
0000
0010
0000
0000
0010
,
0000
0010
0000
0000
0000
0000
0000
0000
;

//---------------dance-single - ----------------
#NOTEDATA:;
#CHARTNAME:;
#STEPSTYPE:dance-single;
#DESCRIPTION:;
#CHARTSTYLE:;
#DIFFICULTY:Challenge;
#METER:10;
#RADARVALUES:0.739458,0.740330,0.296012,0.240010,0.456018,580.000000,37.000000,30.000000,0.000000,0.000000,0.000000,0.000000,0.000000,0.739458,0.740330,0.296012,0.240010,0.456018,580.000000,37.000000,30.000000,0.000000,0.000000,0.000000,0.000000,0.000000;
#CREDIT:;
#NOTES:
0000
0000
0000
0000
,
0000
0000
0000
0000
,
0000
0000
0000
0000
,
0000
0000
0000
0000
,
1000
0000
0000
0001
0000
0000
1000
0000
0100
0000
0010
0000
0001
0000
0000
0000
0010
0000
0000
0000
0100
0000
0000
0000
,
1000
0001
1000
0010
0100
0001
0010
0100
,
1000
0000
0000
0001
0000
0000
1000
0000
0100
0000
0010
0000
0001
0000
0000
0000
0010
0000
0000
0000
0100
0000
0010
0000
,
0001
0010
1000
0010
0001
0100
1000
0100
,
0001
0000
0000
1000
0000
0000
0001
0000
0100
0000
0010
0000
1000
0000
0000
0000
0010
0000
0000
0000
0100
0000
0000
0000
,
0001
1000
0001
0010
0100
1000
0010
0100
,
0001
0000
0000
1000
0000
0000
0001
0000
0100
0000
0010
0000
1000
0000
0000
0000
0010
0000
0000
0000
0100
0000
0010
0000
,
1000
0010
1000
0100
0010
0001
0100
0001
,
1000
0100
1000
1001
0000
0001
0011
0000
,
0010
0001
0100
0101
0000
0100
0010
1000
,
0010
0100
0001
1001
0000
1000
1010
0000
,
1000
0000
0100
0000
0010
0000
0001
0010
0001
0000
0100
0000
0010
0000
1000
0000
,
0001
0100
0010
0110
0000
1000
1001
0000
,
0001
0010
0100
0110
0000
0010
0001
1000
,
0020
0000
0000
0230
0000
0000
0301
1000
,
0001
1000
0001
0000
0100
0001
0100
0000
0010
1000
0010
0000
1000
0001
1000
0000
,
0001
0000
0100
0000
0010
0000
1000
0001
1000
0000
0100
0000
0010
0001
0010
0000
,
0100
0000
0010
0000
0001
0000
1000
0100
0010
0000
0010
0100
1000
0000
0001
0000
,
1000
0000
0100
0000
0010
0000
0001
0010
0000
0000
1001
0000
0000
0101
0000
0000
,
2010
0000
0001
0000
0100
0001
3001
0000
,
1000
0000
0010
0000
0100
0000
0001
1000
0001
0000
0010
0000
0100
1000
0100
0000
,
0010
0000
0001
0010
0001
0000
1000
0000
0010
0000
1000
0010
1000
0000
0001
0000
,
0100
0000
0010
1000
0001
0000
0100
0000
0010
0000
1000
0000
0001
0000
0010
0000
,
0200
0000
0000
0000
0300
0000
0100
1000
0020
0000
0000
0000
0000
0000
0000
0000
,
1030
0000
1100
0100
0000
1000
0100
0010
,
0001
0000
0011
0010
0000
0010
0100
1000
,
0001
0000
0101
0100
0000
0001
0100
0010
,
1000
0000
1000
0010
0100
0001
1000
0100
,
0010
0000
0000
0100
0000
0000
0010
0000
0001
0000
1000
0000
1000
0000
0001
0010
,
0001
0000
1000
0000
0100
1000
0001
0000
0010
0000
0001
1000
0010
0000
0200
0000
,
0000
0000
0310
0000
0010
0100
0001
1000
,
0000
1000
0020
0200
0000
0000
0330
0000
,
2000
0000
0000
0001
0000
0100
3100
0000
,
1000
0100
1000
0001
0000
0000
0001
0100
0001
1000
0000
0000
,
0002
0000
0000
0100
0000
1000
1003
0000
,
0020
0000
0000
0001
0000
0100
0130
0000
,
0002
0000
0000
1000
0000
0100
0103
0000
,
0001
0100
0010
1000
0000
0000
1000
0100
0010
0001
0000
0000
,
2000
0000
0000
0100
0000
0001
3001
0000
,
0020
0100
0001
1030
,
0001
0000
0000
1000
0000
0000
0001
0000
0100
0000
0010
0000
1000
0000
0000
0000
0010
0000
0000
0000
0100
0000
0000
0000
,
0001
1000
0001
0010
0100
1000
0010
0100
,
0001
0000
0000
1000
0000
0000
0001
0000
0100
0000
0010
0000
1000
0000
0000
0000
0010
0000
0000
0000
0100
0000
0010
0000
,
1000
0010
0001
0010
1000
0100
0001
0100
,
1000
0000
0000
0001
0000
0000
1000
0000
0100
0000
0010
0000
0001
0000
0000
0000
0010
0000
0000
0000
0100
0000
0000
0000
,
1000
0001
1000
0010
0100
0001
0010
0100
,
1000
0000
0000
0001
0000
0000
1000
0000
0100
0000
0010
0000
0001
0000
0000
0000
0010
0000
0000
0000
0100
0000
0010
0000
,
0001
0010
0001
0100
0010
1000
0100
1000
,
0020
0000
2030
0000
3001
0100
0001
0010
,
0200
0000
0000
0000
1300
0000
0001
0010
0000
0000
1001
0000
0000
0000
1000
0000
,
0010
0000
0100
0000
0001
0000
1000
0000
0010
0000
1000
0000
0100
0000
0010
0100
,
0000
0000
1000
0000
0001
0000
0010
0001
1000
0000
0010
0000
0100
0000
0001
0000
,
0100
0010
0000
0000
1000
0000
0001
0000
0100
0000
0010
0000
1000
0000
0001
0000
,
0010
0100
0000
1100
0000
1001
0000
0011
,
0000
1010
0000
0110
0000
0101
0000
1001
,
0000
1100
0000
0011
0000
0202
0000
0000
,
0303
0000
2000
0000
0000
0100
3000
0001
,
0010
0001
0000
0010
0002
0000
0000
0000
0000
0000
0100
0000
0003
0000
1000
0000
,
0010
1000
0010
0000
1000
0000
0000
0001
0100
0000
0010
0000
0000
0000
0110
0000
,
0000
0010
1000
0001
0100
0000
0000
0001
0010
0000
0100
0000
0000
0000
0110
0000
,
0000
1100
0000
0000
1002
0000
0000
0100
0000
0000
0100
0000
0003
0000
1000
0000
,
0000
2000
0000
0000
0010
0000
0000
0000
0000
0000
0001
0000
3000
0000
0001
0000
,
0100
0010
0000
0000
1000
0000
0001
0010
0100
0000
0010
0001
0000
0000
1000
0010
,
0000
0000
0010
0100
0002
0000
0000
0000
0003
0000
1000
0001
0020
0000
0000
0000
,
0000
0000
0000
0000
0031
0000
0010
0000
0100
0000
1000
0001
1000
0000
0010
0000
,
0100
0001
0100
0000
0010
0000
0100
0000
0001
0000
1000
0010
0100
0000
0100
0010
,
1000
0000
0001
0000
1000
0000
0010
0000
0100
0000
0001
0100
0000
0000
1001
0000
,
0000
0011
0000
0000
2010
0000
0000
0000
0001
0000
0000
0000
0100
0000
0001
0000
,
3001
0000
0000
0000
1000
0000
0100
0000
0010
0000
0001
1000
0001
0000
0100
0000
,
0010
1000
0010
0000
0100
0000
0001
0100
0001
0000
1000
0000
0100
0000
1000
0010
,
1000
0000
0001
0000
0010
0000
0100
1000
0001
0000
0010
0000
0100
0000
1000
0000
,
0001
0000
0100
0000
0020
0000
0000
0000
0030
0000
0010
1000
0200
0000
0000
0000
,
0000
0000
0000
0000
1300
0000
0100
0000
0010
0000
0001
1000
0001
0000
0100
0000
,
0010
1000
0010
0000
0100
0000
0010
0000
1000
0000
0001
0010
0100
0000
0010
0100
,
1000
0000
0001
0000
0001
0000
0100
0000
0010
0000
1000
0010
0000
0000
1001
0000
,
0000
1100
0000
0000
0012
0000
0000
0000
1000
0000
0000
0000
0100
0000
1000
0000
,
1003
0000
0000
0000
0001
0000
0010
0000
0100
0000
1000
0001
1000
0000
0010
0000
,
0100
0001
0100
0000
0010
0000
1000
0010
1000
0000
0001
0000
0010
0001
1000
0000
,
0010
1000
0001
0000
0100
0000
0010
1000
0010
0000
1000
0001
0100
0000
0001
0010
,
0001
0000
0010
0100
2000
0000
0000
0000
3000
0000
0100
0010
0001
0000
0000
1100
,
0000
0011
0000
0000
0000
0000
0000
0000
;

//---------------dance-single - SINOBUZ SPECIAL----------------
#NOTEDATA:;
#CHARTNAME:;
#STEPSTYPE:dance-single;
#DESCRIPTION:SINOBUZ SPECIAL;
#CHARTSTYLE:;
#DIFFICULTY:Edit;
#METER:10;
#RADARVALUES:0.817176,1.000000,0.296012,0.240010,0.940038,648.000000,37.000000,30.000000,0.000000,0.000000,0.000000,0.000000,219.000000,0.817176,1.000000,0.296012,0.240010,0.940038,648.000000,37.000000,30.000000,0.000000,0.000000,0.000000,0.000000,219.000000;
#CREDIT:;
#OFFSET:-0.560200;
#BPMS:0.000000=176.000000
,136.750000=88.000000
,140.000000=176.000000
;
#STOPS:332.000000=1.028000
;
#DELAYS:;
#WARPS:2.000000=1.000000
,4.000000=8.000000
,12.750000=8.000000
,21.500000=8.000000
,30.250000=8.000000
,39.000000=8.000000
,47.750000=8.000000
,56.500000=8.000000
,65.250000=8.000000
,74.000000=8.000000
,82.750000=8.000000
,91.500000=8.000000
,100.250000=8.000000
,109.000000=8.000000
,117.750000=8.000000
,126.500000=10.250000
;
#TIMESIGNATURES:0.000000=4=4
;
#TICKCOUNTS:0.000000=4
;
#COMBOS:0.000000=1
;
#SPEEDS:0.000000=1.000000=0.000000=0
,136.750000=0.250000=0.000000=0
,137.000000=1.000000=3.000000=0
,268.000000=0.800000=1.000000=0
,269.000000=1.000000=0.500000=0
,276.000000=0.800000=1.000000=0
,277.000000=1.000000=0.500000=0
,280.000000=1.250000=1.000000=0
,281.000000=1.000000=0.500000=0
,284.000000=0.800000=1.000000=0
,285.000000=1.000000=0.500000=0
,292.000000=0.800000=1.000000=0
,293.000000=1.000000=0.500000=0
,296.000000=1.200000=3.000000=0
,299.000000=1.000000=1.000000=0
,332.000000=1.500000=3.000000=0
;
#SCROLLS:0.000000=1.000000
;
#FAKES:;
#LABELS:0.000000=Song Start
;
#NOTES:
// measure 0
0000
0000
0000
0000
0000
0M00
0000
0000
,  // measure 1
0000
0000
0000
0000
,  // measure 2
0000
0000
0000
0000
,  // measure 3
0000
0000
0000
0000
M00M
M00M
M00M
M00M
0MM0
0MM0
0MM0
0MM0
0000
0000
0000
0000
,  // measure 4
0000
0000
0000
0000
,  // measure 5
0000
0000
0000
0000
0000
0000
0000
MMMM
M000
M000
MMMM
M000
M000
M000
MMMM
0000
,  // measure 6
0000
0000
0000
0000
,  // measure 7
0000
0000
0000
0000
0000
0000
0000
0000
0000
0000
M000
M000
M000
M000
M000
M000
,  // measure 8
M000
MMMM
0000
0000
0000
0000
0000
0000
0000
0000
0000
0000
0000
0000
0000
0000
,  // measure 9
0000
0000
0000
0000
0000
0000
0000
0000
0000
0000
0000
0000
0000
M000
M000
M000
,  // measure 10
M000
M000
M000
M000
MMMM
0000
0000
0000
0000
0000
0000
0000
0000
0000
0000
0000
,  // measure 11
0000
0000
0000
0000
,  // measure 12
MMMM
M00M
M00M
M00M
M00M
M00M
M00M
MMMM
0000
0000
0000
0000
0000
0000
0000
0000
,  // measure 13
0000
0000
0000
0000
,  // measure 14
0000
0000
0000
M00M
M00M
M00M
M00M
MMMM
MMMM
0MM0
0MM0
0000
0000
0000
0000
0000
,  // measure 15
0000
0000
0000
0000
,  // measure 16
0000
0000
0000
0000
0000
0000
MMMM
M000
M000
MMMM
000M
000M
000M
MMMM
0000
0000
,  // measure 17
0000
0000
0000
0000
,  // measure 18
0000
0000
0000
0000
0000
0000
0000
0000
0000
M00M
M0M0
M0M0
MM00
M000
M000
MM00
,  // measure 19
M0M0
M0M0
M00M
0000
0000
0000
0000
0000
0000
0000
0000
0000
0000
0000
0000
0000
,  // measure 20
0000
0000
0000
0000
0000
0000
0000
0000
0000
0000
0000
0000
MMMM
M000
M000
MMMM
,  // measure 21
M000
M000
M000
MMMM
0000
0000
0000
0000
0000
0000
0000
0000
0000
0000
0000
0000
,  // measure 22
0000
0000
0000
0000
0000
0000
0000
0000
0000
0000
0000
0000
0000
0000
0000
MMMM
,  // measure 23
MMMM
0MM0
0MM0
0MM0
0MM0
0MM0
0MM0
0000
0000
0000
0000
0000
0000
0000
0000
0000
,  // measure 24
0000
0000
0000
0000
,  // measure 25
0000
0000
MMMM
M000
M000
M000
M000
M000
M000
M000
MMMM
0000
0000
0000
0000
0000
,  // measure 26
0000
0000
0000
0000
,  // measure 27
0000
0000
0000
0000
0000
M00M
M00M
M00M
MMMM
MMMM
M00M
M00M
M00M
0000
0000
0000
,  // measure 28
0000
0000
0000
0000
,  // measure 29
0000
0000
0000
0000
M0M0
0M0M
M0M0
0M0M
,  // measure 30
0000
0000
0000
0000
,  // measure 31
0000
0000
0000
0000
0000
0000
0000
0000
0000
0000
0000
0M0M
0000
M0M0
0000
0M0M
,  // measure 32
0000
M0M0
0000
0000
0000
0000
0000
0000
0000
0000
0000
0000
0000
0000
0000
0000
,  // measure 33
0000
0000
0000
0000
,  // measure 34
0000
0000
0000
0000
,  // measure 35
0001
0010
0100
1000
0100
0010
0001
0000
0010
0000
0100
0000
,  // measure 36
1000
0001
0010
0001
1000
0010
1000
0001
0100
0001
1000
0100
,  // measure 37
1000
0010
0100
0001
0100
0010
1000
0000
0010
0000
0100
0000
,  // measure 38
0001
0100
1000
0100
0001
0010
1000
0010
,  // measure 39
0001
1000
0100
0010
0100
1000
0001
0000
0010
0000
0100
0000
,  // measure 40
1000
0100
1000
0100
0010
0100
0010
0001
0010
0001
0100
0010
,  // measure 41
1000
0001
0100
0010
0100
0001
1000
0000
0001
0000
0100
0010
,  // measure 42
1000
0010
0100
0000
0010
0100
0001
0000
0100
0001
0010
0000
0010
0001
1000
0100
,  // measure 43
1000
0100
1000
1001
0000
0001
0011
0000
,  // measure 44
0010
0001
0100
0101
0000
0100
0010
1000
,  // measure 45
0010
0100
0001
1001
0000
1000
1010
0000
,  // measure 46
1000
0000
0100
0000
0010
0000
0001
0010
0001
0000
0100
0000
0010
0000
1000
0000
,  // measure 47
0001
0100
0010
0110
0000
1000
1001
0000
,  // measure 48
0001
0010
0100
0110
0000
0010
0001
1000
,  // measure 49
0020
0000
0000
0230
0000
0000
0301
1000
,  // measure 50
0001
1000
0001
0000
0100
0001
0100
0000
0010
1000
0010
1000
0001
1000
0001
0000
,  // measure 51
0001
0000
0100
0000
0010
0000
1000
0001
1000
0000
0100
0000
0010
0001
0010
0000
,  // measure 52
0100
0000
0010
0000
0001
0000
1000
0100
0010
0000
0010
0100
1000
0000
0001
0000
,  // measure 53
1000
0000
0100
0000
0010
0000
0001
0010
0000
0000
1001
0000
0000
0101
0000
0000
,  // measure 54
2010
0001
0001
0000
0100
0001
3001
0000
,  // measure 55
1000
0000
0010
0000
0100
0000
0001
1000
0001
0000
0010
0000
0100
1000
0100
0000
,  // measure 56
0010
0000
0001
0010
0001
0000
1000
0000
0010
0000
1000
0010
1000
0000
0001
0000
,  // measure 57
0100
0000
0010
1000
0001
0000
0100
0000
0010
0000
1000
0000
0001
0000
0001
0010
,  // measure 58
0200
0000
0000
0000
0300
0000
0100
1000
0020
0000
0000
0000
0000
0000
0000
0000
,  // measure 59
1030
0000
1100
0100
0000
1000
0100
0010
,  // measure 60
0001
0000
0011
0010
0000
0010
0100
1000
,  // measure 61
0001
0000
0101
0100
0000
0001
0100
0010
,  // measure 62
1000
0000
1000
0010
0100
0001
1000
0100
,  // measure 63
0010
0000
0000
0100
0000
0000
0010
0000
0001
0000
1000
0001
1000
0000
0001
0010
,  // measure 64
0001
1000
0100
1000
0001
0100
0010
1000
0001
0000
0001
1000
0010
0000
0200
0000
,  // measure 65
0000
0000
0310
0000
0010
0100
0001
1000
,  // measure 66
0000
1000
0200
0020
0000
0000
0330
0000
,  // measure 67
2000
0000
0100
0001
0000
0001
3100
0000
,  // measure 68
1000
0000
0100
0000
1000
0000
0001
0000
0000
1000
0000
0000
0001
0000
0100
0000
0001
0000
1000
0000
0000
1000
0000
0000
,  // measure 69
0002
0000
0100
1000
0000
1000
0103
0000
,  // measure 70
0020
0000
1000
0100
0000
0100
1030
0000
,  // measure 71
0002
0000
0100
1000
0000
0100
0103
0000
,  // measure 72
1000
0000
0100
0000
0010
0000
0001
0000
0000
1000
0000
0000
0001
0000
0100
0000
0010
0000
1000
0000
0000
0001
0000
0000
,  // measure 73
2000
0000
0100
0001
0000
0001
3100
0000
,  // measure 74
0020
0100
0001
1030
,  // measure 75
0001
0010
0100
1000
0100
0010
0001
0000
0010
0000
0010
0000
,  // measure 76
0001
1000
0010
0100
0001
0100
0010
1000
0001
0010
0100
1000
,  // measure 77
0001
1000
0100
0010
0100
1000
0001
0000
0100
0000
0010
0000
,  // measure 78
1000
0010
0001
0010
1000
0100
0001
0100
,  // measure 79
1000
0100
0010
0001
0010
0100
1000
0000
0001
0000
0100
0000
,  // measure 80
0001
1000
0010
0100
0001
1000
0001
0100
0010
1000
0001
0010
,  // measure 81
0100
1000
0001
0010
0001
0100
0010
0000
1000
0000
0100
1000
,  // measure 82
0001
0010
0100
0000
0010
0001
1000
0000
1000
0010
0100
0000
0001
0100
0001
1000
,  // measure 83
0020
0000
2030
0000
3001
0100
0001
0010
,  // measure 84
0200
0000
0000
0000
1300
0000
0001
0010
0000
0000
1001
0000
0000
0000
1000
0000
,  // measure 85
0010
0000
0100
0000
0001
0000
1000
0000
0010
0000
1000
0000
0100
0000
0010
0100
,  // measure 86
0000
0000
1000
0000
0001
0000
0010
0001
1000
0000
0010
0000
0100
0000
0001
0000
,  // measure 87
0100
0010
0000
0000
1000
0000
0001
0000
0100
0000
0010
0000
1000
0000
0001
0000
,  // measure 88
0010
0100
0000
1100
1000
1001
0001
0011
,  // measure 89
0010
0110
0100
1100
1000
1001
0001
0101
,  // measure 90
0100
0110
0000
1010
0000
0202
0000
0000
,  // measure 91
0303
0000
2000
0000
0001
0100
3000
0001
,  // measure 92
0010
0001
0000
0010
0002
0000
0000
0000
1000
0000
0100
0000
0003
0000
1000
0000
,  // measure 93
0010
1000
0010
0000
1000
0000
0000
0001
0100
0000
0010
0000
0000
0000
0110
0000
,  // measure 94
0000
0010
1000
0001
0100
0000
0000
0001
0010
0000
0100
0000
0000
0000
0110
0000
,  // measure 95
0000
1100
0000
0000
1002
0000
0000
0100
0000
0000
0100
0000
0003
0000
1000
0000
,  // measure 96
0000
2000
0000
0000
0010
0000
0000
0000
0010
0000
0001
0000
3000
0000
0001
0000
,  // measure 97
0100
0010
0000
0000
1000
0000
0001
0010
0100
0000
0010
0001
0000
0000
1000
0010
,  // measure 98
0000
0000
0010
0100
0002
0000
0000
0000
0003
0000
1000
0001
0020
0000
0000
0000
,  // measure 99
0000
0000
0000
0000
0031
0000
0010
0000
0100
0000
1000
0001
1000
0000
0010
0000
,  // measure 100
0100
0001
0100
0000
0010
0000
0100
0000
0001
0000
1000
0010
0100
0000
0100
0010
,  // measure 101
1000
0000
0001
0000
1000
0000
0010
0000
0100
0000
0001
0100
0000
0000
1001
0000
,  // measure 102
0000
0011
0000
0000
2010
0000
0001
0000
0001
0000
0000
0000
0100
0000
0001
0000
,  // measure 103
3001
0000
0000
0000
1000
0000
0100
0000
0010
0000
0001
1000
0001
0000
0100
0000
,  // measure 104
0010
1000
0010
0000
0100
0000
0001
0100
0001
0000
1000
0000
0100
0000
1000
0010
,  // measure 105
1000
0000
0001
0000
0010
0000
0100
1000
0001
0000
0010
0000
0100
0000
1000
0000
,  // measure 106
0001
0000
0001
0100
0020
0000
0000
0000
0030
0000
0010
1000
0200
0000
0000
0000
,  // measure 107
0000
0000
0000
0000
1300
0100
1000
0000
0010
0000
0100
0001
0100
0000
0010
0000
,  // measure 108
1000
0001
0010
0000
0100
0010
0100
0000
1000
0000
0001
0010
0100
0000
0010
0100
,  // measure 109
1000
0001
1000
0000
0001
0000
0100
0000
0010
0000
1000
0010
0000
0000
1001
0000
,  // measure 110
0000
1100
0000
0000
0012
0000
1000
0000
1000
0000
0000
0000
0100
0000
1000
0000
,  // measure 111
1003
0000
0000
0000
0001
0010
0001
0000
0100
0000
0010
1000
0010
0000
0100
0000
,  // measure 112
0001
1000
0010
0000
1000
0001
1000
0000
0100
0000
0010
0001
0010
0001
1000
0000
,  // measure 113
0010
1000
0001
0000
0100
0010
1000
0000
0010
0000
1000
0001
0100
0000
0001
0010
,  // measure 114
0001
0000
0010
0100
2000
0000
0001
0000
3001
0000
1000
0010
0100
0000
0000
0101
,  // measure 115
0000
1010
0000
0000
0000
0000
0000
0000
;
