#TITLE:Set U Free feat. Kanae Asaba;
#SUBTITLE:;
#ARTIST:Y&Co.;
#TITLETRANSLIT:;
#SUBTITLETRANSLIT:;
#ARTISTTRANSLIT:;
#GENRE:;
#CREDIT:;
#MUSIC:[VIP2 Full Flavor] - Set U Free feat. Kanae Asaba.ogg;
#BANNER:[VIP2 Full Flavor] - Set U Free feat. Kanae Asaba.png;
#BACKGROUND:[VIP2 Full Flavor] - Set U Free feat. Kanae Asaba-bg.png;
#CDTITLE:;
#SAMPLESTART:69.420;
#SAMPLELENGTH:15.000;
#SELECTABLE:YES;
#OFFSET:0.856;
#BPMS:0.000=140.000
,144.000=193.000
,144.375=140.000
,144.750=202.000
,145.083=140.000
,146.000=189.000
,146.313=140.000
,147.000=280.000
,147.083=140.000
,147.125=280.000
,147.208=140.000
,147.250=280.000
,147.333=140.000
,147.375=280.000
,147.458=140.000
,147.500=280.000
,147.583=140.000
,147.625=280.000
,147.708=140.000
,147.750=280.000
,147.833=140.000
,147.875=280.000
,147.958=140.000
,189.000=280.000
,189.063=140.000
,189.250=280.000
,189.313=140.000
,189.500=280.000
,189.563=140.000
,189.750=280.000
,189.813=140.000
;
#STOPS:144.000=0.015
,144.125=0.015
,144.250=0.015
,144.750=0.011
,144.833=0.011
,144.917=0.011
,145.000=0.011
,146.000=0.007
,146.063=0.007
,146.125=0.007
,146.188=0.007
,146.250=0.007
,147.000=0.018
,147.125=0.018
,147.250=0.018
,147.375=0.018
,147.500=0.018
,147.625=0.018
,147.750=0.018
,147.875=0.018
,160.000=1.286
,189.000=0.013
,189.250=0.013
,189.500=0.013
,189.750=0.013
;
#DISPLAYBPM:140.000;
#BGCHANGES:;
#FGCHANGES:;

//--------------- dance-single - forcednature ----------------
#NOTES:
     dance-single:
     forcednature:
     Beginner:
     3:
     0,0,0,0,0:
0000
0000
0000
0000
,
0000
0000
0000
0000
,
0000
0000
0000
0000
,
0000
0000
0000
0000
,
0000
0000
0000
0000
,
0000
0000
0000
0000
,
0000
0000
0000
0000
,
0000
0000
0000
0000
,
0000
0000
0000
0000
,
1000
1000
0000
0000
,
0001
0001
0100
0100
,
0010
0010
0000
0000
,
1000
1000
0100
0100
,
0010
0010
0000
0000
,
0001
0001
1000
1000
,
0001
0001
0000
0000
,
0100
0100
0010
0010
,
1001
0000
0000
0000
,
0010
0010
0010
0010
,
1001
0000
0000
0000
,
0100
0100
0100
0100
,
1001
0000
0000
0000
,
0110
0000
0000
0000
,
1001
0000
0000
0000
,
0110
0000
0000
0000
,
1001
0000
1001
0000
,
0110
0000
0110
0000
,
1001
0000
1001
0000
,
0110
0000
0110
0000
,
1000
0001
1000
0001
,
0010
0100
0010
0100
,
1000
0001
1000
0001
,
0100
0010
0100
0010
,
0100
0000
0000
0100
0000
0000
0100
0000
0000
0100
0000
0000
0100
0000
0000
0100
,
0000
0000
0100
0000
0000
0100
0000
0000
0100
0000
0000
0100
0000
0000
0100
0000
,
0020
0000
0000
0030
,
0000
0000
0000
0000
,
2002
0000
0000
0000
,
0000
0000
0000
3003
,
0001
0000
0000
1000
0000
0000
0000
0000
,
0000
1000
0010
1000
,
0000
0001
0000
0010
,
0000
0100
1000
0001
,
0000
0100
0000
0010
,
0000
1000
0100
0001
,
0000
0100
0000
0010
,
0000
0001
0100
1000
,
0000
1001
0000
0110
,
0000
1000
0010
0001
,
0000
0010
1000
0100
,
0000
0010
0001
0100
,
0000
0001
0100
1000
,
0000
0100
0001
0010
,
0000
0100
1000
0010
,
0000
1000
0001
0010
,
0000
0100
1000
0001
,
0000
1001
0000
0010
,
0000
1000
0100
0001
,
0000
1001
0000
0100
,
0000
0001
0010
1000
,
0000
0110
0000
1000
,
0000
0010
0001
0100
,
0000
0110
0000
0001
,
0000
0010
1000
0100
,
0000
1001
0000
0000
;

//--------------- dance-single - forcednature ----------------
#NOTES:
     dance-single:
     forcednature:
     Easy:
     7:
     0,0,0,0,0:
0000
0000
0000
0000
,
0000
0000
0000
0000
,
0000
0000
0000
0000
,
0000
0000
0000
0000
,
0000
0000
0000
0000
,
0000
0000
0000
0000
,
0000
0000
0000
0000
,
0000
0000
0000
0000
,
0000
0000
0000
0000
,
1000
0000
0000
0000
0001
0000
0000
0000
0000
0000
0100
0000
0000
0001
0000
0000
,
1000
0000
0100
0010
0000
0001
0000
0100
,
0010
0000
0000
0000
1000
0000
0000
0000
0000
0000
0001
0000
0000
0100
0000
0000
,
0010
0000
1000
0001
0000
1000
0000
0100
,
1000
0000
0000
0000
0001
0000
0000
0000
0000
0000
0100
0000
0000
0001
0000
0000
,
0010
0000
0100
1000
0000
0010
0000
0100
,
0001
0000
0000
0000
1000
0000
0000
0000
0000
0000
0010
0000
0000
1000
0000
0000
,
0001
0000
0000
0000
0000
0000
0000
0000
0000
0000
0000
0000
0000
0000
0000
0000
0000
0000
0000
0000
0000
0000
0000
0000
0000
0000
0000
0000
0000
0000
0000
0000
0000
0000
0000
0000
0000
0000
0000
0000
0000
0000
0000
0000
0000
0000
0000
0000
0200
0000
0000
0000
0000
0000
0000
0000
0000
0000
0000
0000
0000
0000
0000
0000
0000
0000
0000
0000
0000
0000
0000
0000
0000
0000
0000
0000
0000
0000
0000
0000
0000
0000
0000
0000
0000
0000
0000
0000
0000
0000
0000
0000
0000
0000
0000
0000
0020
0000
0000
0000
0000
0000
0000
0000
0000
0000
0000
0000
0000
0000
0000
0000
0000
0000
0000
0000
0000
0000
0000
0000
0300
0000
0000
0000
0000
0000
0000
0000
0000
0000
0000
0000
0000
0000
0000
0000
0000
0000
0000
0000
0000
0000
0000
0000
2030
0000
0000
0000
0000
0000
0000
0000
0000
0000
0000
0000
0000
0000
0000
0000
0000
0000
0000
0000
0000
0000
0000
0000
0002
0000
0000
0000
0000
0000
0000
0000
0000
0000
0000
0000
3000
0000
0000
0000
0000
0000
0000
0000
0000
0000
0000
0003
,
1001
0000
0000
0000
1000
0000
0000
0000
0000
0000
0100
0000
0000
0010
0000
0000
,
0001
0000
0000
0000
0100
0000
0101
0000
0000
0000
0010
0000
0000
0010
0000
0000
,
1001
0000
0000
0000
1000
0000
0000
0000
0000
0000
0001
0000
0000
0010
0000
0000
,
0100
0000
1000
0001
0000
0100
0010
0000
,
1001
0000
0000
0000
0001
0000
0000
0000
0000
0000
0010
0000
0000
0100
0000
0000
,
1000
0000
0000
0000
0001
0000
0000
0000
0000
0000
1000
0000
0000
0010
0000
0000
,
0100
0000
0000
0000
0001
0000
0000
0000
0000
0000
1000
0000
0000
0100
0000
0000
,
0010
0000
0000
0000
0001
0000
0000
0000
0000
0000
1000
0000
0000
0001
0000
0000
,
0100
0100
0100
0000
0010
0010
0010
0000
,
0100
0100
0100
0000
0010
0010
0010
0000
,
1000
1000
1000
0000
0001
0001
0001
0000
,
1000
1000
1000
0000
0001
0001
0001
0000
,
1000
0100
1000
0100
0001
0100
0001
0100
,
1000
0100
1000
0100
0001
0100
0001
0100
,
1000
0010
0001
0010
1000
0010
0001
0010
,
1000
0001
1000
0001
1000
0001
1000
0001
,
1000
0100
0000
0010
0001
0000
1000
0100
0000
0010
0001
0000
0100
0001
0000
1000
,
0010
0000
0100
0001
0000
1000
0010
0000
1000
0000
0001
0000
1000
0001
1000
0000
,
0001
0001
0002
1000
1000
2000
0000
0000
,
0000
0000
0000
0000
0000
0000
0000
3003
,
0001
0100
0010
0000
1000
0100
0010
0000
,
0001
0010
0100
0000
1000
0010
0100
0000
,
0010
0010
0010
0100
0100
0100
0000
0000
,
0000
0000
1000
0001
0100
0000
0010
1000
,
0000
0001
0000
0000
1000
0000
0100
0000
0010
0000
0100
0000
1000
0000
0001
0000
,
0000
0010
0001
1000
0001
0000
0100
0001
,
0000
1000
0000
0000
0010
0000
1000
0000
0001
0000
1000
0000
0100
0000
0010
0000
,
0000
0001
0100
0001
1000
0000
0010
1000
,
0000
0100
0000
0000
1000
0000
0001
0000
0010
0000
0100
0000
1000
0000
0001
0000
,
0000
0100
0001
1000
0010
0000
1000
0001
,
0000
0100
0000
0000
0001
0000
1000
0000
0100
0000
0010
0000
0001
0000
0100
0000
,
0010
0000
1000
0100
1000
0100
0001
0100
,
0001
0100
1000
0010
1000
0010
0001
0010
,
0001
0010
1000
0010
1000
0010
1000
0100
,
1000
0100
0010
0001
0010
0001
0100
0001
,
0100
0001
0100
0001
1000
0010
0100
0001
,
1000
0010
1000
0100
0010
0001
1000
0100
,
0010
0001
0100
0010
1000
0001
0100
0010
,
1000
0001
0100
0000
0110
0000
1001
0000
,
0110
0000
0000
0000
0001
0100
0000
0000
0100
1000
0000
0000
1000
0100
0000
0000
,
0100
0001
0000
0000
0001
0010
0000
0000
0010
1000
0000
0000
1000
0010
0000
0000
,
0010
0001
0000
0000
0001
0100
0000
0000
0100
0010
0000
0000
0010
1000
0000
0000
,
1000
0001
0000
0000
0001
0010
0000
0000
0010
0100
0000
0000
0100
1000
0000
0000
,
1000
0010
0000
0000
0010
0100
0000
0000
0100
0001
0000
0000
0001
1000
0000
0000
,
1000
0001
0000
0000
0001
0010
0000
0000
0010
0100
0000
0000
0100
1000
0000
0000
,
1000
0010
0000
0000
0110
0000
0000
0000
1001
0000
0000
0000
0001
0000
1000
0000
,
0010
0000
0100
0000
0010
0000
0100
0000
0000
0001
0000
0000
1000
0000
0000
0010
0000
0000
1000
0000
0000
0100
0000
0000
,
0010
0001
0010
0001
0100
0000
0000
0000
0000
0000
0000
0000
0000
0000
0000
0000
;

//--------------- dance-single - forcednature ----------------
#NOTES:
     dance-single:
     forcednature:
     Medium:
     9:
     0,0,0,0,0:
0000
0000
0000
0000
,
0000
0000
0000
0000
,
0000
0000
0000
0000
,
0000
0000
0000
0000
,
0000
0000
0000
0000
,
0000
0000
0000
0000
,
0000
0000
0000
0000
,
0000
0000
0000
0000
,
0000
0000
0000
0000
,
1000
0000
0001
0000
0100
0000
0000
0000
0000
0000
0010
0000
0000
1000
0000
0000
,
0001
0010
0100
0010
0001
1000
0000
0001
,
0100
0000
0001
0000
1000
0000
0000
0000
0000
0000
0010
0000
0000
1000
0000
0000
,
0001
0010
0100
1000
0100
0010
0000
0001
,
1000
0000
0001
0000
0100
0000
0000
0000
0000
0000
0010
0000
0000
1000
0000
0000
,
0001
0010
0100
1000
0100
0010
0000
0100
,
1000
0000
0001
0000
0010
0000
0000
0000
0000
0000
0001
0000
0000
1000
0000
0000
,
0010
0100
0001
0100
0010
1000
0001
0010
,
0100
0000
1000
0000
0001
0000
0000
0000
0000
0000
1000
0000
0000
0010
0000
0000
,
0100
0000
0001
0000
0010
0000
0110
0000
0000
0000
1001
0000
0000
0110
0000
0000
,
1001
0000
1000
0000
0010
0000
0000
0000
0000
0000
1000
0000
0000
0100
0000
0000
,
0010
0001
1000
0001
0100
0010
1000
0100
,
0010
0000
0010
0000
0010
0000
0000
0000
0000
0000
0100
0000
0000
0100
0000
0000
,
0010
0000
0010
0000
0010
0000
0000
0000
0000
0000
0100
0000
0000
0100
0000
0000
,
1000
0000
1000
0000
1000
0000
0000
0000
0000
0000
0001
0000
0000
0001
0000
0000
,
1000
0000
1000
0000
1000
0000
0000
0000
0000
0000
0001
0000
0000
0001
0000
0000
,
0100
0000
0001
0000
0100
0000
0000
0000
0010
1000
0010
1000
0010
1000
0010
1000
,
0100
0000
1000
0000
0100
0000
0000
0000
0010
0001
0010
0001
0010
0001
0010
0001
,
0100
0000
0001
0000
0100
0000
0000
0000
0001
1000
0001
1000
0001
1000
0001
1000
,
0001
0000
0100
0000
0001
0000
0000
0000
1000
0001
1000
0001
1000
0001
1000
0001
,
1000
0000
0100
0000
1000
0100
1000
0100
1000
0000
0001
0000
0010
0001
0010
0001
,
0010
0000
0001
0000
1000
0001
1000
0001
1000
0000
0010
0000
0100
0010
0100
0010
,
0100
0000
0010
1000
0100
0000
0010
0001
0100
0000
0010
1000
0100
0000
0010
0001
,
0100
0010
0100
0010
0100
0010
0100
0010
,
1000
0100
0000
0010
0100
0000
0010
0001
0000
1000
0001
0000
0100
0001
0000
0100
,
0010
0000
1000
0010
0000
1000
0001
0000
1000
0100
0000
0010
0001
0000
1000
0001
,
0100
0100
0200
0010
0010
0020
0000
0000
,
0000
0000
0000
0330
,
1001
0001
0100
0010
1000
0100
0010
0100
,
1000
0001
0010
0100
1000
0001
0100
0010
,
1000
0001
1000
0001
1000
0000
0001
1000
0001
1000
0001
0000
0000
0000
0000
0000
,
0000
0000
0000
0000
1000
0000
0100
0000
1000
0000
0000
0000
0001
0000
0010
0001
,
0000
1000
0001
0000
0100
0000
0001
0000
1000
0000
0010
0000
1000
0000
0100
0000
,
0000
0000
0010
0000
0100
0000
1000
0000
0001
0000
0000
0000
0010
0000
0001
1000
,
0000
0001
0100
0000
0010
0000
1000
0000
0001
0000
0010
0000
0001
0000
1000
0000
,
0000
0000
0100
0000
1000
0000
0001
0000
0100
0000
0000
0000
0010
0000
1000
0100
,
0000
0010
0100
0000
1000
0000
0001
0000
0010
0000
0001
0000
1000
0000
0001
0000
,
0000
0000
0100
0000
0001
0000
1000
0000
0010
0000
0000
0000
1000
0000
0001
0010
,
0000
0100
1000
0000
0001
0000
0100
0000
0001
0000
1000
0000
0010
0000
1000
0000
,
0001
0000
1000
0001
0101
0000
0001
0010
,
0110
0000
0100
1000
1001
0000
1000
0010
,
1010
0000
1000
0100
0110
0000
0010
0001
,
1001
0000
0001
0100
0110
0000
0010
1000
,
1001
0000
1000
0100
1100
0000
0001
0010
,
0011
0000
0001
0100
0101
0000
1000
0010
,
1010
0000
0001
0010
0110
0000
1000
0010
,
0110
1100
1001
0101
,
1001
0000
1000
0100
0110
0100
1000
0001
,
0101
0001
1000
0010
1001
1000
0001
0010
,
0110
0100
1000
0001
0011
0001
0100
0010
,
0110
0010
1000
0100
1100
1000
0001
0100
,
0110
0010
1000
0100
1001
0001
0010
0001
,
1001
0001
0100
0010
1001
1000
0100
0010
,
0110
0100
1000
0001
1000
0001
0010
0010
,
0100
0000
0010
0000
0100
0000
1000
0000
0000
0001
0000
0000
1000
0000
0000
0010
0000
0000
1000
0000
0000
0001
0000
0000
,
0010
0100
0010
0100
0010
0000
0000
0000
0000
0000
0000
0000
0000
0000
0000
0000
;

//--------------- dance-single - forcednature ----------------
#NOTES:
     dance-single:
     forcednature:
     Hard:
     11:
     0,0,0,0,0:
0000
0000
0000
0000
,
0000
0000
0000
0000
,
0000
0000
0000
0000
,
0000
0000
0000
0000
,
0000
0000
0000
0000
,
0000
0000
0000
0000
,
0000
0000
0000
0000
,
0000
0000
0000
0000
,
0000
0000
0000
0000
,
1000
0100
1000
0100
1000
0000
0000
0000
0000
0000
0001
0100
0000
0010
1000
0000
,
0001
0010
0001
0010
0001
0000
1000
0010
1000
0010
1000
0000
0000
0001
0100
0001
,
0100
0001
0100
0001
0100
0000
0000
0000
0000
0000
0010
1000
0000
0001
0010
0000
,
0100
1000
0100
1000
0100
0000
0010
0001
0010
0001
0010
0000
0000
0001
1000
0001
,
1000
0001
1000
0001
1000
0000
0000
0000
0000
0000
0010
1000
0000
0001
0100
0000
,
0001
0010
0001
0010
0001
0000
1000
0100
1000
0100
1000
0000
0000
0001
0100
0001
,
0100
0001
0100
0001
0100
0000
0000
0000
0000
0000
0010
1000
0000
0001
0010
0000
,
0100
0000
0000
1000
0000
0000
0100
0000
0000
1000
0000
0000
0200
0000
0000
0000
0000
0000
0000
0000
0000
0000
0000
0000
0020
0000
0000
0000
0300
0000
0000
0000
0000
0000
0000
0000
0002
0000
0030
0000
0000
0000
2000
0000
0003
0000
0000
0000
,
3010
1000
0010
1000
0010
0000
0000
0000
0000
0000
0100
0001
0000
1000
0100
0000
,
0010
0001
0010
0001
0010
0000
0011
0000
0000
0000
1001
0000
0000
1100
0000
0000
,
1000
0010
1000
0010
1000
0000
0000
0000
0000
0000
0001
0100
0000
0001
1000
0000
,
0100
1000
0100
1000
0100
0000
0010
0000
0010
0000
0010
0000
0100
0000
1000
0001
,
0100
0001
0100
0001
0100
0000
0000
0000
0000
0000
0010
1000
0000
0001
0010
0000
,
0100
1000
0100
1000
0100
0000
0000
0000
0000
0000
1000
0001
0000
0100
0001
0000
,
1000
0010
1000
0010
1000
0000
0000
0000
0000
0000
0001
0010
0000
0100
1000
0000
,
0100
0010
0100
0010
0100
0000
0000
0000
0000
0000
1000
0001
0000
1000
0001
0000
,
1000
0100
1000
0100
1000
0000
0000
0000
0001
0010
0100
0010
0001
0010
0100
0010
,
0001
0100
0001
0100
0001
0000
0000
0000
1000
0010
0100
0010
1000
0010
0100
0010
,
1000
0100
1000
0100
1000
0000
0000
0000
0010
0100
0001
0100
0010
0100
0001
0100
,
0001
0010
0001
0010
0001
0000
0000
0000
1000
0100
0010
0100
1000
0100
0010
0100
,
1000
0010
1000
0010
1000
0001
1000
0001
0010
0001
0010
0001
1000
0001
1000
0001
,
1000
0100
1000
0100
1000
0001
1000
0001
0100
0001
0100
0001
1000
0001
1000
0001
,
1000
0100
0010
0001
1000
0010
0100
0001
1000
0100
0010
0001
1000
0010
0100
0001
,
1000
0001
1000
0001
0100
0010
0100
0010
1000
0001
1000
0001
0010
0100
0010
0100
,
1000
0100
0010
0001
0100
0010
1000
0100
0010
0001
0100
0010
1000
0100
0010
0001
,
0100
0001
0100
0001
1000
0100
1000
0100
0010
0001
0010
0001
1000
0010
1000
0010
,
0100
0001
0100
0001
0100
0000
0010
1000
0010
1000
0010
0000
1000
0001
1000
0000
,
0001
0000
0000
0000
0000
0000
0010
0000
0000
0100
0000
0000
0000
0000
0000
1000
0000
0000
0001
0000
0000
0000
0000
0000
0100
0000
0000
0010
0000
0000
0100
0000
0000
0000
0000
0000
0020
0000
0000
0000
0000
0000
0200
0000
0000
0000
0330
0000
,
0110
0000
0001
0000
1000
0000
0100
1000
0100
1000
0100
0000
0010
0001
0010
0001
,
0010
0000
0001
1000
0001
1000
0001
0000
1000
0010
1000
0010
1000
0000
0001
0100
,
0001
0010
0001
0010
0001
0000
1000
0100
1000
0100
1000
0000
0000
0000
0000
0000
,
0000
0000
0000
0000
0001
0100
0001
0100
0001
0000
0000
0000
0000
0000
1000
0100
,
0000
0010
0001
0000
1000
0010
1000
0010
1000
0000
0001
0100
0001
0100
0001
0000
,
0000
0000
1000
0001
1000
0001
1000
0001
1000
0000
0000
0000
0000
0000
0100
1000
,
0000
0001
0010
0000
0001
1000
0001
1000
0001
0000
1000
0010
1000
0010
1000
0000
,
0000
0000
0001
0100
0001
0100
0001
0100
0001
0000
0000
0000
0000
0000
1000
0100
,
0000
0010
0001
0000
1000
0010
1000
0010
1000
0000
0001
0100
0001
0100
0001
0000
,
0000
0000
1000
0001
1000
0001
1000
0001
1000
0000
0000
0000
0000
0000
0001
0010
,
0000
0100
1000
0000
0001
0100
0001
0100
0020
0000
0000
1030
0001
1000
0100
0010
,
0001
0000
0000
0000
1000
0010
1000
0000
0001
0010
0001
0000
1000
0010
1000
0000
,
0001
0010
0001
0000
1000
0100
1000
0000
0001
0100
0001
0000
1000
0100
1000
0000
,
0001
0100
0001
0000
1000
0100
1000
0000
0010
0100
0010
0000
1000
0100
1000
0000
,
0010
0100
0010
0000
0100
0001
0100
0000
0001
0010
0001
0000
0100
0001
0100
0000
,
0001
0010
0001
0000
0100
1000
0100
0000
0010
0001
0010
0000
0100
1000
0100
0000
,
0010
0001
0010
0000
0001
0100
0001
0000
1000
0010
1000
0000
0001
0100
0001
0000
,
1000
0010
1000
0000
0001
1000
0001
0000
0100
0010
0100
0000
0001
1000
0001
0000
,
0100
0010
0100
0000
0001
0000
0000
0000
0110
0000
0000
0000
1010
0000
0000
0000
,
1001
0000
0000
0000
0001
0100
0010
0000
1000
0001
0010
0000
0100
1000
0001
0000
,
1000
0010
0100
0000
0001
0010
0100
0000
1000
0001
0100
0000
0001
1000
0100
0000
,
0010
0001
1000
0000
0001
0100
0010
0000
1000
0100
0010
0000
0100
1000
0001
0000
,
0010
0001
1000
0000
0001
0100
0010
0000
1000
0100
0010
0000
0100
1000
0001
0000
,
0010
0001
1000
0000
0001
0100
0001
0000
1000
0010
1000
0000
0001
0100
0010
0000
,
0100
0001
1000
0000
0100
1000
0001
0000
0010
0001
1000
0000
0010
1000
0100
0000
,
0010
0001
0100
0000
0010
1000
0010
0000
0100
0001
0100
0000
0010
0000
0010
0000
,
1000
0000
0000
0000
0001
0000
0000
0000
1000
0000
0000
0000
0001
0000
0000
0100
0000
0000
0001
0000
0000
0100
0000
0000
0010
0000
0000
0100
0000
0000
0010
0000
0000
0100
0000
0000
0010
0000
0000
1000
0000
0000
0010
0000
0000
1000
0000
0000
,
0001
1000
0001
1000
0100
0000
0000
0000
0000
0000
0000
0000
0000
0000
0000
0000
;

//--------------- dance-single - forcednature ----------------
#NOTES:
     dance-single:
     forcednature:
     Challenge:
     12:
     0,0,0,0,0:
0000
0000
0000
0000
,
0000
0000
0000
0000
,
0000
0000
0000
0000
,
0000
0000
0000
0000
,
0000
0000
0000
0000
,
0000
0000
0000
0000
,
0000
0000
0000
0000
,
0000
0000
0000
0000
,
0000
0000
0000
0000
,
0001
0010
0100
0010
0001
0000
0000
0000
0000
0000
0100
0001
0000
1000
0010
0000
,
1000
0001
0010
0100
1000
0000
0001
0100
0010
1000
0001
0000
0000
0100
0001
0010
,
0001
1000
0100
1000
0010
0000
0000
0000
0000
0000
0100
0001
0000
1000
0100
0000
,
0010
0001
1000
0100
0010
0000
0100
1000
0001
0100
0010
0000
0000
1000
0001
0100
,
0001
1000
0100
0010
0001
0000
0000
0000
0000
0000
0100
0001
0000
1000
0010
0000
,
0100
0001
1000
0010
1000
0000
0001
0010
0100
1000
0001
0000
0000
0100
0001
1000
,
0010
1000
0001
0010
0100
0000
0000
0000
0000
0000
1000
0100
0000
1000
0001
0000
,
0100
0001
0100
0010
1000
0001
1000
0100
0010
0001
0100
0001
1000
0010
1000
0000
,
0001
0100
0001
0010
0100
0000
0000
0000
0000
0000
1000
0100
0000
1000
0001
0000
,
0010
0001
1000
0100
1000
0000
0101
0000
0000
0000
1001
0000
0000
0110
0000
0000
,
1000
0001
0100
0010
1000
0000
0000
0000
0000
0000
0001
0010
0000
0100
1000
0000
,
0001
1000
0010
1000
0001
0000
0100
0000
0001
0000
0010
0000
0100
0000
1000
0100
,
1000
0001
0100
0001
1000
0000
0000
0000
0000
0000
0100
1000
0000
0001
0010
0000
,
0001
1000
0001
0100
0001
0000
0000
0000
0000
0000
1000
0100
0000
1000
0001
0000
,
0010
0001
0010
0100
1000
0000
0000
0000
0000
0000
0001
0100
0000
0001
0010
0000
,
0100
1000
0001
0100
0010
0000
0000
0000
0000
0000
1000
0001
0000
1000
0100
0000
,
0010
0000
0000
0001
0000
0000
1000
0000
0000
0001
0000
0000
0100
0000
0000
0001
0000
0000
1000
0000
0010
0000
1000
0000
0001
0000
0000
0010
0000
0000
0100
0000
0000
1000
0000
0000
0001
0000
0000
1000
0000
0000
0010
0000
0000
0100
0000
0000
,
0001
0000
0000
0000
0000
0000
1000
0000
0000
0000
0000
0000
0100
0000
0000
0000
0000
0000
0010
0000
0000
0000
0000
0000
0001
0000
0000
0000
0000
0000
1000
0000
0000
0000
0000
0000
0001
0000
0000
0000
0100
0000
0000
0000
0001
0000
0000
0000
1000
0000
0000
0000
0000
0000
0100
0000
0000
0000
0000
0000
1000
0000
0000
0000
0000
0000
0001
0000
0000
0000
0000
0000
0010
0000
0000
0000
0000
0000
0100
0000
0000
0000
0000
0000
1000
0000
0000
0001
0000
0000
1000
0000
0000
0000
0000
0000
,
0001
0000
0000
0100
0000
0000
0001
0000
0000
1000
0000
0000
0100
0000
0000
0010
0000
0000
0001
0000
1000
0000
0010
0000
1000
0000
0000
0001
0000
0000
0010
0000
0000
0100
0000
0000
0010
0000
0000
0001
0000
0000
0100
0000
0000
0010
0000
0000
,
1000
0000
0000
0000
0000
0000
0100
0000
0000
0000
0000
0000
0010
0000
0000
0000
0000
0000
0001
0000
0000
0000
0000
0000
1000
0000
0000
0000
0000
0000
0001
0000
0000
0000
0000
0000
0100
0000
0000
0000
0000
0000
0001
0000
0000
0000
0000
0000
1000
0000
0000
0000
0000
0000
0100
0000
0000
0000
0000
0000
1000
0000
0000
0000
0000
0000
0001
0000
0000
0000
0000
0000
0010
0000
0000
0000
0001
0000
0000
0000
0010
0000
0000
0000
0100
0000
0000
1000
0000
0000
0100
0000
0000
1000
0000
0000
,
0001
0100
0001
0100
0010
1000
0010
1000
0001
0100
0001
0100
0010
1000
0010
1000
,
0001
0000
0010
0000
0001
0000
0010
0000
0100
0000
1000
0000
0100
0000
1000
0000
0001
0000
0010
0000
0001
0000
0010
0000
0100
1000
0100
1000
0100
0000
1000
0000
,
0001
0100
0010
1000
0001
0010
0100
1000
0001
0100
0010
1000
0001
0010
0100
1000
,
0001
0000
0000
0100
0000
0000
0010
0000
1000
0000
0010
0000
1000
0000
0000
0100
0000
0000
0010
0000
0001
0000
0010
0000
0001
0000
0000
0010
0000
0000
0100
0000
1000
0000
0100
0000
1000
0000
0000
0010
0000
0000
0100
0000
0001
0000
0100
0000
,
0001
0100
0010
1000
0100
0010
0001
0100
0010
1000
0100
0010
0001
0100
0010
1000
,
0001
0000
1000
0000
0001
0000
1000
0000
0010
0000
1000
0000
0010
0000
1000
0000
0001
0000
0010
0000
0001
0000
0010
0000
0001
1000
0001
1000
0001
1000
0001
1000
,
0001
1000
0100
1000
0001
0000
1000
0001
0100
0001
1000
0000
0001
0010
0100
0000
,
2000
0000
3000
0000
0001
0000
0200
0000
0300
0000
0010
0000
1000
0000
0000
0000
0200
0000
0310
0000
0001
0000
1000
0000
0001
0010
0001
0010
0100
1000
0100
1000
,
0001
0010
0100
0010
0001
0000
1000
0010
0100
0010
1000
0000
0001
0100
0010
0100
,
0001
0000
1000
0100
0010
0100
1000
0000
0001
1000
0001
1000
0001
0000
1000
0001
,
1000
0100
0010
0100
1000
0000
0001
0100
0010
0100
0001
0000
1000
0001
1000
0000
,
0000
0000
0000
0000
1000
0100
1000
0010
1000
0000
0000
0000
0001
0000
0100
1000
,
0000
0100
0001
0000
1000
0100
0010
0100
1000
0000
0001
0010
0100
0010
0001
0000
,
0000
0000
0100
0001
1000
0010
1000
0001
0100
0000
0000
0000
0001
0000
1000
0100
,
0000
0001
0100
0000
1000
0010
1000
0001
0010
0000
0100
1000
0001
0100
0010
0000
,
0000
0000
1000
0010
1000
0001
1000
0100
0010
0000
0000
0000
0001
0000
1000
0010
,
0000
0001
0010
0000
1000
0001
0010
0100
1000
0000
0001
1000
0010
0100
0001
0000
,
0000
0000
1000
0100
0010
0100
1000
0001
0010
0000
0000
0000
0100
0000
1000
0010
,
0000
0000
0001
0000
0010
0000
0000
0000
1000
0000
0001
0000
1000
0000
0001
0000
0100
0001
0100
0001
0100
0000
0001
0000
0010
0000
0100
0000
1000
0000
0001
0000
,
1000
0100
0010
0000
0001
0010
0100
0000
1000
0010
0100
0000
0001
1000
0100
0000
,
0010
0001
1000
0000
0001
0100
0010
0000
1000
0100
0010
0000
0100
1000
0001
0000
,
0010
0001
1000
0000
0001
0100
0001
0000
1000
0010
0100
0000
0010
1000
0100
0000
,
0010
0001
1000
0000
0001
0100
0010
0000
1000
0100
0010
0000
0001
0010
0100
0000
,
1000
0010
0100
0000
0001
1000
0100
0000
1000
0001
0010
0000
0001
0100
0010
0000
,
1000
0100
0010
0000
0100
1000
0001
0000
0100
0001
1000
0000
0010
1000
0001
0000
,
0010
0001
1000
0000
0100
0010
0100
0000
1000
0001
0100
0000
0010
1000
0001
0000
,
0100
0001
1000
0000
0010
1000
0100
0000
0010
0000
0000
0001
0100
0000
0001
0010
,
0100
1000
0100
1000
0100
0010
0001
0000
0010
0100
1000
0000
0001
1000
0010
0000
,
1000
0001
0100
0000
0001
0010
0100
0000
1000
0100
0010
0000
0001
1000
0010
0000
,
1000
0001
0100
0000
0001
0010
0100
0000
1000
0010
0100
0000
0001
1000
0100
0000
,
0010
0001
1000
0000
0001
0100
0010
0000
1000
0100
0010
0000
0100
1000
0001
0000
,
1000
0010
1000
0000
0001
0010
0001
0000
1000
0100
0010
0000
0001
0010
0100
0000
,
1000
0001
0100
0000
0001
1000
0100
0000
1000
0001
0010
0000
0001
1000
0010
0000
,
1000
0100
0010
0000
0001
0100
0001
0000
1000
0010
1000
0000
0001
1000
0001
1000
,
0010
0000
0000
0000
0100
0000
0000
0000
0010
0000
0000
0000
1000
0000
0000
0100
0000
0000
0010
0000
0000
0001
0000
0000
0010
0000
0000
0100
0000
0000
1000
0000
0000
0001
0000
0000
0100
0000
0000
0001
0000
0000
1000
0000
0000
0010
0000
0000
,
1000
0001
1000
0001
1000
0001
1000
0001
1000
0000
0000
0000
0000
0000
0000
0000
0000
0000
0000
0000
0000
0000
0000
0000
0000
0000
0000
0000
0000
0000
0000
0000
;

//--------------- dance-single - forcednature ----------------
#NOTES:
     dance-single:
     forcednature:
     Edit:
     7:
     0,0,0,0,0:
0000
0000
0000
0000
,
0000
0000
0000
0000
,
0000
0000
0000
0000
,
0000
0000
0000
0000
,
0000
0000
0000
0000
,
0000
0000
0000
0000
,
0000
0000
0000
0000
,
0000
0000
0000
0000
,
0000
0000
0000
0000
,
0001
0000
0000
0000
1000
0000
0000
0000
0000
0000
0010
0000
0000
1000
0000
0000
,
0100
0000
0001
0100
0000
1000
0000
0010
,
0100
0000
0000
0000
0001
0000
0000
0000
0000
0000
1000
0000
0000
0010
0000
0000
,
0001
0000
0010
1000
0000
0100
0000
0010
,
1000
0000
0000
0000
0010
0000
0000
0000
0000
0000
0001
0000
0000
0100
0000
0000
,
0010
0000
1000
0100
0000
0010
0000
0100
,
1000
0000
0000
0000
0001
0000
0000
0000
0000
0000
0100
0000
0000
0010
0000
0000
,
1000
0000
0100
0001
0000
0100
0000
0010
,
0001
0000
0000
0000
0100
0000
0000
0000
0000
0000
0010
0000
0000
1000
0000
0000
,
0010
0000
0000
0000
0001
0000
0010
0000
0000
0000
1001
0000
0000
0010
0000
0000
,
1001
0000
0000
0000
1000
0000
0000
0000
0000
0000
0100
0000
0000
0010
0000
0000
,
0001
0000
0010
1000
0000
0010
0001
0000
,
1000
0000
0100
0000
0001
0000
0000
0000
0000
0000
0100
0000
0000
1000
0000
0000
,
0001
0000
0100
0000
1000
0000
0000
0000
0000
0000
0100
0000
0000
0001
0000
0000
,
1000
0000
0100
0000
0001
0000
0000
0000
0000
0000
0100
0000
0000
1000
0000
0000
,
0001
0000
0100
0000
1000
0000
0000
0000
0000
0000
0100
0000
0000
0001
0000
0000
,
1000
0100
0010
0000
0110
0000
1100
0000
,
0001
0100
0010
0000
0110
0000
0101
0000
,
1000
0001
0010
0000
0011
0000
1001
0000
,
0001
1000
0010
0000
1010
0000
1001
0000
,
1000
0100
0010
0000
0100
1000
0001
0000
,
0010
0001
1000
0000
0001
0100
1000
0000
,
0100
0010
1000
0100
0001
0100
1000
0010
,
0100
0101
1100
1010
,
0000
1001
0000
0000
0110
0000
0000
1100
0000
0000
0011
0000
0000
0101
0000
0000
,
1010
0000
0000
0110
0000
0000
1001
0000
0000
1100
0000
0000
0011
0000
0000
0000
,
0100
0100
0100
0010
0010
0010
0000
0000
,
0000
0000
0000
0000
,
2000
0100
3001
0002
0100
1003
2000
0010
,
3001
0002
0010
1003
1000
0100
0001
0100
,
0010
0010
0010
0100
0100
0100
0000
0000
,
0000
0000
1000
0000
1010
0000
0001
0100
,
0010
0000
1000
0100
0010
0100
1000
0001
,
0010
0000
0001
0000
1010
0000
1000
0001
,
0010
0000
0100
1000
0001
0100
0010
1000
,
0100
0000
0010
0001
1000
0000
1010
0000
,
1001
0000
0001
0010
0001
0100
0010
1000
,
0100
0000
1000
0001
0010
0000
0110
0000
,
1100
0000
1000
0010
0100
0000
0001
0100
,
0010
1100
0101
1100
,
0101
1010
0011
1010
,
0011
1010
1100
1010
,
1100
0011
0101
0011
,
0101
1001
0110
1001
,
0110
0110
1001
0110
,
1001
1100
0011
1100
,
0011
0101
1010
0101
,
1010
0000
1000
0100
0010
0000
0100
1000
,
0001
0000
0010
0001
1000
0000
0001
1000
,
0100
0000
1000
0100
0001
0000
0100
0010
,
0001
0000
0100
1000
0100
0000
0010
1000
,
0001
0000
1000
0010
0001
0000
0010
1000
,
0100
0000
0001
0100
1000
0000
0001
0100
,
1000
0000
0101
0000
1010
0000
0001
0001
,
1000
0000
0100
0000
1000
0000
0010
0000
0000
1000
0000
0000
0100
0000
0000
0000
0000
0000
0010
0000
0000
0001
0000
0000
,
0100
1001
0000
0000
;

//--------------- dance-double - forcednature ----------------
#NOTES:
     dance-double:
     forcednature:
     Beginner:
     6:
     0,0,0,0,0:
00000000
00000000
00000000
00000000
,
00000000
00000000
00000000
00000000
,
00000000
00000000
00000000
00000000
,
00000000
00000000
00000000
00000000
,
00000000
00000000
00000000
00000000
,
00000000
00000000
00000000
00000000
,
00000000
00000000
00000000
00000000
,
00000000
00000000
00000000
00000000
,
00000000
00000000
00000000
00000000
,
00010000
00001000
01000000
00000000
01010000
00000000
10010000
00000000
,
00010000
10000000
01000000
00000000
00100000
00001000
01000000
00000000
,
00010000
00100000
00001000
00000000
00011000
00000000
00010010
00000000
,
00000010
00001000
00000001
00000000
00000010
00000100
00001000
00000000
,
00000001
00000100
00000010
00000000
00001010
00000000
00001100
00000000
,
00000100
00010000
00001000
00000000
01000000
00010000
00100000
00000000
,
01000000
10000000
00010000
00000000
10010000
00000000
10100000
00000000
,
20000000
30020000
20030000
30020000
,
10030000
00000000
00100000
00000000
01000000
00000000
00000000
00000000
00000000
00000000
00001000
00000000
00000000
00001000
00000000
00000000
,
00010000
00000000
00000010
00000000
00001000
00000000
00000001
00000000
00000000
00000000
00000001
00000000
00000000
00000001
00000000
00000000
,
00000010
00000000
00000100
00000000
00001000
00000000
00000000
00000000
00000000
00000000
00000001
00000000
00000000
00000100
00000000
00000000
,
00000010
00000000
00010000
00000000
00001000
00000000
00000000
01000000
00010000
00000000
00010000
00000000
00110000
00000000
00000000
00000000
,
01000000
00000000
10000000
00000000
00010000
00000000
00000000
00000000
00000000
00000000
10000000
00000000
00000000
00100000
00000000
00000000
,
01000000
00000000
00001000
00000000
00010000
00000000
00000000
00000000
00000000
00000000
00000100
00000000
00000000
00001000
00000000
00000000
,
00000001
00000000
00000010
00000000
00000100
00000000
00000000
00000000
00000000
00000000
00001000
00000000
00000000
00000001
00000000
00000000
,
00000100
00000000
00000001
00000000
00001000
00000000
00000000
00000000
00000000
00000000
00000010
00000000
00000000
00010000
00000000
00000000
,
00001000
01000000
00001000
00000000
00010000
00000100
00010000
00000000
,
00001000
00100000
00001000
00000000
00010000
00000010
00010000
00000000
,
00001000
01000000
00001000
00000000
00010000
00000100
00010000
00000000
,
00001000
00100000
00001000
00000000
00010000
00000010
00010000
00000000
,
00010010
00011000
01001000
00011000
,
00010100
00011000
00101000
00011000
,
00010100
00010100
01001000
01001000
,
00010000
00001000
00010000
00001000
00010000
00001000
00010000
00001000
,
00000000
00010000
00000000
00000000
00001000
00000000
00000000
00010000
00000000
00000000
00001000
00000000
00000000
00010000
00000000
00000000
,
00001000
00000000
00000000
00010000
00000000
00000000
00001000
00000000
00000000
00010000
00000000
00000000
00001000
00000000
00000000
00000000
,
00010000
00001000
01000000
00001000
00010000
00000100
00000000
00000000
,
00000000
00000000
00000000
00000000
,
00011000
01000000
00100000
10000000
,
01000000
00100000
00010000
00001000
,
00010000
00001000
01000000
00001000
00010000
00000100
00000000
00000000
,
00000000
00000000
00001000
00010000
00000100
00000000
00001000
00000000
,
00000010
00000100
00000001
00000010
,
00000100
00000000
00010000
00001000
01000000
00000000
00010000
00000000
,
10000000
01000000
00100000
00010000
,
01000000
00000000
00001000
00010000
00000010
00000000
00001000
00000000
,
00000001
00000010
00000100
00010000
,
00001000
00000000
00100000
00010000
01000000
00000000
00100000
00000000
,
10000000
11000000
01000000
00110000
,
01000000
10000000
00100000
10000000
,
00010000
00000000
01000000
00001000
00010000
00000000
00000100
00001000
,
00000001
00000100
00000010
00001000
,
00000100
00000000
00000010
00000001
00000100
00000000
00000010
00001000
,
00000100
00000000
00010000
00001000
01000000
00000000
00010000
00100000
,
01000000
00000000
10000000
00100000
01000000
00000000
00010000
10000000
,
01000000
00000000
00100000
00010000
01000000
00000000
00001000
00010000
,
00000100
00001100
00001001
00000101
,
00000000
00000000
00000001
00000010
00000100
00001000
00000010
00000000
,
00000100
00001001
00001001
00001001
,
00000000
00000000
00000010
00010000
00001000
00100000
00010000
00000000
,
01000000
10010000
10010000
10010000
,
00000000
00000000
10000000
00100000
10000000
01000000
00100000
00000000
,
00010000
01010000
01010000
01010000
,
00000000
00000000
01000000
00001000
00010000
00000000
00000100
00001000
,
00000001
00000010
00000001
00000010
00000000
00000000
00000100
00000000
00000000
00001000
00000000
00000000
,
00010000
00011000
00000000
00000000
;

//--------------- dance-double - forcednature ----------------
#NOTES:
     dance-double:
     forcednature:
     Easy:
     8:
     0,0,0,0,0:
00000000
00000000
00000000
00000000
,
00000000
00000000
00000000
00000000
,
00000000
00000000
00000000
00000000
,
00000000
00000000
00000000
00000000
,
00000000
00000000
00000000
00000000
,
00000000
00000000
00000000
00000000
,
00000000
00000000
00000000
00000000
,
00000000
00000000
00000000
00000000
,
00000000
00000000
00000000
00000000
,
00001000
00000000
00010000
00000000
00001000
00000000
00000000
00000000
00000000
00000000
01000000
00000000
00000000
00010000
00000000
00000000
,
10000000
00100000
10000000
01000000
00100000
00010000
00000000
01000000
,
00001000
00000000
00010000
00000000
00000100
00000000
00000000
00000000
00000000
00000000
00001000
00000000
00000000
00000001
00000000
00000000
,
00000100
00000010
00001000
00000001
00000010
00000100
00000000
00010000
,
00001000
00000000
00100000
00000000
01000000
00000000
00000000
00000000
00000000
00000000
10000000
00000000
00000000
00010000
00000000
00000000
,
01000000
00001000
00010000
00000100
00001000
00000001
00000000
00000010
,
00000001
00000000
00001000
00000000
00000100
00000000
00000000
00000000
00000000
00000000
00010000
00000000
00000000
00001000
00000000
00000000
,
01000000
00010000
10000000
00100000
01000000
00010000
00000000
00000000
,
00100000
00000000
00001000
00000000
00010000
00000000
00000000
00000000
00000100
00000000
00001000
00000000
00000000
00000001
00000000
00000000
,
00000100
00000000
00000001
00000000
00000010
00000000
00000110
00000000
00000000
00000000
00011000
00000000
00000000
01010000
00000000
00000000
,
10000000
00000000
01000000
00000000
00100000
00000000
00000000
00000000
00000000
00000000
00010000
00000000
00000000
01000000
00000000
00000000
,
00001000
00010000
00000100
00001000
00000001
00000100
00000010
00000000
,
00001000
00000100
00000010
00000000
00000001
00000010
00000100
00000000
,
00010000
00001000
01000000
00000000
00010000
00100000
01000000
00000000
,
10000000
00100000
01000000
00000000
00001000
00010000
00000100
00000000
,
00001000
00000001
00000100
00000000
00000010
00001000
00000001
00000000
,
00001000
00000100
00000010
00000100
00001000
00000100
00000010
00000100
,
00001000
00000010
00010000
00000010
00001000
00000010
00010000
00000010
,
00010000
00001000
00010000
01000000
00010000
00001000
00010000
01000000
,
10000000
01000000
00010000
01000000
10000000
01000000
01000000
00000000
,
10000000
01000000
00010000
00001000
00000100
00000001
00000100
00001000
,
00010000
01000000
10000000
01000000
00010000
00001000
00000100
00000001
,
00000010
00000100
00000010
00000100
00000010
00000100
00000010
00000100
,
00001000
00000100
00000001
00000100
00001000
00000100
00000001
00000100
,
00001000
00000100
00000000
00000010
00000100
00000000
00001000
00000100
00000000
00000010
00000100
00000000
00010000
00000100
00000000
00010000
,
00001000
00000000
00010000
00000100
00000000
00010000
00001000
00000000
01000000
00000000
00010000
00000000
00100000
01000000
00100000
00000000
,
20020000
00000000
30030000
02200000
00000000
00000000
00000000
00000000
,
00000000
00000000
00000000
00000000
00000000
00000000
00000000
03300000
,
10000000
00100000
01000000
00010000
00100000
00001000
00010000
00000010
,
00000100
00001000
00000100
00000001
00001000
00000100
00000010
00000000
,
00000001
00001000
00000001
00001000
00000001
00000000
00001000
00000001
00001000
00000001
00001000
00000000
00000000
00000000
00000000
00000000
,
00000000
00000000
00000000
00000000
00000001
00000000
00000010
00000000
00000100
00000000
00000000
00000000
00010000
00000000
00001000
01000000
,
00000000
00001000
00100000
00000000
00010000
00000000
10000000
00000000
00100000
00000000
01000000
00000000
00010000
00000000
10000000
00000000
,
00000000
00000000
01000000
00000000
00100000
00000000
00010000
00000000
01000000
00000000
00000000
00000000
00001000
00000000
00010000
00000100
,
00000000
00001000
00000001
00000000
00000100
00000000
00000010
00000000
00001000
00000000
00000001
00000000
00000010
00000000
00000100
00000000
,
00000000
00000000
00001000
00000000
00000100
00000000
00010000
00000000
00001000
00000000
00000000
00000000
01000000
00000000
00010000
10000000
,
00000000
00100000
01000000
00000000
00010000
00000000
10000000
00000000
01000000
00000000
00100000
00000000
01000000
00000000
10000000
00000000
,
00000000
00000000
00010000
00000000
00100000
00000000
00001000
00000000
01000000
00000000
00000000
00000000
00001000
00000000
00010000
00000100
,
00000000
00001000
00000001
00000000
00000100
00000000
00000010
00000000
00001000
00000000
00000000
00000000
00000100
00000000
00000010
00000000
,
00000001
00000000
00000010
00000001
00001000
00000100
00010000
00001000
,
00010000
01000000
10000000
00010000
10000000
00100000
00010000
00001000
,
00000010
00000001
00000100
00000001
00000010
00001000
00010000
01000000
,
10000000
00010000
10000000
00100000
00010000
00001000
00000100
00000001
,
00000010
00000100
00000010
00000001
00000100
00001000
00010000
01000000
,
10000000
00100000
10000000
01000000
00100000
00010000
01000000
00001000
,
00010000
00000100
00001000
00000100
00000001
00000100
00001000
00000010
,
00000100
00001000
00010000
00100000
01000000
00000000
01010000
00000000
,
10010000
00000000
10000000
00100000
00010000
00001000
00010000
01000000
,
10000000
01000000
00010000
00001000
00000100
00000001
00000010
00000100
,
00001000
00000010
00000001
00000010
00001000
00010000
01000000
10000000
,
01000000
00010000
10000000
01000000
00100000
00010000
01000000
00001000
,
00010000
01000000
00010000
00001000
00000100
00001000
00010000
00100000
,
00010000
00001000
00000010
00000001
00000100
00001000
00000100
00000001
,
00000010
00001000
00011000
00000000
01010000
00000000
00010000
00010000
,
01000000
00000000
01000000
00000000
01000000
00000000
00100000
00000000
00000000
00010000
00000000
00000000
00001000
00000000
00000000
00000010
00000000
00000000
00000100
00000000
00000000
00000001
00000000
00000000
,
00000100
00001000
00010000
00000000
00000000
00000000
00000000
00000000
;

//--------------- dance-double - forcednature ----------------
#NOTES:
     dance-double:
     forcednature:
     Medium:
     9:
     0,0,0,0,0:
00000000
00000000
00000000
00000000
,
00000000
00000000
00000000
00000000
,
00000000
00000000
00000000
00000000
,
00000000
00000000
00000000
00000000
,
00000000
00000000
00000000
00000000
,
00000000
00000000
00000000
00000000
,
00000000
00000000
00000000
00000000
,
00000000
00000000
00000000
00000000
,
00000000
00000000
00000000
00000000
,
00010000
00000000
00001000
00000000
01000000
00000000
00000000
00000000
00000000
00000000
00010000
00000000
00000000
10000000
00000000
00000000
,
01000000
00010000
00001000
00000010
00000001
00001000
00000000
00000001
,
00000100
00000000
00000010
00000000
00001000
00000000
00000000
00000000
00000000
00000000
00000001
00000010
00000000
00000100
00001000
00000000
,
00000010
00010000
00001000
01000000
00010000
10000000
00000000
01000000
,
00100000
00000000
00010000
00000000
01000000
00000000
00000000
00000000
00000000
00000000
00001000
00000000
00000000
00000100
00000000
00000000
,
00000001
00001000
00000100
00000010
00000001
00000100
00000000
00000010
,
00001000
00000000
00000100
00000000
00010000
00000000
00000000
00000000
00000000
00000000
00001000
00100000
00000000
00010000
10000000
00000000
,
00100000
10000000
01000000
00100000
00010000
01000000
00001000
00000000
,
00010000
00000100
00010000
00000100
00010000
00000000
00000000
00000000
00000000
00000000
00000010
00000000
00000000
00001000
00000000
00000000
,
00000001
00000000
00000010
00000000
00000100
00000000
00000110
00000000
00000000
00000000
00001100
00000000
00000000
00011000
00000000
00000000
,
01000000
00000000
00010000
00000000
10000000
00000000
00000000
00000000
00000000
00000000
00100000
10000000
00000000
00010000
00100000
00000000
,
01000000
10000000
00010000
01000000
00001000
00010000
00000100
00000000
,
00001000
00000001
00001000
00000010
00001000
00100000
01000000
10000000
,
01000000
00010000
00001000
00000010
00000001
00000010
00000100
00000001
,
00000010
00000100
00001000
00010000
00100000
10000000
00100000
00010000
,
01000000
00001000
00000100
00000001
00001000
00000100
00000001
00000100
,
00000110
00000000
00001100
00000000
00010000
00010000
00010000
00010000
,
00011000
00000000
01010000
00000000
10000000
10000000
10000000
10000000
,
10100000
00000000
00110000
00000000
00001000
00001000
00001000
00001000
,
00011000
00000000
00000110
00000000
00000001
00000001
00000001
00000001
,
00000100
00000001
00000010
00000001
00000100
00000001
00000010
00000001
,
00000100
00000010
00001000
00000010
00000100
00000010
00001000
00000010
,
00010000
00001000
00010000
01000000
00010000
00001000
00010000
01000000
,
10000000
00010000
10000000
00100000
10000000
00010000
10000000
00100000
,
00000000
10100000
00000000
00000000
10010000
00000000
00000000
00110000
00000000
00000000
00101000
00000000
00000000
00011000
00000000
00000000
,
00010010
00000000
00000000
00001010
00000000
00000000
00001001
00000000
00000000
00000011
00000000
00000000
00000110
00000000
00000000
00000000
,
00000001
00000100
00001000
00010000
01000000
10000000
00000000
00000000
,
00000000
00000000
00000000
00000000
,
10000000
00100000
00010000
00001000
00000100
00000001
00000010
00000100
,
00001000
00010000
00100000
01000000
10000000
01000000
00010000
00001000
,
01000000
00001000
01000000
00001000
01000000
00000000
00000100
00010000
00000100
00010000
00000100
00000000
00000000
00000000
00000000
00000000
,
00000000
00000000
00000000
00000000
00010000
00000000
00001000
00000000
01000000
00000000
00010000
00000000
10000000
00000000
00100000
10000000
,
00000000
01000000
00100000
00000000
00010000
00000000
01000000
00000000
00001000
00000000
00010000
00000000
00000100
00000000
00001000
00000000
,
00000001
00000000
00000010
00000000
00000100
00000000
00001000
00000000
00000001
00000000
00000100
00000000
00000010
00000000
00010000
00001000
,
00000000
00100000
00010000
00000000
10000000
00000000
00100000
00000000
10000000
00000000
01000000
00000000
00100000
00000000
00010000
00000000
,
01000000
00000000
00001000
00000000
00010000
00000000
00000100
00000000
00001000
00000000
00000001
00000000
00000100
00000000
00000010
00001000
,
00000000
00000001
00000010
00000000
00000100
00000000
00001000
00000000
00000001
00000000
00000100
00000000
00000010
00000000
00010000
00000000
,
00001000
00000000
01000000
00000000
00010000
00000000
10000000
00000000
01000000
00000000
00100000
00000000
01000000
00000000
10000000
00010000
,
00000000
00100000
00001000
00000000
01000000
00001000
01000000
00001000
01000000
00000000
00000000
00000000
00011000
00000000
00000000
00000000
,
00010100
00000000
00000001
00000010
00000100
00001000
00000010
00000100
,
00000001
00000010
00000100
00001000
00000010
00000100
00001000
00010000
,
00001000
00010000
00100000
01000000
00010000
00100000
01000000
10000000
,
01000000
00100000
00010000
01000000
00100000
00010000
00001000
00100000
,
00010000
00001000
00000100
00010000
00001000
00000100
00000010
00001000
,
00000100
00000010
00000001
00001000
00000001
00000100
00000010
00010000
,
00001000
01000000
00100000
10000000
01000000
00100000
00010000
01000000
,
00001000
01001000
00011000
00010100
,
00001001
00000000
00000001
00000100
00001000
00010000
01000000
10000000
,
10010000
00000000
10000000
00100000
00010000
00001000
00000010
00000001
,
00001001
00000000
00000001
00000100
00001000
00010000
01000000
10000000
,
10010000
10100000
10010000
00110000
,
00101000
00000000
00001000
00010000
00000010
00001000
00000001
00000010
,
00000100
00001000
00000001
00000100
00000010
00001000
00000100
00010000
,
00001000
00000000
00011000
00000000
01001000
00000000
10000000
01000000
,
10000000
00000000
00010000
00000000
10000000
00000000
00100000
00000000
00000000
01000000
00000000
00000000
00001000
00000000
00000000
00010000
00000000
00000000
00000010
00000000
00000000
00000100
00000000
00000000
,
00000001
00001000
00001001
00000000
00000000
00000000
00000000
00000000
;

//--------------- dance-double - forcednature ----------------
#NOTES:
     dance-double:
     forcednature:
     Hard:
     11:
     0,0,0,0,0:
00000000
00000000
00000000
00000000
,
00000000
00000000
00000000
00000000
,
00000000
00000000
00000000
00000000
,
00000000
00000000
00000000
00000000
,
00000000
00000000
00000000
00000000
,
00000000
00000000
00000000
00000000
,
00000000
00000000
00000000
00000000
,
00000000
00000000
00000000
00000000
,
00000000
00000000
00000000
00000000
,
00001000
00010000
00001000
00010000
00001000
00000000
00000000
00000000
00000000
00000000
01000000
00010000
00000000
10000000
00100000
00000000
,
10000000
01000000
10000000
01000000
10000000
00000000
00010000
00100000
00010000
00100000
00010000
00000000
00000000
00000000
01000000
00001000
,
01000000
00001000
01000000
00001000
01000000
00000000
00000000
00000000
00000000
00000000
00001000
00010000
00000000
00000100
00001000
00000000
,
00000001
00000100
00000001
00000100
00000001
00000000
00001000
00000010
00001000
00000010
00001000
00000000
00000000
00000000
00000001
00000010
,
00000001
00000010
00000001
00000010
00000001
00000000
00000000
00000000
00000000
00000000
00001000
00000100
00000000
00010000
00001000
00000000
,
00100000
00010000
00100000
00010000
00100000
00000000
01000000
10000000
01000000
10000000
01000000
00000000
00000000
00000000
10000000
00100000
,
10000000
00100000
10000000
00100000
10000000
00000000
00000000
00000000
00000000
00000000
00010000
01000000
00000000
00001000
00010000
00000000
,
00000100
00001000
00000100
00001000
00000100
00000000
00000010
00000001
00000010
00000001
00000010
00000000
00000100
00001000
00000100
00000000
,
00010000
00001000
00010000
00001000
00010000
00000000
00000000
00000000
00000000
00000000
00001000
01000000
00000000
00010000
00100000
00000000
,
01000000
10000000
01000000
10000000
01000000
00000000
10010000
00000000
00000000
00000000
01010000
00000000
00000000
00011000
00000000
00000000
,
00000100
00001000
00000100
00001000
00000100
00000000
00000000
00000000
00000000
00000000
00000010
00000001
00000000
00000100
00000001
00000000
,
00001000
00000010
00001000
00000010
00001000
00000000
00000001
00000010
00000001
00000010
00000001
00000000
00000100
00000010
00000100
00000000
,
00000001
00000100
00000001
00000100
00000001
00000000
00000000
00000000
00000000
00000000
00001000
00000100
00000000
00010000
00001000
00000000
,
01000000
00010000
01000000
00010000
01000000
00000000
00000000
00000000
00000000
00000000
00100000
10000000
00000000
00010000
00100000
00000000
,
01000000
10000000
01000000
10000000
01000000
00000000
00000000
00000000
00000000
00000000
00100000
00001000
00000000
00010000
00000010
00000000
,
00001000
00000001
00001000
00000001
00001000
00000000
00000000
00000000
00000000
00000000
00000001
00000100
00000000
00000010
00001000
00000000
,
00000100
00001000
00000100
00001000
00000100
00000000
00000000
00000000
01000000
00010000
01000000
00010000
01000000
00010000
01000000
00010000
,
01000000
00001000
01000000
00001000
01000000
00000000
00000000
00000000
00000100
00001000
00000100
00001000
00000100
00001000
00000100
00001000
,
00000100
00010000
00000100
00010000
00000100
00000000
00000000
00000000
00100000
00001000
00100000
00001000
00100000
00001000
00100000
00001000
,
00100000
00010000
00100000
00010000
00100000
00000000
00000000
00000000
00000010
00001000
00000010
00001000
00000010
00001000
00000010
00001000
,
00000010
00010000
00000010
00010000
00000010
00001000
00000010
00001000
00000010
00010000
00000010
00010000
00000010
00001000
00000010
00001000
,
00000100
00001000
00000100
00001000
00000100
00010000
00000100
00010000
00000100
00001000
00000100
00001000
00000100
00010000
00000100
00010000
,
00001000
00010000
00001000
00010000
00001000
01000000
00001000
01000000
00001000
00010000
00001000
00010000
00001000
01000000
00001000
01000000
,
00010000
00100000
00010000
00100000
00010000
01000000
00010000
01000000
00010000
00100000
00010000
00100000
00010000
01000000
00010000
01000000
,
00001000
00010000
00000100
00010000
00001000
01000000
00001000
00010000
00000100
00010000
00001000
01000000
00001000
00010000
00000100
00010000
,
00001000
01000000
00001000
00010000
00000100
00010000
00001000
01000000
00001000
00010000
00000100
00010000
00001000
01000000
00001000
00010000
,
00000100
00001000
00000100
00001000
00000100
00000000
01000000
00010000
01000000
00010000
01000000
00000000
00000000
00000000
00000000
00000000
,
00000000
00000000
00000000
00000000
,
00010000
00000100
00010000
00000000
00001000
00000000
00100000
00010000
00100000
00010000
00100000
00000000
01000000
10000000
01000000
10000000
,
01000000
00000000
00100000
00010000
00100000
00010000
00100000
00000000
00010000
01000000
00010000
01000000
00010000
00000000
00100000
00001000
,
00010000
00001000
00010000
00001000
00010000
00000000
00000010
00001000
00000010
00001000
00000010
00000000
00000000
00000000
00000000
00000000
,
00000000
00000000
00000000
00000000
00001000
00000010
00001000
00000010
00001000
00000000
00000000
00000000
00000000
00000000
00000100
00010000
,
00000000
00001000
01000000
00000000
00010000
00100000
00010000
00100000
00010000
00000000
10000000
01000000
10000000
01000000
10000000
00000000
,
00000000
00000000
00100000
10000000
00100000
10000000
00100000
10000000
00100000
00000000
00000000
00000000
00000000
00000000
01000000
00001000
,
00000000
00100000
00010000
00000000
01000000
00010000
01000000
00010000
01000000
00000000
00001000
00010000
00001000
00010000
00001000
00000000
,
00000000
00000000
00010000
00000100
00010000
00000100
00010000
00000100
00010000
00000000
00000000
00000000
00000000
00000000
00000010
00001000
,
00000000
00000001
00000010
00000000
00000100
00001000
00000100
00001000
00000100
00000000
00000010
00000001
00000010
00000001
00000010
00000000
,
00000000
00000000
00000100
00010000
00000100
00010000
00000100
00010000
00000100
00000000
00000000
00000000
00000000
00000000
00010000
00001000
,
00000000
01000000
00010000
00000000
10000000
00100000
10000000
00100000
10000000
00000000
00000000
00010000
00100000
01000000
10000000
00000000
,
01000000
00100000
00010000
00000000
01000000
00010000
01000000
00000000
00100000
10000000
00100000
00000000
01000000
00010000
01000000
00000000
,
00100000
10000000
00100000
00000000
10000000
01000000
10000000
00000000
00010000
00100000
00010000
00000000
10000000
01000000
10000000
00000000
,
00010000
00100000
00010000
00000000
01000000
00001000
01000000
00000000
00010000
00100000
00010000
00000000
01000000
00001000
01000000
00000000
,
00010000
00100000
00010000
00000000
00100000
00001000
00100000
00000000
00001000
00010000
00001000
00000000
00100000
00001000
00100000
00000000
,
00001000
00010000
00001000
00000000
00010000
00000010
00010000
00000000
00000100
00001000
00000100
00000000
00010000
00000010
00010000
00000000
,
00000100
00001000
00000100
00000000
00001000
00000001
00001000
00000000
00000100
00000010
00000100
00000000
00001000
00000001
00001000
00000000
,
00000100
00000010
00000100
00000000
00001000
00000010
00001000
00000000
00000001
00000010
00000001
00000000
00001000
00000010
00001000
00000000
,
00000001
00000010
00000001
00000000
00001010
00000000
00000000
00000000
00000101
00000000
00000000
00000001
00000010
00000000
00000100
00000000
,
00010000
00001000
00010000
00001000
00010000
00001000
01000000
00000000
00010000
01000000
00001000
00000000
00010000
00001000
00100000
00000000
,
00010000
00100000
00001000
00000000
00100000
00010000
10000000
00000000
00100000
10000000
00010000
00000000
01000000
00010000
10000000
00000000
,
01000000
10000000
00010000
00000000
10000000
01000000
00100000
00000000
01000000
10000000
00100000
00000000
01000000
00010000
00100000
00000000
,
00010000
01000000
00100000
00000000
01000000
00001000
00010000
00000000
00001000
01000000
00010000
00000000
00100000
00001000
00010000
00000000
,
00001000
00100000
00010000
00000000
00100000
00001000
00010000
00000000
00000010
00010000
00001000
00000000
01000000
00001000
00010000
00000000
,
00000100
00010000
00001000
00000000
00100000
00010000
01000000
00000000
00010000
00100000
00001000
00000000
00010000
00000100
00001000
00000000
,
00000010
00001000
00000100
00000000
00000010
00000001
00000010
00000000
00000100
00001000
00000100
00000000
00000010
00000000
00000010
00000000
,
00000100
00000000
00000000
00000000
00010000
00000000
00000000
00000000
00000100
00000000
00000000
00000000
00010000
00000000
00000000
00001000
00000000
00000000
00010000
00000000
00000000
00001000
00000000
00000000
01000000
00000000
00000000
00001000
00000000
00000000
01000000
00000000
00000000
00001000
00000000
00000000
01000000
00000000
00000000
00010000
00000000
00000000
01000000
00000000
00000000
00010000
00000000
00000000
,
10000000
00010000
10000000
00010000
00100000
00000000
00000000
00000000
00000000
00000000
00000000
00000000
00000000
00000000
00000000
00000000
;

//--------------- dance-double - NOT FINISHED ----------------
#NOTES:
     dance-double:
     NOT FINISHED:
     Challenge:
     12:
     0,0,0,0,0:
00000000
00000000
00000000
00000000
,
00000000
00000000
00000000
00000000
,
00000000
00000000
00000000
00000000
,
00000000
00000000
00000000
00000000
,
00000000
00000000
00000000
00000000
,
00000000
00000000
00000000
00000000
,
00000000
00000000
00000000
00000000
,
00000000
00000000
00000000
00000000
,
00000000
00000000
00000000
00000000
,
00001000
00000100
00000010
00000100
00001000
00000000
00000000
00000000
00000000
00000000
00000010
00001000
00000000
00000001
00000100
00000000
,
00000001
00001000
00000100
00000010
00000001
00000000
00001000
00000010
00000100
00000001
00001000
00000000
00000000
00000010
00001000
00000100
,
00001000
00000001
00000010
00000001
00000100
00000000
00000000
00000000
00000000
00000000
00000010
00001000
00000000
00000001
00000010
00000000
,
00000100
00001000
00000001
00000010
00000100
00000000
00000010
00000001
00001000
00000010
00000100
00000000
00000000
00000001
00001000
00000010
,
00001000
00000001
00000010
00000100
00001000
00000000
00000000
00000000
00000000
00000000
00000010
00001000
00000000
00000001
00000100
00000000
,
00000010
00001000
00000001
00000100
00000001
00000000
00001000
00000100
00000010
00000001
00001000
00000000
00000000
00000010
00001000
00000001
,
00000100
00000001
00001000
00000100
00000010
00000000
00000000
00000000
00000000
00000000
00000001
00000010
00000000
00000001
00001000
00000000
,
00000010
00001000
00000010
00000100
00000001
00001000
00000001
00000010
00000100
00001000
00000010
00001000
00000001
00000100
00000001
00000000
,
00001000
00000010
00001000
00000100
00000010
00000000
00000000
00000000
00000000
00000000
00000001
00000010
00000000
00000001
00001000
00000000
,
00000100
00001000
00000001
00000010
00000001
00000000
00001010
00000000
00000000
00000000
00001001
00000000
00000000
00000110
00000000
00000000
,
00000001
00001000
00000010
00000100
00000001
00000000
00000000
00000000
00000000
00000000
00001000
00000100
00000000
00000010
00000001
00000000
,
00001000
00000001
00000100
00000001
00001000
00000000
00000010
00000000
00001000
00000000
00000100
00000000
00000010
00000000
00000001
00000010
,
00000001
00001000
00000010
00001000
00000001
00000000
00000000
00000000
00000000
00000000
00000010
00000001
00000000
00001000
00000100
00000000
,
00001000
00000001
00001000
00000010
00001000
00000000
00000000
00000000
00000000
00000000
00000001
00000010
00000000
00000001
00001000
00000000
,
00000100
00001000
00000100
00000010
00000001
00000000
00000000
00000000
00000000
00000000
00001000
00000010
00000000
00001000
00000100
00000000
,
00000010
00000001
00001000
00000010
00000100
00000000
00000000
00000000
00000000
00000000
00000001
00001000
00000000
00000001
00000010
00000000
,
00000100
00000000
00000000
00001000
00000000
00000000
00000001
00000000
00000000
00001000
00000000
00000000
00000010
00000000
00000000
00001000
00000000
00000000
00000001
00000000
00000100
00000000
00000001
00000000
00001000
00000000
00000000
00000100
00000000
00000000
00000010
00000000
00000000
00000001
00000000
00000000
00001000
00000000
00000000
00000001
00000000
00000000
00000100
00000000
00000000
00000010
00000000
00000000
,
00001000
00000000
00000000
00000000
00000000
00000000
00000001
00000000
00000000
00000000
00000000
00000000
00000010
00000000
00000000
00000000
00000000
00000000
00000100
00000000
00000000
00000000
00000000
00000000
00001000
00000000
00000000
00000000
00000000
00000000
00000001
00000000
00000000
00000000
00000000
00000000
00001000
00000000
00000000
00000000
00000010
00000000
00000000
00000000
00001000
00000000
00000000
00000000
00000001
00000000
00000000
00000000
00000000
00000000
00000010
00000000
00000000
00000000
00000000
00000000
00000001
00000000
00000000
00000000
00000000
00000000
00001000
00000000
00000000
00000000
00000000
00000000
00000100
00000000
00000000
00000000
00000000
00000000
00000010
00000000
00000000
00000000
00000000
00000000
00000001
00000000
00000000
00001000
00000000
00000000
00000001
00000000
00000000
00000000
00000000
00000000
,
00001000
00000000
00000000
00000010
00000000
00000000
00001000
00000000
00000000
00000001
00000000
00000000
00000010
00000000
00000000
00000100
00000000
00000000
00001000
00000000
00000001
00000000
00000100
00000000
00000001
00000000
00000000
00001000
00000000
00000000
00000100
00000000
00000000
00000010
00000000
00000000
00000100
00000000
00000000
00001000
00000000
00000000
00000010
00000000
00000000
00000100
00000000
00000000
,
00000001
00000000
00000000
00000000
00000000
00000000
00000010
00000000
00000000
00000000
00000000
00000000
00000100
00000000
00000000
00000000
00000000
00000000
00001000
00000000
00000000
00000000
00000000
00000000
00000001
00000000
00000000
00000000
00000000
00000000
00001000
00000000
00000000
00000000
00000000
00000000
00000010
00000000
00000000
00000000
00000000
00000000
00001000
00000000
00000000
00000000
00000000
00000000
00000001
00000000
00000000
00000000
00000000
00000000
00000010
00000000
00000000
00000000
00000000
00000000
00000001
00000000
00000000
00000000
00000000
00000000
00001000
00000000
00000000
00000000
00000000
00000000
00000100
00000000
00000000
00000000
00001000
00000000
00000000
00000000
00000100
00000000
00000000
00000000
00000010
00000000
00000000
00000001
00000000
00000000
00000010
00000000
00000000
00000001
00000000
00000000
,
00001000
00000010
00001000
00000010
00000100
00000001
00000100
00000001
00001000
00000010
00001000
00000010
00000100
00000001
00000100
00000001
,
00001000
00000000
00000100
00000000
00001000
00000000
00000100
00000000
00000010
00000000
00000001
00000000
00000010
00000000
00000001
00000000
00001000
00000000
00000100
00000000
00001000
00000000
00000100
00000000
00000010
00000001
00000010
00000001
00000010
00000000
00000001
00000000
,
00001000
00000010
00000100
00000001
00001000
00000100
00000010
00000001
00001000
00000010
00000100
00000001
00001000
00000100
00000010
00000001
,
00001000
00000000
00000000
00000010
00000000
00000000
00000100
00000000
00000001
00000000
00000100
00000000
00000001
00000000
00000000
00000010
00000000
00000000
00000100
00000000
00001000
00000000
00000100
00000000
00001000
00000000
00000000
00000100
00000000
00000000
00000010
00000000
00000001
00000000
00000010
00000000
00000001
00000000
00000000
00000100
00000000
00000000
00000010
00000000
00001000
00000000
00000010
00000000
,
00001000
00000010
00000100
00000001
00000010
00000100
00001000
00000010
00000100
00000001
00000010
00000100
00001000
00000010
00000100
00000001
,
00001000
00000000
00000001
00000000
00001000
00000000
00000001
00000000
00000100
00000000
00000001
00000000
00000100
00000000
00000001
00000000
00001000
00000000
00000100
00000000
00001000
00000000
00000100
00000000
00001000
00000001
00001000
00000001
00001000
00000001
00001000
00000001
,
00001000
00000001
00000010
00000001
00001000
00000000
00000001
00001000
00000010
00001000
00000001
00000000
00001000
00000100
00000010
00000000
,
00000002
00000000
00000003
00000000
00001000
00000000
00000020
00000000
00000030
00000000
00000100
00000000
00000001
00000000
00000000
00000000
00000020
00000000
00000130
00000000
00001000
00000000
00000001
00000000
00001000
00000100
00001000
00000100
00000010
00000001
00000010
00000001
,
00001000
00000100
00000010
00000100
00001000
00000000
00000001
00000100
00000010
00000100
00000001
00000000
00001000
00000010
00000100
00000010
,
00001000
00000000
00000001
00000010
00000100
00000010
00000001
00000000
00001000
00000001
00001000
00000001
00001000
00000000
00000001
00001000
,
00000001
00000010
00000100
00000010
00000001
00000000
00001000
00000010
00000100
00000010
00001000
00000000
00000001
00001000
00000001
00000000
,
00000000
00000000
00000000
00000000
00000001
00000010
00000001
00000100
00000001
00000000
00000000
00000000
00001000
00000000
00000010
00000001
,
00000000
00000010
00001000
00000000
00000001
00000010
00000100
00000010
00000001
00000000
00001000
00000100
00000010
00000100
00001000
00000000
,
00000000
00000000
00000010
00001000
00000001
00000100
00000001
00001000
00000010
00000000
00000000
00000000
00001000
00000000
00000001
00000010
,
00000000
00001000
00000010
00000000
00000001
00000100
00000001
00001000
00000100
00000000
00000010
00000001
00001000
00000010
00000100
00000000
,
00000000
00000000
00000001
00000100
00000001
00001000
00000001
00000010
00000100
00000000
00000000
00000000
00001000
00000000
00000001
00000100
,
00000000
00001000
00000100
00000000
00000001
00001000
00000100
00000010
00000001
00000000
00001000
00000001
00000100
00000010
00001000
00000000
,
00000000
00000000
00000001
00000010
00000100
00000010
00000001
00001000
00000100
00000000
00000000
00000000
00000010
00000000
00000001
00000100
,
00000000
00000000
00001000
00000000
00000100
00000000
00000000
00000000
00000001
00000000
00001000
00000000
00000001
00000000
00001000
00000000
00000010
00001000
00000010
00001000
00000010
00000000
00001000
00000000
00000100
00000000
00000010
00000000
00000001
00000000
00001000
00000000
,
00000001
00000010
00000100
00000000
00001000
00000100
00000010
00000000
00000001
00000100
00000010
00000000
00001000
00000001
00000010
00000000
,
00000100
00001000
00000001
00000000
00001000
00000010
00000100
00000000
00000001
00000010
00000100
00000000
00000010
00000001
00001000
00000000
,
00000100
00001000
00000001
00000000
00001000
00000010
00001000
00000000
00000001
00000100
00000010
00000000
00000100
00000001
00000010
00000000
,
00000100
00001000
00000001
00000000
00001000
00000010
00000100
00000000
00000001
00000010
00000100
00000000
00001000
00000100
00000010
00000000
,
00000001
00000100
00000010
00000000
00001000
00000001
00000010
00000000
00000001
00001000
00000100
00000000
00001000
00000010
00000100
00000000
,
00000001
00000010
00000100
00000000
00000010
00000001
00001000
00000000
00000010
00001000
00000001
00000000
00000100
00000001
00001000
00000000
,
00000100
00001000
00000001
00000000
00000010
00000100
00000010
00000000
00000001
00001000
00000010
00000000
00000100
00000001
00001000
00000000
,
00000010
00001000
00000001
00000000
00000100
00000001
00000010
00000000
00000100
00000000
00000000
00001000
00000010
00000000
00001000
00000100
,
00000010
00000001
00000010
00000001
00000010
00000100
00001000
00000000
00000100
00000010
00000001
00000000
00001000
00000001
00000100
00000000
,
00000001
00001000
00000010
00000000
00001000
00000100
00000010
00000000
00000001
00000010
00000100
00000000
00001000
00000001
00000100
00000000
,
00000001
00001000
00000010
00000000
00001000
00000100
00000010
00000000
00000001
00000100
00000010
00000000
00001000
00000001
00000010
00000000
,
00000100
00001000
00000001
00000000
00001000
00000010
00000100
00000000
00000001
00000010
00000100
00000000
00000010
00000001
00001000
00000000
,
00000001
00000100
00000001
00000000
00001000
00000100
00001000
00000000
00000001
00000010
00000100
00000000
00001000
00000100
00000010
00000000
,
00000001
00001000
00000010
00000000
00001000
00000001
00000010
00000000
00000001
00001000
00000100
00000000
00001000
00000001
00000100
00000000
,
00000001
00000010
00000100
00000000
00001000
00000010
00001000
00000000
00000001
00000100
00000001
00000000
00001000
00000001
00001000
00000001
,
00000100
00000000
00000000
00000000
00000010
00000000
00000000
00000000
00000100
00000000
00000000
00000000
00000001
00000000
00000000
00000010
00000000
00000000
00000100
00000000
00000000
00001000
00000000
00000000
00000100
00000000
00000000
00000010
00000000
00000000
00000001
00000000
00000000
00001000
00000000
00000000
00000010
00000000
00000000
00001000
00000000
00000000
00000001
00000000
00000000
00000100
00000000
00000000
,
00000001
00001000
00000001
00001000
00000001
00001000
00000001
00001000
00000001
00000000
00000000
00000000
00000000
00000000
00000000
00000000
00000000
00000000
00000000
00000000
00000000
00000000
00000000
00000000
00000000
00000000
00000000
00000000
00000000
00000000
00000000
00000000
;

//--------------- dance-double - forcednature ----------------
#NOTES:
     dance-double:
     forcednature:
     Edit:
     8:
     0,0,0,0,0:
00000000
00000000
00000000
00000000
,
00000000
00000000
00000000
00000000
,
00000000
00000000
00000000
00000000
,
00000000
00000000
00000000
00000000
,
00000000
00000000
00000000
00000000
,
00000000
00000000
00000000
00000000
,
00000000
00000000
00000000
00000000
,
00000000
00000000
00000000
00000000
,
00000000
00000000
00000000
00000000
,
00010000
00000000
00001000
00000000
01000000
00000000
00000000
00000000
00000000
00000000
00010000
00000000
00000000
00100000
00000000
00000000
,
01000000
10000000
00010000
01000000
00001000
00010000
00000000
00000100
,
00001000
00000000
00000001
00000000
00000100
00000000
00000000
00000000
00000000
00000000
00000010
00000000
00000000
00001000
00000000
00000000
,
00000001
00000010
00000100
00001000
00000100
00000010
00000000
00000001
,
00000100
00000000
00000001
00000000
00001000
00000000
00000000
00000000
00000000
00000000
00000100
00000000
00000000
00010000
00000000
00000000
,
00001000
00100000
00010000
01000000
00100000
10000000
00000000
01000000
,
10000000
00000000
00010000
00000000
01000000
00000000
00000000
00000000
00000000
00000000
00001000
00000000
00000000
00010000
00000000
00000000
,
00000010
00001000
00000001
00000010
00000100
00001000
00000001
00000000
,
00000100
00000000
00000001
00000000
00000010
00000000
00000000
00000000
00000000
00000000
00000100
00000000
00000000
00010000
00000000
00000000
,
00001000
00000000
00100000
00000000
00010000
00000000
01010000
00000000
00000000
00000000
10100000
00000000
00000000
01010000
00000000
00000000
,
10000000
00000000
00100000
00000000
10000000
00000000
00000000
00000000
00000000
00000000
01000000
00000000
00000000
00100000
00000000
00000000
,
00010000
01000000
00001000
00010000
00000100
00001000
00000010
00000000
,
00000100
00000000
00000001
00000000
00000010
00000000
00000000
00000000
00000000
00000000
00000100
00000000
00000000
00010000
00000000
00000000
,
00001000
00000000
00100000
00000000
00010000
00000000
00000000
00000000
00000000
00000000
10000000
00000000
00000000
00100000
00000000
00000000
,
10000000
00000000
01000000
00000000
00100000
00000000
00000000
00000000
00000000
00000000
01000000
00000000
00000000
00100000
00000000
00000000
,
00001000
00000000
00010000
00000000
00000010
00000000
00000000
00000000
00000000
00000000
00001000
00000000
00000000
00000001
00000000
00000000
,
00000100
00000001
00000010
00000100
00010000
00001000
00100000
01000000
,
10000000
00010000
01000000
00001000
00010000
00000100
00001000
00000001
,
00000100
00000010
00001000
00000100
00010000
00001000
01000000
00010000
,
10000000
01000000
00100000
00010000
01000000
00001000
00010000
00000010
,
00001000
00000001
00000010
00000100
00001000
00000010
00000100
00000010
,
00001000
00000100
00010000
00001000
01000000
00010000
00100000
00010000
,
01000000
00001000
00100000
00010000
01000000
00100000
10000000
01000000
,
00100000
00010000
01000000
00001000
00010000
00000010
00001000
00000001
,
00000000
00000100
00000000
00000000
00000010
00000000
00000000
00010000
00000000
00000000
00001000
00000000
00000000
00100000
00000000
00000000
,
01000000
00000000
00000000
00010000
00000000
00000000
00001000
00000000
00000000
00000100
00000000
00000000
00000010
00000000
00000000
00000000
,
00010000
00001000
01000000
00001000
00010000
00000100
00000000
00000000
,
00000000
00000000
00000000
00000000
,
00010000
00001000
01000000
00001000
00010000
00001000
00010000
00000100
,
00010000
00001000
01000000
00001000
00010000
00001000
00010000
00000100
,
00001000
00000010
00000100
00000001
00000010
00000100
00000000
00000000
,
00000000
00000000
00000001
00000100
00000001
00000010
00000100
00010000
,
00001000
01000000
00010000
10000000
01000000
00100000
00010000
01000000
,
00001000
00010000
00000100
00001000
00000001
00001000
00000010
00010000
,
00001000
01000000
00010000
10000000
01000000
00100000
01000000
10000000
,
00010000
00100000
00010000
01000000
00001000
00010000
00000100
00001000
,
00000001
00000100
00000010
00001000
00000001
00000010
00000100
00010000
,
00001000
01000000
00010000
10000000
01000000
00100000
00010000
01000000
,
00001000
00010000
00000010
00001000
00000001
00000000
00000100
00000001
,
00001000
00000000
00000100
00010000
00001000
00100000
00001000
00010000
,
00000100
00010000
00001000
01000000
00010000
10000000
01000000
00100000
,
00010000
01000000
00001000
00010000
00000100
00001000
00000001
00000100
,
00000010
00010000
00001000
01000000
00010000
10000000
01000000
00100000
,
01000000
10000000
00010000
00100000
00001000
00010000
00000010
00001000
,
00000001
00000010
00000100
00001000
00000001
00000100
00000001
00001000
,
00000010
00001000
00000001
00000010
00000100
00001000
00000010
00000100
,
00000001
00000010
00000100
00000000
00000110
00000000
00001100
00000000
,
00011000
00000000
01000000
00010000
10000000
00100000
10000000
01000000
,
00100000
00010000
01000000
00001000
00010000
00000100
00001000
00000001
,
00000100
00000010
00001000
00000100
00000010
00000001
00000100
00000010
,
00001000
00000001
00000010
00000000
00000110
00000000
00001100
00000000
,
00011000
00000000
01000000
00010000
10000000
00100000
10000000
01000000
,
00100000
00010000
01000000
00001000
00010000
00000010
00001000
00000001
,
00000010
00000100
00001001
00000000
00000110
00000000
00000001
00000100
,
00000010
00000000
00001000
00000000
00000010
00000000
00000100
00000000
00000000
00000001
00000000
00000000
00001000
00000000
00000000
00000100
00000000
00000000
00010000
00000000
00000000
00001000
00000000
00000000
,
01000000
00010000
10010000
00000000
00000000
00000000
00000000
00000000
;
