#TITLE:Orfevre;
#SUBTITLE:;
#ARTIST:SHIKI;
#TITLETRANSLIT:;
#SUBTITLETRANSLIT:;
#ARTISTTRANSLIT:;
#GENRE:Trance;
#CREDIT:tikal.;
#MUSIC:[VIP2 Full Flavor] - Orfevre.ogg;
#BANNER:[VIP2 Full Flavor] - Orfevre.png;
#BACKGROUND:[VIP2 Full Flavor] - Orfevre-bg.png;
#CDTITLE:cdtitle.png;
#SAMPLESTART:20.351;
#SAMPLELENGTH:27.042;
#SELECTABLE:YES;
#OFFSET:-0.065;
#BPMS:0.000=142.000;
#STOPS:;
#BGCHANGES:;
#FGCHANGES:;

//--------------- dance-single - tikal. ----------------
#NOTES:
     dance-single:
     tikal.:
     Beginner:
     1:
     0,0,0,0,0:
0000
0000
0000
0000
,
0000
0000
0000
0000
,
0000
0000
0000
0000
,
0000
0000
0000
0000
,
1000
0000
0000
0000
,
1000
0000
0000
0000
,
0001
0000
0000
0000
,
0001
0000
0000
0000
,
0100
0000
0000
0000
,
0100
0000
0000
0000
,
0010
0000
0000
0000
,
0010
0000
0000
0000
,
2000
0000
0000
0000
,
3000
0000
0100
0010
,
0002
0000
0000
0000
,
0003
0000
0100
0010
,
1000
0000
0100
0000
,
0001
0000
0010
0000
,
1000
0000
0100
0000
,
0010
0000
0001
1000
,
0002
0000
0000
0000
,
0003
0000
0100
0010
,
2000
0000
0000
0000
,
3000
0000
0100
0010
,
0001
0000
0100
0000
,
1000
0000
0010
0000
,
0001
0000
0100
0000
,
0010
0000
1000
0001
,
1000
0000
0000
0000
,
0000
0000
0000
0000
,
0001
0000
0000
0000
,
0000
0000
0000
0000
,
1000
0000
0000
0000
,
0001
0000
0000
0000
,
1000
0000
0001
0000
,
1000
0000
0001
0000
,
0100
0000
0000
0000
,
0000
0000
0000
0000
,
0010
0000
0000
0000
,
0000
0000
0000
0000
,
0100
0000
0000
0000
,
0000
0000
0000
0000
,
0001
0000
0000
0000
,
1000
0000
0000
0000
,
0100
0000
0000
0000
,
0010
0000
0000
0000
,
0000
0000
0000
0000
,
0000
0000
0000
0000
,
0001
0000
0000
0000
,
0010
0000
0000
0000
,
0100
0000
0000
0000
,
1000
0000
0000
0000
,
0001
0000
0000
0000
,
0100
0000
0000
0000
,
0010
0000
0000
0000
,
1000
0000
0000
0000
,
0000
0000
0002
0000
0000
0003
0002
0000
,
0000
0003
0000
0010
,
0100
0000
2000
0000
0000
3000
2000
0000
,
0000
3000
0000
0010
,
0100
0001
0000
0010
,
0000
1000
0000
0100
,
0000
0001
0000
0010
,
0000
0100
0000
1000
,
0001
0000
2000
0000
0000
3000
2000
0000
,
0000
3000
0000
0010
,
0100
0000
0002
0000
0000
0003
0002
0000
,
0000
0003
0000
0010
,
0100
1000
0000
0010
,
0000
0001
0000
0100
,
0000
1000
0000
0010
,
0000
0100
0000
0001
,
1000
0001
0000
0000
,
0000
0001
0000
0000
,
0000
1000
0000
0000
,
0000
1000
0000
0000
;

//--------------- dance-single - tikal. ----------------
#NOTES:
     dance-single:
     tikal.:
     Easy:
     3:
     0,0,0,0,0:
0000
0000
0000
0000
,
0000
0000
0000
0000
,
0000
0000
0000
0000
,
0000
0000
0000
0000
,
2000
0100
0000
0100
,
0000
0100
0000
0100
,
3002
0100
0000
0100
,
0000
0100
0000
0100
,
2003
0010
0000
0010
,
0000
0010
0000
0010
,
3002
0010
0000
0010
,
0000
0010
0000
0010
,
1003
0010
1000
0010
,
0100
0000
0001
0100
,
0010
1000
0010
1000
,
0100
0000
0001
0100
,
2000
0000
3020
0000
,
0032
0000
0203
0000
,
2300
0000
3020
0000
,
0230
0000
0301
1000
,
0001
0010
0001
0010
,
0100
0000
1000
0100
,
0010
0001
0010
0001
,
0100
0000
1000
0100
,
0002
0000
0023
0000
,
2030
0000
3200
0000
,
0302
0000
0023
0000
,
0230
0000
1300
0001
,
1000
1000
1000
1000
,
1000
0000
1000
0000
2000
0000
0000
3000
,
0001
0001
0001
0001
,
0001
0000
0001
0000
0002
0000
0000
0003
,
1000
1000
1000
1000
,
0001
0001
0001
0001
,
0010
0100
0010
0100
,
1000
0001
1000
0001
,
0200
0000
0000
0000
,
0000
0000
0000
0000
,
0302
0000
2003
0000
,
3200
0000
0320
0000
,
0032
0000
2003
0000
,
3020
0000
0230
0000
,
0302
0000
0203
0000
,
0320
0000
2030
0000
,
3002
0000
0023
0000
,
0230
0000
2300
0000
,
0000
0000
0000
0000
,
0000
0000
0000
0000
,
3002
0100
0000
0100
,
2003
0010
0000
0010
,
3002
0010
0000
0010
,
2003
0100
0000
3100
,
0020
0001
0000
0031
,
0200
1000
0000
1300
,
0020
1000
0000
1030
,
0100
0001
1000
0100
,
0000
1000
0100
1000
,
0100
0010
0000
0001
,
0010
0100
1000
0100
,
1000
0010
0000
0001
,
0010
2000
0000
3200
,
0000
0302
0000
0023
,
0000
2030
0000
3200
,
0000
0320
0000
0031
,
1000
0001
0100
0001
,
0100
0010
0000
1000
,
0010
0100
0001
0100
,
0001
0010
0000
1000
,
0010
0002
0000
0203
,
0000
2300
0000
3020
,
0000
0032
0000
0203
,
0000
0320
0000
1030
,
0001
2000
0100
0000
,
3100
0001
0100
0010
,
1000
0002
0100
0000
,
0103
1000
0100
0010
,
0001
1000
0000
0000
;

//--------------- dance-single - tikal. ----------------
#NOTES:
     dance-single:
     tikal.:
     Medium:
     5:
     0,0,0,0,0:
0000
0000
0000
0000
,
0000
0000
0000
0000
,
0000
0000
0000
0000
,
0000
0000
0000
0000
,
2000
0100
0000
3100
,
0001
0100
0010
1000
,
0002
0100
0000
0103
,
1000
0100
0010
0001
,
2000
0010
0000
3010
,
0001
0010
0100
1000
,
0002
0010
0000
0013
,
1000
0010
0100
0001
,
2000
0000
0000
3200
0000
0000
0020
0000
0000
0000
0000
0000
0300
0000
0000
0000
,
0000
0031
0020
0230
,
2300
0000
0000
3020
0000
0000
0200
0000
0000
0000
0000
0000
0000
0000
0000
0000
,
0030
0000
0000
0000
0301
0000
0100
0010
,
1000
0000
0000
1000
0100
0000
0000
0100
,
0001
0000
0000
0001
0010
0000
0000
0010
,
1000
0000
0000
1000
0100
0000
0000
0100
,
0020
0000
0230
2300
,
3002
0000
0000
0203
0000
0000
0020
0000
0000
0000
0000
0000
0300
0000
0000
0000
,
0000
1030
0020
0230
,
0302
0000
0000
0023
0000
0000
0200
0000
0000
0000
0000
0000
0000
0000
0000
0000
,
0030
0000
0000
0000
1300
0000
0100
0010
,
0001
0000
0000
0001
0100
0000
0000
0100
,
1000
0000
0000
1000
0010
0000
0000
0010
,
0001
0000
0000
0001
0100
0000
0000
0100
,
0020
0000
0230
0302
,
1003
1000
1000
1000
,
1000
0000
1000
0000
2000
0000
3100
0010
,
0001
0001
0001
0001
,
0001
0000
0001
0000
0002
0000
0103
0010
,
1000
1000
0001
0001
,
0010
0010
0100
0100
,
1000
0010
0100
0001
,
1000
0100
0010
0001
1000
0100
0010
0001
,
2000
0000
0000
0000
,
0000
0000
0000
0000
,
3001
0000
0000
0010
0100
0000
0000
0000
,
1000
0000
0010
0100
,
0001
0100
0010
0100
0000
0000
0001
0000
,
1000
0000
0000
0000
0000
0000
0100
0010
,
0001
0000
0000
0100
0000
0000
0000
0010
,
0010
0000
1000
0000
,
0001
0000
0000
0000
0000
0000
0010
0100
,
2000
0000
0002
0000
,
0000
0000
0000
0000
,
0000
0000
0000
3003
,
2000
0000
0000
0000
3001
0010
0100
0010
,
0002
0000
0000
0000
1003
0010
0100
0001
,
2000
0000
0100
0000
0000
0000
3100
0010
,
0002
0100
0000
0103
,
2000
0000
3001
0100
0010
0100
0010
1000
,
0002
0000
0000
0000
1003
0100
0010
0001
,
2000
0000
0010
0000
0000
0000
3010
0100
,
0001
0000
0010
0000
0100
1000
0001
0100
,
0000
0000
0000
0000
0002
0000
0000
0023
0000
0000
0200
0000
0000
0000
0000
0000
,
0030
1000
1300
0200
,
0320
0000
0000
0000
0032
0000
0000
0203
0000
0000
0020
0000
0000
0000
0000
0000
,
0300
1000
1000
1030
,
0010
0100
0001
0000
0000
0001
0010
0000
,
0000
0010
1000
0000
0000
1000
0100
0000
,
0000
0100
0001
0000
0000
0001
0010
0000
,
0000
0010
0200
0000
0000
0000
0320
0000
,
0032
0000
0000
0000
2003
0000
0000
3020
0000
0000
0200
0000
0000
0000
0000
0000
,
0030
0001
0301
0200
,
0320
0000
0000
0000
2030
0000
0000
3200
0000
0000
0020
0000
0000
0000
0000
0000
,
0300
0001
0001
0031
,
0010
0100
1000
0000
0000
1000
0010
0000
,
0000
0010
0001
0000
0000
0001
0100
0000
,
0000
0100
1000
0000
0000
1000
0010
0000
,
0000
0010
0200
0000
0000
0000
0320
0000
,
2030
0000
3001
0100
0010
0000
0100
0000
,
0001
0000
0000
0000
1000
0000
0100
0000
0010
0000
0000
0100
0000
0000
1000
0000
,
0001
1000
0001
0010
0100
0000
0010
0000
,
0001
0000
0000
0000
1000
0000
0010
0000
0100
0000
0000
0010
0000
0000
1000
0000
,
0001
1000
0001
0000
0000
0000
0000
0000
;

//--------------- dance-single - tikal. ----------------
#NOTES:
     dance-single:
     tikal.:
     Hard:
     7:
     0,0,0,0,0:
0000
0000
0000
0000
,
0000
0000
0000
0000
,
0000
0000
0000
0000
,
0000
0000
0000
0000
,
1000
0000
0100
0000
0010
0000
0000
0100
0000
0000
1000
0000
0000
0000
1000
0000
,
0001
0000
0100
0000
0010
0000
0100
0001
0000
0000
1000
0000
0001
0000
0010
0000
,
0001
0000
0100
0000
0010
0000
0000
0100
0000
0000
0001
0000
0000
0000
0001
0000
,
1000
0000
0100
0000
0010
0000
0100
1000
0000
0000
0001
0000
1000
0000
0010
0000
,
0100
0000
0001
0000
0010
0000
0000
0001
0000
0000
0100
0000
0000
0000
0100
0000
,
0010
0000
1000
0000
0100
0000
1000
0010
0000
0000
0100
0000
0001
0000
1000
0000
,
0100
0000
1000
0000
0010
0000
0000
1000
0000
0000
0100
0000
0000
0000
0100
0000
,
0010
0000
0001
0000
0100
0000
0001
0010
0000
0000
0100
0000
1000
0000
0001
0000
,
2000
0000
0000
3020
0000
0000
0230
0000
0320
0000
0000
0230
0000
0000
0302
0000
,
0000
1000
2003
3200
,
0320
0000
0000
0230
0000
0000
2300
0000
3002
0000
0000
0023
0000
0000
0230
0000
,
0000
0000
0000
0000
1000
0000
0310
0001
,
2000
0000
3001
0100
0200
0000
0310
1000
,
2000
3100
0002
0013
,
2000
0000
0000
0000
0100
0000
0000
0000
3002
0000
0000
0000
0103
0000
0010
1000
,
0002
0000
0000
0000
1003
0001
0000
1000
0000
0001
1000
0000
0001
0000
1000
0000
,
0002
0000
0000
0023
0000
0000
0230
0000
0320
0000
0000
0230
0000
0000
2300
0000
,
0000
0001
3002
0203
,
0320
0000
0000
0230
0000
0000
0302
0000
2003
0000
0000
3020
0000
0000
0230
0000
,
0000
0000
0000
0000
0001
0000
0310
1000
,
0002
0000
1003
0100
0200
0000
0310
0001
,
0002
0103
2000
3010
,
0002
0000
0000
0000
0100
0000
0000
0000
2003
0000
0000
0000
3100
0000
0010
0001
,
2000
0000
0000
0000
0000
0000
0000
0000
3001
1000
0000
0001
1000
0000
0001
1000
,
0001
0001
0001
0001
,
1000
0000
0000
0000
1000
0000
0000
0000
1000
0000
0000
0100
0010
0000
0001
0000
,
0100
0100
0100
0100
,
0010
0000
0000
0000
0010
0000
0000
0000
0010
0000
0000
1000
0100
0000
0010
0000
,
0001
0000
0001
0000
1000
0000
1000
0000
0001
0000
0001
0000
1000
0000
1000
0001
,
0010
0000
0010
0000
0100
0000
0100
1000
0001
0000
0001
0000
1000
0001
1000
0000
,
0001
0100
0010
1000
0001
0010
0100
1000
,
0400
0040
0000
0000
0000
0000
0000
0000
0000
0000
0000
0000
0000
0000
0300
0030
,
0002
0000
0000
0000
,
0000
0000
0000
0000
,
2003
0000
0000
3020
0230
0000
0000
0000
,
0302
0000
0023
0230
,
2300
3100
0010
0200
0000
0000
2300
0000
,
3002
0000
0000
0000
0000
0000
0103
0010
,
2000
0000
0000
0200
0000
3000
0000
0310
,
0020
0000
0002
0030
,
2003
0000
0000
0000
0000
0000
3010
0100
,
0002
0000
2000
0000
,
0000
0000
0000
0000
,
0000
0000
0000
3003
,
0002
0000
0000
0023
0000
0000
0130
0000
0010
0000
0100
0000
1000
0000
0001
0000
,
0200
0000
0000
0301
0001
1000
0100
0010
,
0200
0000
0000
0000
1000
0000
0000
1300
,
0002
0000
1000
1003
,
2000
0000
3010
0100
0010
1000
0001
0010
,
0200
0000
0000
0310
0010
0001
1000
0010
,
0200
0000
0000
0000
0000
0000
0000
0000
0010
0000
0000
0000
0310
0000
0000
0010
,
1000
0100
0010
0001
1000
0010
0100
0002
,
0000
0000
0000
0000
2003
0000
0000
3200
0000
0000
0302
0000
2003
0000
0000
3020
,
0000
0000
0032
0000
1003
0010
0000
0000
0100
0000
0010
1000
0000
0000
0001
0000
,
0010
0000
0100
0000
2000
0000
0000
3020
0000
0000
0032
0000
2003
0000
0000
3200
,
0000
0000
0302
0000
1003
0100
0000
0000
0010
0000
0100
1000
0000
0000
0001
0000
,
0100
0010
2000
0000
3001
0010
0020
0000
,
0130
1000
2000
0000
3010
0000
0002
0000
,
0103
2000
0010
3002
,
0013
0000
0100
1000
0002
0000
0000
0000
1003
0001
0000
1000
0000
0001
1000
0000
,
0001
0000
1000
0000
0002
0000
0000
0203
0000
0000
2300
0000
3002
0000
0000
0023
,
0000
0000
2030
0000
3001
0010
0000
0000
0100
0000
0010
0001
0000
0000
1000
0000
,
0010
0000
0100
0000
0002
0000
0000
0023
0000
0000
2030
0000
3002
0000
0000
0203
,
0000
0000
2300
0000
3001
0100
0000
0000
0010
0000
0100
0001
0000
0000
1000
0000
,
0100
0010
0002
0000
1003
0010
0020
0000
,
0130
0001
0002
0000
0013
0000
2000
0000
,
3100
0002
0010
2003
,
3010
0000
0100
0001
2000
0000
0000
0000
0000
0000
0000
0000
3001
1000
0000
0001
,
1000
0000
0001
1000
0001
0000
0100
0000
0010
0000
0000
0100
0000
0000
0001
0000
,
0000
0000
0001
0000
1000
0000
0100
0000
0010
0000
0100
1000
0000
0000
0001
0000
,
1000
0000
0010
0000
1000
0000
0100
0000
0010
0000
0000
0100
0000
0000
1000
0000
,
0000
0000
1000
0000
0001
0000
0100
0000
0010
0000
0100
0001
0000
0000
1000
0000
,
0001
0010
0100
0000
0000
0000
0000
0000
;

//--------------- dance-single - tikal. ----------------
#NOTES:
     dance-single:
     tikal.:
     Challenge:
     10:
     0,0,0,0,0:
0000
0000
0000
0000
,
0000
0000
0000
0000
,
0000
0000
0000
0000
,
0000
0000
0000
0000
,
1000
0001
0100
0000
0010
0000
1000
0100
0000
1000
0001
0000
1000
0010
0100
0000
,
0001
0100
0001
1000
0010
1000
0001
0010
0000
0001
1000
0000
0001
1000
0100
0010
,
0001
1000
0100
0000
0010
0000
0001
0100
0000
0001
1000
0000
0001
0010
0100
0000
,
1000
0100
1000
0001
0010
0001
1000
0010
0000
1000
0001
0000
1000
0001
0100
0010
,
0100
0010
1000
0000
0001
0000
0010
0100
0000
0010
0001
0000
1000
0001
0010
0100
,
0010
0001
0100
0010
1000
0010
0100
0001
0000
0100
0010
0000
1000
0001
0010
0100
,
0010
0100
1000
0000
0001
0000
0100
0010
0000
0100
0001
0000
1000
0001
0100
0010
,
0100
0001
0010
0100
1000
0100
0000
0010
0000
0001
1000
0000
0001
0100
0010
1000
,
0002
0000
0000
0023
0000
0000
0230
0000
0302
0000
0000
0203
0000
0000
0320
0000
,
0031
0010
0000
0100
1000
0000
0010
0100
0000
0001
1000
0000
0001
0010
0100
0000
,
2000
0000
0000
3020
0000
0000
0230
0000
2300
0000
0000
3200
0000
0000
0320
0000
,
1030
0010
0000
0100
0001
0000
0010
0100
0000
1000
0001
0000
1000
0010
0100
0000
,
0002
0000
1003
0100
0200
0000
0310
0001
,
0002
0103
2000
3010
,
0001
1000
0100
0000
1000
0000
0010
0100
0000
0010
1000
0000
0001
1000
0010
0100
,
0010
1000
0100
0010
0001
0010
0000
0100
0000
1000
0001
0000
1000
0010
0100
0001
,
2000
0000
0000
3200
0000
0000
0320
0000
2030
0000
0000
3020
0000
0000
0230
0000
,
1300
0100
0000
0010
0001
0000
0100
0010
0000
1000
0001
0000
1000
0100
0010
0000
,
0002
0000
0000
0203
0000
0000
0320
0000
0032
0000
0000
0023
0000
0000
0230
0000
,
0301
0100
0000
0010
1000
0000
0100
0010
0000
0001
1000
0000
0001
0100
0010
0000
,
2000
0000
3001
0010
0020
0000
0130
1000
,
2000
3010
0002
0103
,
1000
0001
0010
0000
0001
0000
0100
0010
0000
0100
0001
0000
1000
0001
0100
0010
,
0200
0000
0000
0000
0000
0000
0000
0000
0301
0010
0000
0100
1000
0000
0001
1000
,
0001
0001
0001
0001
,
1000
0000
0000
0000
1000
0000
0000
0000
1000
0100
0000
0010
0100
0010
0001
0000
,
0100
0100
0100
0100
,
0010
0000
0000
0000
0010
0000
0000
0000
0010
1000
0000
0100
0010
0001
0100
0000
,
0001
0000
0001
0000
1000
0000
1000
0000
0001
0000
0001
0000
1000
0000
1000
0001
,
0010
0000
0010
0000
0100
0000
0100
1000
0001
0000
0001
0000
1000
0001
1000
0000
,
0001
0100
0001
0100
0010
0100
0010
0100
0010
1000
0010
1000
0001
1000
0001
1000
,
0400
0040
0000
0000
0000
0000
0000
0000
0000
0000
0000
0000
0000
0000
0000
0000
0000
0000
0000
0000
0000
0300
0030
0000
,
0002
0000
0000
0000
,
0000
0000
0000
0000
,
2003
0000
0000
3020
0230
0000
0000
0000
,
0302
0000
0023
0230
,
2300
3100
0010
0200
0000
0000
2300
0000
,
3002
0000
0000
0000
0000
0000
0103
0010
,
2000
0000
0000
0200
0000
3000
0000
0310
,
0020
0000
0002
0030
,
2003
0000
0000
0000
0000
0000
3010
0100
,
0002
0000
2000
0000
,
0000
0000
0000
0000
,
0000
0000
0000
3003
,
0002
0000
0000
0023
0000
0000
0130
0010
0001
0010
0001
1000
0010
0100
0001
1000
,
0002
0000
0000
0000
0000
0000
1003
0001
1000
0000
0100
0000
0010
0000
0001
0000
,
0020
0000
0000
0000
0000
0000
0000
0000
0100
0000
0000
0000
0000
0000
0130
1000
,
0002
0000
1000
1003
,
2000
0000
0000
3010
0100
0010
1000
0001
0010
0100
0010
0001
0010
0100
1000
0001
,
0200
0000
0000
0000
0000
0000
0310
0100
0010
0000
1000
0000
0001
0000
0010
0000
,
0200
0000
0000
0000
0000
0000
0000
0000
0010
0000
0000
0000
0310
0000
0000
0010
,
0001
1000
0100
0010
0001
1000
0010
1000
0010
0100
0001
1000
0001
0010
0100
2000
,
0000
0000
0000
0000
3001
0000
0100
0010
0000
1000
0100
0000
1000
0000
0010
0100
,
0000
0001
0010
0000
0001
1000
0000
0001
0100
0000
0010
1000
0000
0001
1000
0000
,
0001
0010
0100
1000
0001
0000
0010
0100
0000
1000
0010
0000
1000
0000
0100
0010
,
0000
0001
0100
0000
0001
1000
0000
0001
0010
0000
0100
1000
0000
0001
1000
0000
,
0001
0100
0010
1000
0002
0000
0000
0000
1003
0000
0010
0000
0020
0000
0000
0000
,
0130
0001
0002
0000
0013
0000
2000
0000
,
3100
0000
0000
0000
0001
1000
0010
0000
1000
0000
0100
0010
0000
0100
1000
0000
,
0001
1000
0100
0010
0100
1000
0010
0100
0001
0100
0000
0010
0000
1000
0001
0000
,
1000
0100
0010
0001
1000
0000
0010
0100
0000
0001
0010
0000
0001
0000
0100
0010
,
0000
1000
0100
0000
1000
0001
0000
1000
0010
0000
0100
0001
0000
1000
0001
0000
,
1000
0100
0010
0001
1000
0000
0100
0010
0000
0001
0100
0000
0001
0000
0010
0100
,
0000
1000
0010
0000
1000
0001
0000
1000
0100
0000
0010
0001
0000
1000
0001
0000
,
1000
0010
0100
0001
2000
0000
0000
0000
3001
0000
0100
0000
0200
0000
0000
0000
,
0310
1000
2000
0000
3100
0000
0002
0000
,
0013
0000
0000
0000
1000
0001
0100
0000
0001
0000
0010
0100
0000
0010
0001
0000
,
1000
0001
0010
0100
0020
0000
0000
0000
0000
0000
0000
0000
0031
0100
0000
0010
,
1000
0000
0001
1000
0001
1000
0010
0000
0100
0000
0001
0010
0000
0001
1000
0000
,
0001
0100
0010
0000
1000
0010
1000
0001
0100
0001
1000
0100
0000
1000
0001
0000
,
1000
0001
0010
0100
1000
0001
0010
0000
0100
0000
1000
0010
0000
1000
0001
0000
,
1000
0100
0010
0000
0001
0010
0001
1000
0100
1000
0001
0100
0000
0001
1000
0000
,
0001
1000
0010
0100
0010
0000
0000
0000
0000
0000
0000
0000
0000
0000
0000
0000
;

//--------------- dance-single - Single Performance ----------------
#NOTES:
     dance-single:
     Single Performance:
     Edit:
     1:
     0,0,0,0,0:
0000
0000
0000
0000
,
0000
0000
0000
0000
,
0000
0000
0000
0000
,
0000
0000
0000
0000
,
0001
0000
0000
0000
,
0000
0000
0000
0000
,
1000
0000
0000
0000
,
0000
0000
0000
0000
,
0001
0000
0000
0000
,
0000
0000
0000
0000
,
1000
0000
0000
0000
,
0000
0000
0000
0000
,
0100
0000
0100
0000
,
0000
0000
0000
0000
,
0100
0000
0100
0000
,
0000
0000
0000
0000
,
0010
0000
0000
0000
,
0010
0000
0000
0000
,
0010
0000
0000
0000
,
0010
0000
0000
0000
,
0100
0000
0100
0000
,
0000
0000
0000
0000
,
0100
0000
0100
0000
,
0000
0000
0000
0000
,
0010
0000
0000
0000
,
0010
0000
0000
0000
,
0010
0000
0000
0000
,
0010
0000
0000
0000
,
0001
0000
0001
0000
,
0001
0000
0001
0000
,
1000
0000
1000
0000
,
1000
0000
1000
0000
,
0001
0000
0001
0000
,
1000
0000
1000
0000
,
0001
0000
1000
0000
,
0001
0000
1000
0000
,
0100
0000
0000
0000
,
0000
0000
0000
0000
,
0010
0000
0000
0000
,
0000
0000
0000
0000
,
0001
0000
0000
0000
,
0000
0000
0000
0000
,
0100
0000
0000
0000
,
0000
0000
0000
0000
,
1000
0000
0000
0000
,
0000
0000
0000
0000
,
0000
0000
0000
0000
,
0000
0000
0000
0000
,
0001
0000
0000
0000
,
0010
0000
0000
0000
,
0100
0000
0000
0000
,
1000
0000
0000
0000
,
0001
0000
0000
0000
,
0100
0000
0000
0000
,
0010
0000
0000
0000
,
1000
0000
0000
0000
,
0000
0010
0000
0010
,
0000
0000
0000
0000
,
0000
0010
0000
0010
,
0000
0000
0000
0000
,
0000
0100
0000
0000
,
0000
0100
0000
0000
,
0000
0100
0000
0000
,
0000
0100
0000
0000
,
0000
0010
0000
0010
,
0000
0000
0000
0000
,
0000
0010
0000
0010
,
0000
0000
0000
0000
,
0000
0100
0000
0000
,
0000
0100
0000
0000
,
0000
0100
0000
0000
,
0000
0100
0000
0000
,
0000
0001
0000
0000
,
0000
1000
0000
0000
,
0000
0001
0000
0000
,
0000
1000
0000
0000
;
