#TITLE:More Than Friends;
#SUBTITLE:(feat. Daddy Yankee);
#ARTIST:INNA;
#TITLETRANSLIT:;
#SUBTITLETRANSLIT:;
#ARTISTTRANSLIT:;
#GENRE:;
#CREDIT:;
#BANNER:[VIP2 Full Flavor] - More than Friends.png;
#BACKGROUND:[VIP2 Full Flavor] - More than Friends-bg.png;
#LYRICSPATH:;
#CDTITLE:;
#MUSIC:[VIP2 Full Flavor] - More than Friends.ogg;
#OFFSET:0.000000;
#SAMPLESTART:8.609000;
#SAMPLELENGTH:15.000000;
#SELECTABLE:YES;
#DISPLAYBPM:128.000000;
#BPMS:0.000000=128.000000;
#STOPS:
;
#BGCHANGES:0.000=More Than Friends (feat. Daddy Yankee).avi=1.000=0=0=0=StretchNoLoop====,
99999=-nosongbg-=1.000=0=0=0 // don't automatically add -songbackground-
;
#KEYSOUNDS:;
#ATTACKS:;

//---------------dance-single - ----------------
#NOTES:
     dance-single:
     :
     Hard:
     8:
     0.415154,0.468484,0.219174,0.121763,0.357172,358.000000,331.000000,27.000000,15.000000,0.000000,0.000000,0.415154,0.468484,0.219174,0.121763,0.357172,358.000000,331.000000,27.000000,15.000000,0.000000,0.000000:
0000
0000
0000
0000
,
0000
0000
0000
0000
,
0000
0000
0000
0000
,
0000
0000
0000
0000
,
0000
0000
0000
0000
,
1100
0000
0000
1000
0000
0000
1000
0000
0001
0000
0000
1000
0000
0000
0001
0000
,
0100
0000
0000
0001
0000
0000
0010
0000
0001
0000
0000
0100
0000
0000
0001
0000
,
1000
0000
0000
0010
0000
0000
0100
0000
0010
0000
0000
0010
0000
0000
0010
0000
,
1000
0000
0000
0100
0000
0000
0001
0000
0100
0000
0000
0100
0000
0000
1000
0000
,
0010
0000
0000
0010
0000
0000
0100
0000
0100
0000
0000
0001
0000
0000
0010
0001
,
0010
0000
0000
0001
0000
0000
0100
0000
0010
0000
0000
0010
0000
0000
0010
0000
,
1000
0000
0000
0100
0000
0000
0010
0000
0001
0000
0000
1000
0000
0000
1000
0000
,
0020
0000
0000
0100
0000
0000
0130
0000
0200
0000
0000
0010
0000
0000
0310
0000
,
0010
0000
0000
0010
1000
0000
0100
0000
1000
0000
0001
0000
0100
0000
0010
0000
,
0100
0000
0000
0100
0001
0000
0000
0001
0010
0000
0000
0010
0001
0000
0001
0000
,
0100
0000
0000
0100
0010
0000
0010
0000
1000
0000
0100
0000
1000
0000
1000
0000
,
0001
0000
0000
0001
0100
0000
0000
0000
0101
0000
0000
0100
0001
0000
0001
0000
,
0100
0000
0000
0010
0000
0000
1000
0000
0001
0000
0000
0100
0000
0000
0001
0000
,
0010
0000
0000
0001
0000
0000
1000
0000
0010
0000
0000
0100
0000
0000
0001
0000
,
0020
0100
0100
0100
,
0100
0001
0000
0001
0000
0001
0030
0001
,
2000
0000
3100
0000
,
2000
0000
3001
0000
,
0002
0000
0103
0000
,
0200
0000
0310
0000
,
0100
0000
0000
0100
0000
0000
0100
0000
0010
0000
0000
0010
0000
0000
0010
0000
,
1000
0000
0000
1000
0000
0000
1000
0000
0010
0000
0000
0010
0000
0000
0010
0000
,
1000
0001
1000
0001
1000
0001
1000
0001
,
0202
0000
0000
0000
0000
0000
0303
0000
0001
0100
0000
0001
1000
0000
1000
0000
,
0001
0000
0000
0001
0000
0000
0101
0000
0100
0000
0000
0100
0000
0000
0110
0000
,
0010
0000
0000
0010
0000
0000
1010
0000
1100
0000
0000
0000
1000
0000
0001
0000
,
0100
0000
0000
0100
0000
0000
0110
0000
0100
0000
0000
0100
0000
0000
0101
0000
,
0001
0000
0000
0001
0000
0000
0010
0000
0001
0000
0100
0000
0001
0000
0010
0000
,
0100
0000
0000
0100
0000
0000
1100
0000
1000
0000
0000
1000
0000
0000
1001
0000
,
0001
0000
0000
0100
0000
0000
1000
0000
0100
0000
0000
0001
0000
0000
0010
0000
,
0001
0000
0000
0001
0000
0000
0011
0000
0100
0000
0000
0100
0000
0000
1100
0000
,
2000
0010
0001
3100
,
1000
0000
0000
1000
0001
0000
0000
0000
0001
0000
0000
0001
0100
0000
0000
0000
,
0100
0000
0000
0100
0010
0000
0000
0000
1010
0000
0000
0000
0101
0000
0000
0000
,
0001
0000
0000
0001
0100
0000
0000
0000
0100
0000
0000
0100
0010
0000
0000
0000
,
0010
0000
0000
0010
1000
0000
0000
1000
0100
0000
0000
0100
0010
0000
0000
0000
,
0010
0000
0001
0010
0001
0000
0001
0000
1000
0000
0000
0000
0001
0000
0001
0000
,
0100
0000
0000
0100
0010
0000
0000
0010
1000
0000
0000
1000
0001
0000
0000
0000
,
0200
0000
0000
0010
0000
0000
0310
0000
2000
0000
0000
0100
0000
0000
3100
0000
,
1000
0001
1000
0001
1000
0001
1001
0000
,
0011
0000
0000
0001
0000
0000
0001
0000
1000
0000
0000
0001
0000
0000
1000
0000
,
0010
0000
0000
1000
0000
0000
0100
0000
1000
0000
0010
0000
1000
0000
1000
0000
,
0001
0000
0000
0100
0000
0000
0010
0000
0100
0000
0000
0100
0000
0000
0100
0000
,
0001
0000
0000
0010
0000
0000
1000
0000
0010
0000
0000
0010
0000
0000
0001
0000
,
0100
0000
0000
0100
0000
0000
0010
0000
0010
0000
0000
1000
0000
0000
0100
1000
,
0100
0000
0000
1000
0000
0000
0010
0000
0100
0000
0000
0100
0000
0000
0100
0000
,
0001
0000
0000
0010
0000
0000
0100
0000
1000
0000
0000
0001
0000
0000
0001
0000
,
0200
0000
0000
0010
0000
0000
0310
0000
0020
0000
0000
0100
0000
0000
0130
0000
,
1000
0000
0000
1000
0000
0000
1010
0000
0010
0000
0000
0010
0000
0000
0110
0000
,
0100
0000
0000
0100
0000
0000
0101
0000
0011
0000
0000
0000
0001
0000
1000
0000
,
0010
0000
0000
0010
0000
0000
0110
0000
0010
0000
0000
0010
0000
0000
1010
0000
,
1000
0000
0000
1000
0000
0000
0100
0000
1000
0000
0010
0000
1000
0000
0100
0000
,
0010
0000
0000
0010
0000
0000
0011
0000
0001
0000
0000
0001
0000
0000
1001
0000
,
1000
0000
0000
0010
0000
0000
0001
0000
0010
0000
0000
1000
0000
0000
0100
0000
,
1000
0000
0000
1000
0000
0000
1100
0000
0010
0000
0000
0010
0000
0000
0011
0000
,
0002
0100
1000
0013
;

//---------------dance-single - ----------------
#NOTES:
     dance-single:
     :
     Medium:
     6:
     0.275996,0.320541,0.146116,0.186703,0.000000,238.000000,220.000000,18.000000,23.000000,0.000000,0.000000,0.275996,0.320541,0.146116,0.186703,0.000000,238.000000,220.000000,18.000000,23.000000,0.000000,0.000000:
0000
0000
0000
0000
,
0000
0000
0000
0000
,
0000
0000
0000
0000
,
0000
0000
0000
0000
,
0000
0000
0000
0000
,
1000
0000
0100
1000
0100
0000
1100
0000
,
0010
0000
0100
0001
0010
0000
0011
0000
,
0001
0000
0100
0000
0010
1000
0100
0000
,
1000
0000
1000
0000
0001
0100
0001
0000
,
0100
0110
0010
1010
,
2000
0000
0001
3001
,
0001
0100
0001
0000
1000
0010
0100
0000
,
0200
0010
0010
0310
,
0010
1000
0100
0100
,
1000
0000
0001
0100
0001
0000
0101
0000
,
0100
0010
1000
0100
,
1000
0000
0010
1000
2002
0000
3003
0000
,
0001
0100
0200
0310
,
0010
0010
2000
3001
,
2002
0000
0000
0000
,
0000
0000
0000
3003
,
0200
0000
0310
0000
,
0020
0000
1030
0000
,
2000
0000
3100
0000
,
0002
0000
0103
0000
,
0200
0010
0310
0000
,
0020
1000
1030
0000
,
0001
1000
0001
1000
,
0001
0100
0010
1000
0200
0000
1000
0300
,
1000
1000
1100
1100
,
0010
0010
0110
0000
,
0100
0100
0101
0101
,
0001
0001
0011
0000
,
0001
1000
0001
0001
,
0100
0000
0010
0000
1000
0100
1000
0000
,
0002
0000
0000
0000
1000
0000
1000
0003
,
2000
0000
0001
3001
,
0001
0100
0010
0010
,
1000
0000
0100
0100
1100
0000
0011
0000
,
0001
0100
0010
0010
,
1000
0000
0100
0000
1000
0001
1000
0000
,
0001
0101
0100
1010
,
0010
0000
1000
0000
0100
0100
1000
0000
,
2000
0000
3200
0000
,
0310
0001
0010
0001
0010
0001
0101
0000
,
0010
1000
0100
0100
,
1000
0000
0010
0000
0100
0000
0001
0001
,
1000
1000
0001
0001
,
1000
0000
0001
0000
1000
0001
1000
0000
,
0010
0100
0001
0001
,
0010
0000
0001
0000
0100
0010
0100
0000
,
0010
1000
0100
1000
,
0002
0000
0000
0000
0100
0000
0103
0100
,
0100
0010
0100
0100
,
0010
0000
1000
0000
0100
1000
0100
0000
,
1000
1000
0001
0001
,
0100
0001
0100
0000
0200
0000
0310
0000
,
0010
1000
0100
0100
,
1000
0000
0010
0000
0100
0001
0100
0000
,
0002
0000
0010
0013
,
0200
0000
1000
1300
;

//---------------dance-single - ----------------
#NOTES:
     dance-single:
     :
     Easy:
     3:
     0.205258,0.245556,0.089293,0.146116,0.000000,177.000000,166.000000,11.000000,18.000000,0.000000,0.000000,0.205258,0.245556,0.089293,0.146116,0.000000,177.000000,166.000000,11.000000,18.000000,0.000000,0.000000:
0000
0000
0000
0000
,
0000
0000
0000
0000
,
0000
0000
0000
0000
,
0000
0000
0000
0000
,
0000
0000
0000
0000
,
0001
1000
0001
0001
,
1000
0010
1000
1000
,
0100
1000
0100
0100
,
0010
0001
0100
0100
,
0001
1000
0001
0001
,
1000
0010
0100
0100
,
0010
1000
0100
0100
,
2000
0000
0001
3001
,
0001
0100
0001
0001
,
1000
0001
2000
3000
,
0010
0100
0001
0001
,
0010
0001
0200
0300
,
0010
0010
0100
0000
,
0100
0100
0010
0000
,
2000
0000
3200
0000
,
0320
0000
0032
0000
,
0203
0000
0000
0300
,
0020
0000
0000
0030
,
2000
0000
0000
3000
,
0002
0000
0000
0003
,
1000
0000
1000
0000
,
0001
0000
0001
0000
,
1000
0001
1000
0001
,
1000
0001
1001
0000
,
0010
0010
0110
0000
,
0100
0100
0101
0000
,
0001
0001
0011
0000
,
1000
1000
1100
0000
,
0010
1000
0100
0100
,
1000
0010
0100
0100
,
0001
0010
0001
0001
,
0200
0000
0301
0000
,
0001
1000
0001
0001
,
0100
0010
0200
0300
,
0010
0010
1000
0000
,
1000
0100
1000
0000
,
0001
0000
0100
0000
,
0010
0000
0100
0000
,
0001
0000
1000
0000
,
0001
1000
0001
1001
,
0110
0000
0100
0000
,
0100
0010
1000
0100
,
2000
0000
0001
3001
,
0002
0000
1000
1003
,
0010
0100
0001
0000
,
0001
0010
0100
0000
,
1000
0001
0001
0100
,
0020
0000
0130
0000
,
0100
0100
0110
0000
,
0010
0010
1010
0000
,
1000
1000
1100
0000
,
0001
0001
0011
0001
,
0100
0000
0100
0000
,
0001
0010
0100
0100
,
2000
0000
3001
0000
,
0002
0000
0103
0000
;

//---------------dance-single - ----------------
#NOTES:
     dance-single:
     :
     Beginner:
     1:
     0.121763,0.197256,0.032470,0.032470,0.000000,105.000000,101.000000,4.000000,4.000000,0.000000,0.000000,0.121763,0.197256,0.032470,0.032470,0.000000,105.000000,101.000000,4.000000,4.000000,0.000000,0.000000:
0000
0000
0000
0000
,
0000
0000
0000
0000
,
0000
0000
0000
0000
,
0000
0000
0000
0000
,
0000
0000
0000
0000
,
1000
0000
1000
0000
,
1000
0000
0000
0000
,
0001
0000
0001
0000
,
0001
0000
0000
0000
,
1000
0000
0001
0000
,
1000
0000
0000
0000
,
0001
0000
1000
0000
,
0001
0000
0000
0000
,
0100
0000
0100
0000
,
0100
0000
0100
0000
,
0010
0000
0010
0000
,
0010
0000
0010
0000
,
1000
0000
0000
0000
,
0001
0000
0000
0000
,
1001
0000
0000
0000
,
0000
0000
0000
0000
,
0100
0000
0000
0000
,
0100
0000
0000
0000
,
0001
0000
0000
0000
,
0001
0000
0000
0000
,
1000
1000
1000
0000
,
0001
0001
0001
0000
,
0100
0000
0010
0000
,
0100
0000
0110
0000
,
0010
0000
1000
0000
,
0100
0000
1000
0000
,
0001
0000
0100
0000
,
0010
0000
0100
0100
,
0100
0000
0001
0000
,
1000
0000
0100
0000
,
1000
0000
0000
0000
,
0001
0000
0001
0000
,
0100
0000
0100
0000
,
0001
0000
1000
0000
,
0001
0000
1000
0000
,
0010
0000
1000
0000
,
0100
0000
0010
0000
,
0001
0000
0100
0000
,
0002
0000
0000
0003
,
2000
0000
0000
3000
,
0010
0000
0100
0000
,
0010
0000
0100
0000
,
0001
0001
0001
0000
,
1000
1000
1000
0000
,
1001
0000
0100
0000
,
0110
0000
0010
0000
,
0010
0000
1000
0000
,
0100
0000
0000
0000
,
1000
1000
1000
0000
,
0001
0001
0001
0000
,
1000
0000
0001
0000
,
0100
0100
0100
0000
,
0010
0000
0100
0000
,
0001
0000
1000
0000
,
0200
0000
0000
0300
,
0020
0000
0000
0030
;

//---------------dance-single - ----------------
#NOTES:
     dance-single:
     :
     Challenge:
     10:
     0.689991,0.691817,0.381524,0.016235,0.783343,595.000000,548.000000,47.000000,2.000000,0.000000,0.000000,0.689991,0.691817,0.381524,0.016235,0.783343,595.000000,548.000000,47.000000,2.000000,0.000000,0.000000:
0000
0000
0000
0000
,
0000
0000
0000
0000
,
0000
0000
0000
0000
,
0000
0000
0000
0000
,
0000
0000
0000
0000
0000
0000
0000
0000
0000
0000
0000
0010
1000
0000
0100
0000
,
1000
0000
1000
0001
0000
1000
0001
0000
0100
0000
0100
0010
0000
0100
0010
0000
,
0100
0000
0100
0001
0000
0001
0010
0000
0001
0000
0001
1000
0000
1000
0001
0000
,
0100
0000
0100
0010
0000
0010
1000
0000
1000
0000
1000
0100
0000
0100
1000
0000
,
1000
0000
1000
0001
0000
0001
1000
0000
0001
0000
0001
0100
0000
0100
0010
0000
,
0100
0000
0100
0001
0000
0001
0010
0000
0010
0000
0001
0100
0000
0100
0001
0010
,
0001
0000
0000
0100
0000
0000
1000
0000
0100
0000
0000
0001
0000
0000
0001
0000
,
1000
0000
1000
0001
0000
0001
1000
0000
1000
0000
1000
0010
0000
0010
1000
0000
,
1000
0000
1000
0001
0000
0001
0010
0000
0010
0000
0010
0001
0000
0001
0100
0000
,
0001
0000
0010
0001
0010
0000
0001
0100
0001
0000
1000
0010
0100
0000
0010
0100
,
0001
0000
0100
0010
0100
0000
0010
1000
0001
0000
0100
0000
0110
0000
0000
0000
,
1000
0000
0100
1000
0100
0000
1000
0010
1000
0000
0001
0100
0010
0000
0100
0010
,
1000
0000
0010
0100
0010
0000
0100
0001
1000
0000
0010
0000
0110
0000
0110
0000
,
0010
1000
0100
1000
0010
0000
0100
0000
0110
0000
0010
0000
0011
0000
0011
0000
,
0001
1000
0010
0100
0001
0010
0001
0000
1000
0000
1000
0000
1001
0000
1001
0000
,
0001
0100
0001
0010
0001
1000
0010
0100
,
0001
0000
0001
0100
0001
0000
1000
0010
0100
0000
0100
0001
0010
0000
0010
0000
,
0001
0000
0000
0011
0000
0000
0011
0000
0100
0000
0000
0110
0000
0000
0110
0000
,
0010
0000
0000
1010
0000
0000
1010
0000
1000
0000
0000
1100
0000
0000
1100
0000
,
0010
0000
0000
0011
0000
0000
0011
0000
0001
0000
0000
1001
0000
0000
1001
0000
,
0010
0000
0000
1010
0000
0000
1010
0000
0100
0000
0000
0110
0000
0000
0110
0000
,
0100
0001
0100
0001
0000
0000
0010
0000
0001
1000
0001
1000
0000
0000
0010
0000
,
0100
0010
1000
0100
0000
0000
1000
0000
0001
0100
0001
0010
0000
0000
0010
0000
,
0001
1000
0001
1000
0001
1000
0001
1000
,
2002
0000
0000
0000
0000
0000
3003
0000
0001
0100
0000
0100
0001
0000
0001
0000
,
0010
0000
0001
1000
0000
1000
0001
0000
1000
0000
0010
0100
0000
0100
0001
0000
,
0010
0000
0001
0100
0000
0100
0001
0000
0010
0000
0001
1000
0010
0000
0010
0000
,
0100
0000
0010
1000
0000
0001
1000
0000
0001
0000
0100
0010
0000
0010
1000
0000
,
0100
0000
1000
0010
0000
0010
1000
0000
1000
0100
1000
0001
0100
0000
0010
0000
,
0101
0000
0001
1000
0000
1000
0001
0000
0101
0000
0001
0010
0000
0010
0001
1000
,
0010
0000
0100
0010
0000
0010
0100
0000
0100
0000
0100
0001
0000
0001
0010
0000
,
0001
0000
0001
1000
0000
1000
0001
0000
0100
0000
0100
0010
0000
0010
1000
0000
,
0100
1000
0100
0000
1000
0001
0010
0000
0010
0001
0100
0000
0001
0100
0010
0000
,
0100
0000
0100
0010
1000
0000
0100
1000
0000
1000
0001
1000
0010
0100
0010
0100
,
0000
0100
0001
0010
0001
0100
0001
0000
0101
0000
0010
0000
1010
0000
0000
0000
,
0100
0000
0001
0010
0001
1000
0001
1000
0010
0000
0100
0010
0000
0100
0010
0000
,
0010
1000
0100
1000
0000
0001
0010
0000
0110
0000
0110
0000
1001
0000
0000
0000
,
0110
0000
0010
1000
0100
0000
0100
0000
1000
0000
0000
0000
1010
0000
1010
0000
,
0110
0000
0000
0000
0100
0001
0010
0001
1000
0001
1000
0000
0110
0000
0110
0000
,
1001
0000
0100
0001
0010
0000
0010
0000
0001
0000
0000
0000
0101
0000
0101
0000
,
0110
0000
0000
0000
0010
1000
0100
1000
0001
1000
0001
0000
1001
0000
0110
0000
,
1001
0000
0001
1000
0000
0001
1000
0000
0010
0000
0010
0100
0000
0010
0100
0000
,
0010
0000
0010
1000
0000
1000
0100
0000
1000
0000
1000
0001
0000
0001
1000
0000
,
0010
0000
0010
0100
0000
0100
0001
0000
0001
0000
0001
0010
0000
0010
0001
0000
,
0001
0000
0001
1000
0000
1000
0001
0000
1000
0000
1000
0010
0000
0010
0100
0000
,
0010
0000
0010
1000
0000
1000
0100
0000
0100
0000
1000
0010
0000
0010
1000
0100
,
1000
0000
0000
0010
0000
0000
0001
0000
0010
0000
0000
1000
0000
0000
1000
0000
,
0001
0000
0001
1000
0000
1000
0001
0000
0001
0000
0001
0100
0000
0100
0001
0000
,
0001
0000
0001
1000
0000
1000
0100
0000
1000
0010
0000
0010
1000
0000
1000
0000
,
0100
0000
1000
0001
0000
0001
1000
0000
0001
0000
0100
0010
0000
0010
1000
0000
,
0100
0000
1000
0010
0000
0010
1000
0000
0100
0000
1000
0001
0100
0000
0100
0000
,
0010
0000
0100
0001
0000
1000
0001
0000
1000
0000
0010
0100
0000
0100
0001
0000
,
0010
0000
0001
0100
0000
0100
0001
0000
0001
0010
0001
1000
0010
0000
0100
0000
,
1010
0000
1000
0001
0000
0001
1000
0000
1010
0000
1000
0100
0000
0100
1000
0001
,
0100
0000
0010
0100
0000
0100
0010
0000
0010
0000
0010
1000
0000
1000
0100
0000
,
1000
0000
1000
0001
0000
0001
1000
0000
0010
0000
0010
0100
0000
0100
0001
0000
,
0010
0001
0010
0001
1000
0010
0100
0010
1000
0001
0010
0100
0010
0001
0010
0000
;

//---------------dance-single - GIMMICKS----------------
#NOTES:
     dance-single:
     :
     Edit:
     10:
     0.672596,0.934735,0.365289,0.000000,0.393701,580.000000,535.000000,45.000000,0.000000,30.000000,0.000000,0.672596,0.934735,0.365289,0.000000,0.393701,580.000000,535.000000,45.000000,0.000000,30.000000,0.000000:
// measure 0
0000
0000
0000
0000
,  // measure 1
0000
0000
0000
0000
,  // measure 2
0000
0000
0000
0000
0000
0000
0000
0000
0000
0000
0000
0000
0000
0000
0000
0000
0010
0000
1000
0000
0000
0100
0000
0000
1000
0000
0000
0000
0000
0000
1000
0000
0000
0001
0000
0000
0000
0000
0000
1000
0000
0000
0001
0000
0000
0000
0000
0000
,  // measure 3
0100
0000
0100
0010
0000
0100
0010
0000
0100
0000
0100
0001
0000
0001
0010
0000
,  // measure 4
0001
0000
0001
1000
0000
1000
0001
0000
0100
0000
0100
0010
0000
0010
1000
0000
,  // measure 5
1000
0000
1000
0100
0000
0100
1000
0000
1000
0000
1000
0001
0000
0001
1000
0000
,  // measure 6
0001
0000
0001
0100
0000
0100
0010
0000
0100
0000
0100
0001
0000
0001
0010
0000
,  // measure 7
0010
0000
0001
0100
0000
0100
0001
0010
0001
0000
0000
0100
0000
0000
1000
0000
,  // measure 8
0100
0000
0000
0001
0000
0000
0001
0000
1000
0000
1000
0001
0000
0001
1000
0000
,  // measure 9
1000
0000
1000
0010
0000
0010
1000
0000
1000
0000
1000
0001
0000
0001
0010
0000
,  // measure 10
0010
0000
0010
0001
0000
0001
0100
0000
0001
0000
0010
0001
0010
0000
0001
0100
,  // measure 11
0001
0000
1000
0010
0100
0000
0010
0100
0001
0000
0100
0010
0100
0000
0010
1000
,  // measure 12
0001
0000
0100
0000
MMMM
0000
0000
0000
1000
0000
0100
1000
0100
0000
1000
0010
,  // measure 13
1000
0000
0001
0100
0010
0000
0100
0010
1000
0000
0010
0100
0010
0000
0100
0001
,  // measure 14
1000
0000
0010
0000
1MM1
0000
M11M
0000
0010
1000
0100
1000
0010
0000
0100
0000
,  // measure 15
0110
0000
0010
0000
0011
0000
0011
0000
0001
1000
0010
0100
0001
0010
0001
0000
,  // measure 16
1000
1000
1001
1001
0001
0100
0001
0010
,  // measure 17
0001
0000
1000
0000
0010
0000
0100
0000
0001
0000
0001
0100
0001
0000
1000
0010
,  // measure 18
0100
0000
0100
0001
0010
0000
0010
0000
0001
0000
0000
0011
0000
0000
0011
0000
,  // measure 19
0100
0000
0000
0110
0000
0000
0110
0000
0010
0000
0000
1010
0000
0000
1010
0000
,  // measure 20
1000
0000
0000
1100
0000
0000
1100
0000
0010
0000
0000
0011
0000
0000
0011
0000
,  // measure 21
0001
0000
0000
1001
0000
0000
1001
0000
0010
0000
0000
1010
0000
0000
1010
0000
,  // measure 22
0100
0000
0000
0110
0000
0000
0110
0000
0100
0001
0100
0001
0000
0000
0010
0000
,  // measure 23
0001
1000
0001
1000
0000
0000
0010
0000
0100
0010
1000
0100
0000
0000
1000
0000
,  // measure 24
0001
0100
0001
0010
0000
0000
0010
0000
0001
0000
1000
0000
0001
0000
1000
0000
,  // measure 25
0001
0000
1000
0000
0001
0000
1000
0000
0004
4000
0000
0000
0000
0000
3003
0000
,  // measure 26
0001
0100
0000
0100
0001
0000
0001
0000
0010
0000
0000
0000
0001
0000
1000
0000
,  // measure 27
0000
1000
0001
0000
1000
0000
0010
0100
,  // measure 28
0000
0100
0001
0000
0010
0000
0001
0100
,  // measure 29
0000
0100
0001
0000
0010
0000
0001
1000
,  // measure 30
0010
0000
0010
0000
0100
0000
0010
1000
,  // measure 31
0000
0001
1000
0000
0001
0000
0100
0010
,  // measure 32
0000
0010
1000
0000
0100
0000
1000
0010
,  // measure 33
0000
0010
1000
0000
1000
0100
1000
0001
,  // measure 34
0100
0000
0010
0000
0101
0000
0001
1000
,  // measure 35
0000
1000
0001
0000
0101
0000
0001
0010
,  // measure 36
0000
0010
0001
1000
0010
0000
0100
0010
,  // measure 37
0000
0010
0100
0000
0100
0000
0100
0001
,  // measure 38
0000
0001
0010
0000
0001
0000
0001
1000
,  // measure 39
0000
1000
0001
0000
0100
0000
0100
0010
,  // measure 40
0000
0010
1000
0000
0100
1000
0100
0000
,  // measure 41
1000
0001
0010
0000
0010
0001
0100
0000
,  // measure 42
0001
0000
0100
0000
0010
0000
0000
0000
0100
0000
0100
0010
1000
0000
0100
1000
,  // measure 43
0000
1000
0001
1000
0010
0100
0010
0100
0000
0100
0001
0010
0001
0100
0001
0000
,  // measure 44
M1M1
0000
0010
0000
1M1M
0000
MMMM
0000
0100
0000
0001
0010
0001
1000
0001
1000
,  // measure 45
0010
0000
0100
0010
0000
0100
0010
0000
0010
1000
0100
1000
0000
0001
0010
0000
,  // measure 46
M11M
0000
M11M
0000
1MM1
0000
MMMM
0000
0110
0000
0010
1000
0100
0000
0100
0000
,  // measure 47
1000
0000
0000
0000
1010
0000
1010
0000
0110
0000
0000
0000
0100
0001
0010
0001
,  // measure 48
1000
0001
1000
0000
0110
0000
0110
0000
1001
0000
0100
0001
0010
0000
0010
0000
,  // measure 49
0001
0000
0000
0000
0101
0000
0101
0000
0110
0000
0000
0000
0010
1000
0100
1000
,  // measure 50
0001
1000
0001
0000
1MM1
0000
0110
0000
1MM1
0000
0000
0000
0001
0000
1000
0000
,  // measure 51
0000
0001
1000
0000
0010
0000
0010
0100
,  // measure 52
0000
0010
0100
0000
0010
0000
0010
1000
,  // measure 53
0000
1000
0100
0000
1000
0000
1000
0001
,  // measure 54
0000
0001
1000
0000
0010
0000
0010
0100
,  // measure 55
0000
0100
0001
0000
0001
0000
0001
0010
,  // measure 56
0000
0010
0001
0000
0001
0000
0001
1000
,  // measure 57
0000
1000
0001
0000
1000
0000
1000
0010
,  // measure 58
0000
0010
0100
0000
0010
0000
0010
1000
,  // measure 59
0000
1000
0100
0000
0100
0000
1000
0010
,  // measure 60
0000
0010
1000
0100
1000
0000
0000
0010
,  // measure 61
0000
0000
0001
0000
0010
0000
0000
1000
,  // measure 62
0000
0000
1000
0000
0001
0000
0001
1000
,  // measure 63
0000
1000
0001
0000
0001
0000
0001
0100
,  // measure 64
0000
0100
0001
0000
0001
0000
0001
1000
,  // measure 65
0000
1000
0100
0000
1000
0010
0000
0010
,  // measure 66
1000
0000
1000
0000
0100
0000
1000
0001
,  // measure 67
0000
0001
1000
0000
0001
0000
0100
0010
,  // measure 68
0000
0010
1000
0000
0100
0000
1000
0010
,  // measure 69
0000
0010
1000
0000
0100
0000
1000
0001
,  // measure 70
0100
0000
0100
0000
0010
0000
0100
0001
,  // measure 71
0000
1000
0001
0000
1000
0000
0010
0100
,  // measure 72
0000
0100
0001
0000
0010
0000
0001
0100
,  // measure 73
0000
0100
0001
0000
0001
0010
0001
1000
,  // measure 74
0010
0000
0100
0000
1010
0000
1000
0001
,  // measure 75
0000
0001
1000
0000
1010
0000
1000
0100
,  // measure 76
0000
0100
1000
0001
0100
0000
0010
0100
,  // measure 77
0000
0100
0010
0000
0010
0000
0010
1000
,  // measure 78
0000
1000
0100
0000
1000
0000
1000
0001
,  // measure 79
0000
0001
1000
0000
0010
0000
0010
0100
,  // measure 80
0000
0100
0001
0000
0040
0004
0000
0000
,  // measure 81
0000
0000
0000
0000
,  // measure 82
0000
0033
0000
0000
;
