#TITLE:MAGiCVLGiRL_TRVP_B3VTZ;
#SUBTITLE:;
#ARTIST:DJ Noriken;
#TITLETRANSLIT:;
#SUBTITLETRANSLIT:;
#ARTISTTRANSLIT:;
#GENRE:;
#CREDIT:;
#BANNER:banner.png;
#BACKGROUND:background.png;
#LYRICSPATH:;
#CDTITLE:;
#MUSIC:MAGiCVLGiRLTRVPB3VTZ.ogg;
#OFFSET:-0.038764;
#SAMPLESTART:49.236252;
#SAMPLELENGTH:19.200001;
#SELECTABLE:YES;
#DISPLAYBPM:100.000000:400.000000;
#BPMS:0.000000=200.000000
,164.000000=100.000000
,180.000000=400.000000
,182.000000=100.000000
,197.000000=200.000000
,229.000000=400.000000
,277.000000=200.000000
,285.000000=400.000000
,475.000000=200.000000
,476.250000=175.000000
,476.500000=150.000000
,476.750000=124.999992
,477.000000=100.000000
,477.250000=75.000000
,477.500000=50.000000
,477.750000=25.000000
;
#STOPS:180.000000=0.150000,
181.000000=0.150000,
285.000000=0.150000,
412.000000=0.150000
;
#BGCHANGES:;
#KEYSOUNDS:;
#ATTACKS:;

//---------------dance-single - ----------------
#NOTES:
     dance-single:
     :
     Beginner:
     4:
     0.312342,0.685827,0.156760,0.000000,0.000000,265.000000,246.000000,19.000000,0.000000,0.000000,0.000000,0.312342,0.685827,0.156760,0.000000,0.000000,265.000000,246.000000,19.000000,0.000000,0.000000,0.000000:
0000
0000
0000
0000
,
0000
0000
0000
0000
,
0000
0000
0000
0000
,
0000
0000
0000
0000
,
0000
0000
0000
0000
,
0000
0000
0000
0000
,
0000
0000
0000
0000
,
0000
0000
0000
0000
,
0000
0000
0000
0000
,
0001
1000
0001
0000
,
1000
0010
1000
0000
,
0001
0010
0001
0000
,
0100
0000
0100
0000
,
0001
1000
0001
0000
,
1000
0100
1000
0000
,
0001
0100
0001
0000
,
0010
0010
0010
0000
,
1001
0000
1000
0000
,
0001
0000
0000
1000
0000
0000
0001
0000
,
1001
0000
0010
0000
,
0100
0000
0000
0010
0000
0000
0100
0000
,
0110
0000
0100
0000
,
1001
0000
0000
1000
0000
0000
0001
0000
,
0011
0000
1010
0000
,
1001
0000
1000
0001
,
0010
0001
0001
0000
,
1000
0001
1000
1000
,
0100
1000
1000
0000
,
0010
1000
0010
0100
,
0001
1000
1000
0000
,
0001
0100
0100
0000
,
0001
0000
0001
0001
,
0000
0001
1000
0000
,
0110
0000
0000
0000
,
0010
0001
0010
0000
,
0001
1000
0001
0000
,
0001
0010
0100
1000
,
0010
1000
0010
0000
,
1000
0001
1000
0000
,
0100
0000
0100
0010
,
0000
0010
0001
0000
,
1001
0000
0001
1000
0000
1000
0001
0000
,
0100
0010
1010
1001
,
0101
0000
0100
0001
0000
0001
1000
0000
,
0010
0000
0010
1000
0000
0000
0010
0010
,
0000
0000
0000
0000
1001
0000
0010
0001
,
0010
0000
0010
0001
0010
0000
0100
0000
,
1000
0000
0010
1000
0010
0000
0010
1000
,
0010
0000
1000
0001
1000
0000
0100
0000
,
0010
0010
0001
0000
1000
0000
0001
0000
,
0000
0100
0010
1000
,
0000
0001
1000
0001
,
0000
1000
0100
0010
,
0000
0001
0000
1000
,
0000
0010
0000
1000
,
0000
0100
0100
0010
,
0001
0010
0110
0000
,
0000
0010
0000
0000
,
0000
1000
0000
0000
,
0000
0001
0000
1000
,
0000
0001
0000
0000
,
0000
0010
0000
0000
,
0000
0001
0000
0000
,
0000
0100
0000
0100
,
0000
0001
0000
1000
,
0000
0010
0000
0000
,
0000
1000
0000
0000
,
0000
0001
0000
1000
,
0000
0001
0000
0000
,
0000
1001
0000
1000
,
1000
0000
0001
0001
,
0000
0000
0000
0000
,
0001
0000
0000
0000
,
1000
0000
0100
0000
,
1000
0000
0000
0000
,
0010
0000
0000
0000
,
1000
0000
0000
0000
,
0100
0000
0100
0000
,
0010
0000
0001
0000
,
1000
0000
0000
0000
,
0001
0000
0000
0000
,
0100
0000
0001
0000
,
1000
0000
0000
0000
,
0001
0000
1000
0000
,
0001
0000
1000
0000
,
0001
0000
0000
0000
,
1001
0000
1001
0000
,
1000
0000
0010
0000
,
1000
0000
0000
0000
,
0001
0000
0010
0000
,
0001
0000
0000
0000
,
1000
0000
0001
0000
,
1000
0000
0000
0000
,
0100
0000
0000
0000
,
0010
0000
0001
0000
,
0010
0000
0100
0000
,
1000
0000
0000
0000
,
0010
0000
1000
0000
,
0001
0000
0000
0000
,
0100
0000
0001
0000
,
1000
0000
0000
0000
,
0010
0000
0010
0000
,
1000
0000
0100
0000
,
0000
0010
0000
0001
,
0000
0010
0000
0001
,
0000
1000
0000
0001
,
0000
0100
0000
0001
,
0000
0000
0000
1000
,
0000
0000
0000
0010
,
0000
0100
0000
0010
,
0000
0000
0000
1000
,
0000
1000
0000
1001
,
0000
0000
0000
0001
,
0000
0001
0000
1001
,
0000
0000
0000
0001
,
0000
1000
0000
0001
,
0000
0100
0000
0010
,
0000
0000
0000
0010
,
0000
1000
0000
0001
;

//---------------dance-single - ----------------
#NOTES:
     dance-single:
     :
     Easy:
     6:
     0.404277,0.837612,0.115508,0.132009,0.016501,343.000000,329.000000,14.000000,16.000000,0.000000,0.000000,0.404277,0.837612,0.115508,0.132009,0.016501,343.000000,329.000000,14.000000,16.000000,0.000000,0.000000:
0000
0000
0000
0000
,
0000
0000
0000
0000
,
0000
0000
0000
0000
,
0000
0000
0000
0000
,
0000
0000
0000
0000
,
0000
0000
0000
0000
,
0000
0000
0000
0000
,
0000
0000
0000
0000
,
0000
0000
0000
0000
,
0010
1000
0001
0000
,
0010
0001
1000
0000
,
0100
1000
0010
0000
,
0100
0010
0100
0001
,
1000
0100
0010
0000
,
0001
0100
0010
0000
,
1000
0001
1000
0000
,
0100
0000
0000
0010
0000
0020
0000
0000
,
0031
1000
0001
1000
,
0010
0000
0000
1000
0000
0000
1000
0000
,
0001
0010
0001
0010
,
0001
0000
0000
0100
0000
0000
0100
0000
,
0010
0010
1000
1000
,
0001
1000
0001
1000
,
0100
0100
0010
0010
,
0001
0000
1000
1001
,
0001
1000
0010
1000
,
0010
1000
0100
0010
,
0001
0010
0001
0010
,
0001
0010
0100
1000
,
0010
0100
0001
0100
,
0001
0100
0010
1000
,
0100
0000
0000
0100
0100
0000
0100
0000
,
0000
0010
0010
0000
0010
0000
0011
0000
,
0002
0000
2003
0000
,
3010
1000
0001
1000
,
0100
0010
0100
0010
,
0100
1000
0001
0010
,
0001
1000
0100
1000
,
0100
1000
0010
0100
,
0001
0000
0000
1000
1000
0000
1000
0000
,
0000
0001
0001
0000
1000
0000
1010
0000
,
1001
0001
1000
0001
0100
0010
1000
0000
,
1000
0100
0010
0001
1000
0001
0100
0000
,
0001
0010
0100
0000
0100
0010
0001
1000
,
0020
0000
0000
2030
0000
0000
3002
0000
0000
0203
0000
0000
0310
0000
0010
0000
,
1000
0000
0000
0000
0101
0000
0001
0100
,
1000
0000
1000
0100
0001
0000
0010
0001
,
1000
0001
1000
0010
0001
0000
0001
0010
,
1000
0000
0000
0000
1000
0000
0100
0000
0001
0000
0000
0000
0010
0000
0000
0100
,
0000
0100
0000
0000
0100
0000
0000
0000
1000
0000
0000
0000
0100
0000
0000
0000
,
1000
0001
1000
0001
,
0010
0001
0100
0001
,
0100
0010
1000
0100
,
1000
0001
0010
0100
,
1000
0010
1000
0001
,
0100
0010
0010
0100
,
0100
0001
1001
0000
,
0000
0010
0000
1000
,
0000
1000
0000
0001
,
0000
1000
0000
1000
,
0000
0001
0100
0001
,
0000
1000
0000
0001
,
0000
0001
0000
0010
,
0000
0001
0000
0001
,
0000
1000
0100
1000
,
0000
0010
0000
1000
,
0000
1000
0000
0010
,
0000
1000
0000
1000
,
0000
0001
1000
0001
,
0000
1001
0010
0110
,
1001
1000
0011
1100
,
0100
0000
0010
0000
,
0100
0000
0100
0000
,
0010
0000
0010
0000
,
0001
1000
0001
0000
,
0100
0000
0010
0000
,
1000
0000
1000
0000
,
0001
0000
0001
0000
,
1000
0100
1000
0000
,
0010
0000
1000
0000
,
0001
0000
0001
0000
,
1000
0000
1000
0000
,
0001
1000
0001
0000
,
0010
0000
0100
0000
,
1000
0000
0100
0000
,
0010
0000
0000
0000
,
1001
0000
1001
0000
,
0001
0000
1000
0000
,
0100
0000
0000
1000
,
0000
1000
0001
0000
,
0100
0000
0000
0000
,
0010
0000
1000
0000
,
0010
0000
1000
0000
,
0001
0000
1000
0000
,
0001
0000
0010
0000
,
0100
0000
0010
0000
,
0001
0000
1000
0000
,
0001
0000
1000
0000
,
0010
0000
0000
0000
,
1000
0000
0100
0000
,
1000
0000
0010
0000
,
1000
0000
0000
0010
,
0000
0020
0000
0000
,
0030
1000
0000
0010
,
0000
1000
0000
0002
,
0000
0023
0000
0230
,
0000
2300
0000
3001
,
0000
1000
0000
0001
,
0000
0100
0000
0010
,
1000
0010
0000
1000
,
0000
0001
0000
1000
,
0000
0001
0000
0000
1000
0000
0001
0000
,
0000
0020
0000
0031
,
0000
1000
0000
0000
0001
0000
1000
0000
,
0000
0020
0000
1030
,
0000
0100
0000
1000
,
0000
0010
0000
0100
,
0000
0000
0000
0010
,
0010
1000
0000
2002
,
0000
0000
0000
0000
0000
0000
0000
3003
0000
0000
0000
0000
0000
0000
0000
0000
;

//---------------dance-single - ----------------
#NOTES:
     dance-single:
     :
     Medium:
     9:
     0.677724,1.281053,0.264018,0.206264,0.206264,575.000000,543.000000,32.000000,25.000000,0.000000,0.000000,0.677724,1.281053,0.264018,0.206264,0.206264,575.000000,543.000000,32.000000,25.000000,0.000000,0.000000:
0000
0000
0000
0000
,
0000
0000
0000
0000
,
0000
0000
0000
0000
,
0000
0000
0000
0000
,
0000
0000
0000
0000
,
0000
0000
0000
0000
,
0000
0000
0000
0000
,
0000
0000
0000
0000
,
0000
0000
0000
0000
,
0010
0000
0000
0001
0000
0000
1000
0000
0100
0000
0000
0000
0000
0000
0000
0000
,
1000
0000
0000
0010
0000
0000
0100
0000
0001
0000
0000
0000
0000
0000
0000
0000
,
1000
0000
0000
0100
0000
0000
0010
0000
0002
0000
0000
0000
0000
0000
0000
0000
,
0103
0000
0000
0100
0010
1000
0010
0000
,
0100
0000
0000
0001
0000
0000
1000
0000
0010
0000
0000
0000
0000
0000
0000
0000
,
1000
0000
0000
0100
0000
0000
0010
0000
0001
0000
0000
0000
0000
0000
0000
0000
,
0010
0000
0000
0001
0000
0000
1000
0000
0100
0000
0000
0000
1000
0000
0010
0000
,
1000
0001
1000
0100
0000
0200
0000
0000
,
0310
0000
0001
0010
0001
0010
0001
0000
,
0001
1000
0001
1000
0001
1000
0100
1000
,
0010
0000
1000
0010
1000
0010
1000
0000
,
1000
0001
1000
0001
1000
0100
0010
0001
,
0100
0000
0010
0100
0001
0100
0010
0000
,
1010
0000
1000
0100
0010
0100
1000
0000
,
1100
1000
1010
0100
,
1001
0000
0000
0000
0010
0010
1000
0000
,
2001
0000
3100
0010
0100
0010
0100
1000
,
0100
0010
0100
0010
0001
0100
0010
0000
,
1002
0000
0103
0010
0100
0010
0100
0001
,
0100
0010
1000
0100
0010
0001
0100
0000
,
0102
0000
0013
0100
0010
0100
0010
0001
,
0010
0100
0010
0100
1000
0001
0010
0000
,
0110
0000
0010
0100
0100
0000
1100
0000
,
1000
0100
1000
0000
0010
1000
0001
0000
,
0200
0000
0302
0013
,
1000
0010
1010
0000
1000
0100
0010
0000
,
0021
0000
0130
1000
0100
1000
0100
0010
,
0100
1000
0010
0100
0001
1000
1001
0000
,
2100
0000
3010
0100
0010
0100
0010
1000
,
0010
0100
0010
0100
0001
1000
0100
0000
,
0011
0000
0010
0001
0100
0000
0101
0000
,
0100
0010
1000
0000
0001
0010
0100
0000
,
1001
0000
0010
0001
0000
0100
0001
1000
0010
0000
1000
0100
0000
0010
0100
0000
,
1000
0001
0010
0000
0001
0100
0010
1000
0000
0001
1000
0100
0000
1000
0001
0000
,
0010
0001
0100
0000
0010
0100
0001
1000
0000
0010
1000
0001
0000
0100
0010
0000
,
1010
0000
0000
1001
0000
0000
0011
0000
0000
1100
0000
0000
1000
0001
1000
0001
,
0100
0000
0000
0000
0000
0000
0000
0000
0000
0000
0000
0000
0000
0000
0000
0000
0000
0000
0000
0000
0000
0000
0000
0000
0000
0000
0000
0000
0000
0000
0000
0000
0000
0000
0000
0000
0000
0000
0000
0000
0000
0000
0000
0000
0000
0000
0000
0020
0030
0000
0000
0000
0000
0000
0000
0000
0000
0000
0000
0000
0000
0000
0000
0000
0000
0000
0000
0000
0000
0000
0000
0000
0000
0000
0000
0000
0000
0000
0000
0000
0000
0000
0000
0000
0000
0000
0000
0000
0000
0000
0000
0000
0000
0000
0000
0000
1010
0000
0000
0000
0000
0000
0000
0000
0000
0000
0000
0000
0000
0000
0000
0000
0000
0000
0000
0000
0000
0000
0000
0000
0100
0000
0000
0000
0000
0000
0000
0000
0000
0000
0000
0000
0000
0000
0000
0000
0000
0000
0000
0000
0000
0000
0000
0000
0001
0000
0000
0000
0000
0000
0000
0000
0000
0000
0000
0000
0000
0000
0000
0000
0000
0000
0010
0000
0000
0000
0000
0000
0000
0000
0000
0000
0000
0000
0000
0000
0000
0000
0000
0000
0001
0000
0000
0000
0000
0000
0000
0000
0000
0000
0000
0000
,
0010
0000
0000
0000
0100
0000
0000
0000
1000
0000
0000
0010
0000
0000
1000
0000
0010
0000
0000
0000
0100
0000
0000
0000
0001
0000
0100
0000
0010
0000
0100
0000
,
0001
0000
0100
0000
0010
0000
1000
0000
0100
0000
0000
0010
0000
0000
0100
0000
0010
0000
0000
0000
0001
0000
0000
0000
1000
0000
0000
0001
0000
0000
1000
0000
,
0010
0000
0000
0000
0100
0000
0000
0000
0001
0000
0000
0100
0000
0000
0001
0000
1000
0000
0000
0000
0010
0000
1000
0000
0010
0000
1000
0000
0100
0000
0010
0000
,
0000
0020
0000
0000
0031
0000
0000
0000
1000
0000
0000
0000
0001
0000
0000
0100
,
0000
0000
0010
0000
1000
0000
0000
0000
0001
0000
0000
0000
1000
0000
0000
0100
,
0000
0000
0010
0000
0001
0000
0000
0000
0001
0000
0000
0000
1000
0000
0000
0100
,
0000
0000
1000
0000
0010
0000
0000
0000
0010
0000
0000
0000
1000
0000
0000
0100
,
0000
1000
0010
0100
0010
0000
1000
0001
,
1000
0100
0010
0001
0010
0000
0001
1000
,
0010
1000
0100
1000
0010
0100
0001
0010
,
0100
1000
0010
0000
1010
0000
0000
0000
,
0001
0201
0000
0310
,
1000
0010
1000
0001
,
1000
0010
1000
0001
,
0010
0100
1000
0001
,
0000
2100
0000
3010
,
0100
0010
0100
0001
,
0100
0010
1000
0100
,
0010
0001
0100
0010
,
0000
0210
0000
0301
,
1000
0001
1000
0010
,
1000
0001
1000
0010
,
0100
0001
1000
0100
,
0000
0000
0110
0000
0010
0001
1000
0000
,
1001
0000
1000
0001
0100
0000
0010
0010
,
1000
0000
1000
0010
,
1000
0001
1000
0010
,
1000
0001
0010
0100
,
1000
0100
0010
0000
,
0012
0000
0103
0010
,
0100
0001
0100
0010
,
0100
0001
1000
0100
,
0010
0001
1000
0000
,
1020
0000
0130
0001
,
0100
0010
0100
0001
,
0100
0010
1000
0001
,
1000
0010
0100
0000
,
0020
0000
0130
0001
,
1000
0001
1000
0100
,
0010
0000
0000
0000
,
1001
0000
1001
0000
,
0001
0100
0010
0100
,
0001
1000
0001
0100
,
0010
1000
0100
1000
,
0001
1000
0100
0010
,
0001
1000
0010
1000
,
0001
0010
0100
0010
,
0001
1000
0001
0010
,
0001
1000
0100
1000
,
0001
0100
0010
0100
,
0001
1000
0001
0010
,
0100
1000
0010
1000
,
0001
0100
0001
0010
,
0001
0100
0010
1000
,
0100
0010
0001
1000
,
0010
1000
1000
0001
,
1000
0002
0000
0000
,
0003
0001
0010
0100
,
1000
0100
0010
0002
,
0103
0200
0310
0020
,
1030
2000
3100
0100
,
0010
0100
1000
0010
,
0100
0001
1000
0001
,
0100
0001
0010
0100
,
1000
0001
0010
0001
,
0000
1000
0000
0000
0001
0000
1000
0000
,
0000
0000
0010
1000
0010
1000
0010
0000
,
0000
1000
0000
0000
0010
0000
1000
0000
,
0000
0000
0001
1000
0001
1000
0001
0000
,
0010
0100
1000
0001
,
0100
0010
1000
0001
,
1000
1000
0010
0100
,
0020
0000
0030
2002
,
0000
0000
0000
0000
0000
0000
0000
3003
0000
0000
0000
0000
0000
0000
0000
0000
;

//---------------dance-single - ----------------
#NOTES:
     dance-single:
     :
     Hard:
     10:
     0.878095,1.675223,0.264018,0.066004,0.441405,745.000000,713.000000,32.000000,8.000000,0.000000,0.000000,0.878095,1.675223,0.264018,0.066004,0.441405,745.000000,713.000000,32.000000,8.000000,0.000000,0.000000:
0000
0000
0000
0000
,
0000
0000
0000
0000
,
0000
0000
0000
0000
,
0000
0000
0000
0000
,
0000
0000
0000
0000
,
0000
0000
0000
0000
,
0000
0000
0000
0000
,
0000
0000
0000
0000
,
0000
0000
0000
0000
0000
0000
0000
0000
0000
0010
1000
0010
,
1000
0000
0000
1000
0010
0000
0100
0000
0001
0000
0100
0000
0010
0000
1000
0000
,
0001
0000
0000
0001
1000
0000
0001
0000
0010
0000
0100
0000
0010
0000
0001
0000
,
0100
0000
0000
0010
0000
0000
0100
0000
0001
0000
1000
0000
0100
0000
0001
0000
,
0000
0100
1000
0010
1000
0001
0010
0100
,
1000
0000
0000
0010
0000
0000
1000
0000
0001
0000
1000
0000
0100
0000
0010
0001
,
0010
0000
0000
0001
0000
0000
0010
0000
0100
0000
0010
0000
0100
0000
1000
0100
,
1000
0000
0000
0010
0000
0000
1000
0000
0001
0000
1000
0000
0001
0100
0001
0100
,
0010
1000
0100
0010
0100
0020
0100
0000
,
0031
0000
0000
0000
0100
0000
0001
0000
0100
0000
0010
0000
0100
0000
0001
1000
,
0001
0100
0010
1000
0100
0010
0001
0000
,
1001
0000
0000
0000
1000
0000
0100
0000
1000
0000
0010
0000
1000
0000
0001
1000
,
0001
0000
0100
0000
0010
0000
0100
0000
0001
0010
0100
1000
0010
0000
1000
0000
,
0001
0000
0100
0001
0100
0000
0001
0000
0000
0000
1000
0000
0000
0000
1000
0000
,
0010
0000
1000
0100
1000
0000
0001
0000
0000
0000
0010
0000
0000
0000
0010
0000
,
0001
0000
1000
0000
0100
0000
1000
0000
0010
1000
0010
0100
0001
0100
0010
1000
,
0001
0000
0000
0000
1000
1000
1001
0000
,
0011
0000
0001
0010
0001
0100
1000
0100
,
0001
0000
0100
0000
0010
0000
1000
0000
0001
0000
0010
0100
1000
0000
0001
0000
,
0100
0000
0010
1000
0001
0010
0001
1000
,
0100
0010
0100
0000
1000
0000
0001
0010
0001
0000
1000
0000
0010
0000
0100
0000
,
0001
0000
1000
0010
1000
0100
0001
0100
,
1000
0000
0001
0000
0010
0000
0001
0000
0100
0000
0010
1000
0001
0000
0010
0000
,
0110
0000
0010
0001
1001
0000
1100
0000
,
0100
1000
0010
0100
0001
0001
1001
0000
,
0200
0000
0000
0000
0000
0000
0000
0000
0310
1000
0010
1000
0010
1000
0010
1000
,
0001
0000
1000
0000
1001
0000
0000
0000
0010
0000
1000
0001
0100
0000
0001
0000
,
0010
0000
0001
1000
0010
1000
0100
0010
,
0001
0010
0001
0000
1000
0000
0001
0000
0100
0000
0010
0100
0002
0000
0003
0000
,
1010
0000
0010
1000
0100
0010
0001
0100
,
0010
0000
0100
0000
0010
0000
1000
0000
0001
0000
0010
0001
1000
0000
0100
0000
,
0011
0000
0100
0010
0110
0000
0101
0000
,
1000
0100
0010
0001
1000
0000
1001
0000
,
0110
0010
0100
0001
0000
0000
1001
1000
0100
0010
0001
0010
0000
0010
0100
0000
,
1100
1000
0001
1000
0010
0100
0001
1000
0010
0100
0001
0100
0010
1000
0001
1000
,
0100
0010
0001
0010
0100
0000
0101
0100
0001
1000
0001
1000
0100
0010
0100
0000
,
0110
0010
0001
0100
0010
1000
0100
0010
0001
0010
0001
1000
0010
1000
0010
1000
,
0100
0000
0000
0000
0000
0000
0000
0000
0000
0000
0000
0000
0000
0000
0000
0000
0000
0000
0000
0000
0000
0000
0000
0000
0000
0000
0000
0000
0000
0000
0000
0000
0000
0000
0000
0000
0000
0000
0000
0000
0000
0000
0000
0000
0000
0000
0000
0022
0033
0000
0000
0000
0000
0000
0000
0000
0000
0000
0000
0000
0000
0000
0000
0000
0000
0000
0000
0000
0000
0000
0000
0000
0000
0000
0000
0000
0000
0000
0000
0000
0000
0000
0000
0000
0000
0000
0000
0000
0000
0000
0000
0000
0000
0000
0000
0000
1001
0000
0000
0000
0000
0000
0000
0000
0000
0000
0000
0000
0000
0000
0000
0000
0000
0000
0000
0000
0000
0000
0000
0000
0100
0000
0000
0000
0000
0000
0000
0000
0000
0000
0000
0000
0010
0000
0000
0000
0000
0000
0000
0000
0000
0000
0000
0000
1000
0000
0000
0000
0000
0000
0000
0000
0000
0000
0000
0000
0001
0000
0000
0000
0000
0000
0000
0000
0000
0000
0000
0000
1000
0000
0000
0000
0000
0000
0000
0000
0000
0000
0000
0000
0100
0000
0000
0000
0000
0000
0000
0000
0000
0000
0000
0000
,
0010
0001
0010
0000
1001
0001
0010
0001
0100
0010
1000
0001
0000
0100
0010
0100
,
0001
1000
0100
1000
0010
1000
0100
0010
0001
0000
0101
0100
0010
0100
0001
0000
,
0100
0010
1000
0010
0100
0010
1000
0001
0100
0001
0010
0100
1000
0001
0100
0010
,
1000
0001
1000
0001
0010
0000
0001
0000
0100
0000
0001
0000
0010
0000
0001
1000
,
0000
0100
1000
0000
0010
0000
1000
0000
0100
0000
1000
0000
0010
0000
0100
0001
,
0000
1000
0001
0000
0010
0000
0100
0000
1000
0000
0001
0000
0100
0000
0001
1000
,
0000
0010
1000
0000
0100
0000
1000
0000
0001
0000
0010
0000
0001
0000
0100
0001
,
0000
0100
0010
0000
1000
0000
0010
1000
0010
0000
1000
0000
0100
0000
0010
0000
,
0001
0000
1000
0000
0001
0000
0100
0001
0100
0000
0010
0000
1000
0000
0100
0000
,
0010
0000
0001
0000
1000
0001
1000
0001
0100
0010
0100
0010
1000
0010
1000
0010
,
0100
0001
0100
0001
1000
0000
0000
0000
1001
0000
0000
0000
0010
0000
1000
0000
,
0100
1000
0100
0010
,
0001
1000
0001
1000
,
0001
0010
0001
0100
,
0010
0000
1000
0000
0001
0010
0100
0000
,
1000
0010
1000
0001
,
0100
0001
0100
0010
,
0100
0000
0001
0000
1000
0000
0001
1000
,
0001
0000
0010
0000
0001
1000
0001
0000
,
1000
0100
0010
0100
,
1000
0001
1000
0001
,
0010
0001
0100
0010
,
1000
0000
0100
0000
1000
0010
1000
0000
,
0001
0000
0101
0000
0100
0001
1001
0000
,
1010
0000
0010
1000
1001
0000
0001
0100
,
0010
1001
0001
0100
,
0010
1000
0001
1000
,
0001
0010
0001
1000
,
0010
0000
0100
0010
1000
0000
0001
0000
,
0010
0100
1000
0001
,
1000
0010
1000
0001
,
0100
0000
0001
0000
0010
0100
0010
0000
,
0001
0000
1000
0010
1000
0000
0100
0000
,
0010
0001
1000
0100
,
0010
0000
0100
0000
0010
0000
0001
1000
,
0001
0010
0100
1000
,
0010
0000
0100
0000
0001
1000
0001
1000
,
0001
0000
1000
0010
1000
0000
0001
1000
,
0100
0000
0010
0001
1000
0000
0010
0100
,
0002
0000
1003
0000
,
1001
0000
1001
0000
,
1000
0000
0001
1000
0010
0000
1000
0000
,
0001
0010
0100
1000
,
0010
0000
1000
0001
0100
0000
0001
0000
,
1000
0010
0100
0001
,
1000
0000
0001
1000
0001
0000
0010
0000
,
0100
1000
0001
0010
,
0100
1000
0001
1000
,
0010
0100
0001
0000
,
1000
0000
0001
0100
0001
0000
0010
0000
,
0001
1000
0100
0010
,
0001
0000
1000
0100
1000
0000
0001
0000
,
0010
0100
0010
0001
,
0100
0000
0010
1000
0010
0000
1000
0000
,
0001
0010
0001
1000
,
0010
1000
0100
0010
,
0100
0000
1002
0000
,
0103
0001
1000
0010
,
1000
0000
0001
0010
0001
1000
0001
0000
,
1000
0010
1000
0100
,
0010
0001
0000
1001
,
0001
1000
0010
1000
,
0001
0000
1000
0010
1000
0010
0100
0000
,
0001
0010
0100
1000
,
0100
0000
0010
0000
0001
1000
0001
0000
,
0000
0010
0000
0000
0001
0000
0100
0000
,
0000
0000
0001
0100
0010
1000
0100
0000
,
0000
1000
0000
0000
0100
0000
0010
0000
,
0000
0000
0001
1000
0100
0010
0001
0010
,
0001
0010
0100
1000
0100
1000
0010
1000
,
0010
1000
0001
1000
0001
1000
0001
0000
,
0010
0100
0010
0100
,
0100
1000
0000
0200
,
0000
0000
0000
0000
0000
0000
0000
0300
0000
0000
0000
0000
0000
0000
0000
0000
;

//---------------dance-single - ----------------
#NOTES:
     dance-single:
     :
     Challenge:
     13:
     1.039570,1.921579,0.470282,0.222765,0.701297,882.000000,825.000000,57.000000,27.000000,8.000000,0.000000,1.039570,1.921579,0.470282,0.222765,0.701297,882.000000,825.000000,57.000000,27.000000,8.000000,0.000000:
0000
0000
0000
0000
,
0000
0000
0000
0000
,
0000
0000
0000
0000
,
0000
0000
0000
0000
,
0000
0000
0000
0000
,
0000
0000
0000
0000
,
0000
0000
0000
0000
,
0000
0000
0000
0000
,
0000
0000
0000
0000
0000
0000
0000
0000
0000
0001
1000
0001
,
1000
0000
0010
0000
1000
0000
0100
0000
0010
0000
0001
0100
0001
0100
0010
1000
,
0001
1000
0001
0000
0010
0100
0010
0100
0010
0000
0001
0000
2000
0000
0000
0000
,
3001
0000
0100
0000
0001
0000
0010
0000
0100
0000
1000
0010
1000
0001
1000
0100
,
0010
0001
0010
0000
0100
0000
0100
1000
0002
0000
1003
0000
0020
0000
0000
0000
,
1030
0000
0001
1000
0001
0000
0100
0000
1000
0000
0100
0000
0001
1000
0001
0010
,
0001
0000
1000
0010
1000
0000
0010
0000
0001
0000
0010
0000
1000
0001
1000
0001
,
0010
0100
1000
0100
0010
0001
0100
0010
1000
0001
1000
0100
0010
0001
1000
0001
,
0200
0000
0010
0310
,
1010
0000
0000
0000
0010
0000
0100
0000
0001
0000
0100
0000
0001
0000
1000
0001
,
0100
0001
0100
0010
1000
0001
1000
0100
,
0011
0000
0000
0000
0010
0000
0100
0000
1000
0000
0100
0000
1000
0000
0001
1000
,
0100
0000
1000
0000
0100
0000
0010
0000
0001
0100
0010
1000
0001
0000
1000
0000
,
1001
0000
0001
0100
0001
0000
1000
0000
0000
0000
0010
0000
0000
0000
0010
0000
,
1010
0000
1000
0100
1000
0000
0001
0000
0000
0000
0010
0000
0000
0000
0010
0000
,
0001
1000
0001
0100
0010
1000
0001
1000
0100
0010
0001
1000
0010
1000
0001
0100
,
0010
0000
0000
0000
0010
0010
1001
0000
,
2100
0000
0000
0000
3100
0000
0010
0000
0001
0000
0010
0100
1000
0100
0010
0100
,
1000
0001
1000
0000
0010
0000
0100
0001
1000
0000
0001
0000
0011
0000
0000
0000
,
0102
0000
0000
0000
1003
0000
0010
0000
1000
0000
0001
0100
0010
0100
0001
0100
,
0010
1000
0010
0000
1000
0000
0001
0000
0011
0000
1000
0000
1100
0000
0000
0000
,
0012
0000
0000
0000
1003
0000
0010
0000
1000
0000
0001
0010
0100
0010
0001
0010
,
0100
1000
0100
0000
1000
0000
0010
1000
0001
0000
0100
0000
1001
0000
0000
0000
,
0010
1000
0001
1000
0001
1000
0010
1000
0010
1000
0001
1000
0010
0100
0001
0010
,
0100
1000
0001
1000
0001
1000
0100
0010
0001
0000
0001
0000
1100
0000
0000
0000
,
2010
0000
0000
0000
0000
0000
0000
0000
3001
0010
0001
0010
0001
0010
0001
0010
,
0100
1100
1001
0001
0010
0100
1100
1000
,
0210
0000
0000
0000
1300
0000
0001
0000
1000
0000
0001
0100
0010
0100
0001
1000
,
0010
0100
0001
0000
1000
0000
0100
0000
0010
0000
0001
0010
0200
0000
0300
0000
,
1000
0000
0001
1000
0001
0000
0010
0000
0100
0000
1000
0000
0001
0000
1000
0000
,
0100
0000
0010
0001
0010
0000
0001
0000
1000
0000
0100
0000
0010
0000
0001
0000
,
0100
0001
0100
0001
1000
0010
1000
0010
1000
0100
0010
0001
0100
0010
1000
0100
,
0010
0001
1000
0100
0010
0001
0010
0100
1000
0000
0000
0000
0001
0000
0000
0000
,
1001
0001
0010
0001
1000
0100
1100
1000
0010
1000
0010
0100
0001
1000
0100
0000
,
0011
0001
1000
0010
0100
0010
1000
0001
0101
0100
0001
1000
1100
0100
0010
0001
,
1001
1000
0010
0100
0001
0010
0011
0001
1000
0010
0100
0001
1000
0001
0010
0000
,
0011
0010
0100
0110
0010
0100
1100
1000
0010
0100
0001
0010
0001
1000
0001
1000
,
0001
0000
0000
0000
0000
0000
0000
0000
0000
0000
0000
0000
0000
0000
0000
0000
0000
0000
0000
0000
0000
0000
0000
0000
0000
0000
0000
0000
0000
0000
0000
0000
0000
0000
0000
0000
0000
0000
0000
0000
0000
0000
0000
0000
0000
0000
0000
0220
0330
0000
0000
0000
0000
0000
0000
0000
0000
0000
0000
0000
0000
0000
0000
0000
0000
0000
0000
0000
0000
0000
0000
0000
0000
0000
0000
0000
0000
0000
0000
0000
0000
0000
0000
0000
0000
0000
0000
0000
0000
0000
0000
0000
0000
0000
0000
0000
1001
0000
0000
0000
0000
0000
0000
0000
0000
0000
0000
0000
1000
0000
0000
0000
0000
0000
0000
0000
0000
0000
0000
0000
0100
0000
0000
0000
0000
0000
0000
0000
0000
0000
0000
0000
0010
0000
0000
0000
0000
0000
0000
0000
0000
0000
0000
0000
0002
0000
0000
0000
0000
0000
0000
0000
0000
0000
0000
0000
0000
0000
0000
0000
0000
0000
0000
0000
0000
0000
0000
0000
0013
0000
0000
0000
0000
0000
0000
0000
0000
0000
0000
0000
0100
0000
0000
0000
0000
0000
0000
0000
0000
0000
0000
0000
,
0000
1000
0100
0000
1100
1000
0010
0000
0100
0001
1000
0001
0011
0010
0100
0010
,
0110
0100
1000
0100
1100
1000
0100
1000
0010
0000
0110
0100
0001
0100
0010
0000
,
1010
1000
0001
0010
0110
0100
1000
1001
0001
0010
0001
0100
0010
1000
0001
1000
,
0100
0010
0100
0010
0001
0000
1000
0001
0100
0000
0001
0000
1000
0000
0010
1000
,
0000
0001
1000
0000
0001
0000
0010
0100
1000
0000
0001
0100
0001
0000
1000
0010
,
0000
1000
0001
0000
1000
0000
0001
1000
0100
0000
0010
0000
0001
0000
0100
0001
,
0000
1000
0001
0000
0010
0000
0001
0100
0001
0000
1000
0100
1000
0000
0010
0100
,
0000
0010
1000
0000
0001
0000
1000
0100
0001
0000
0100
0000
0010
0000
0001
0000
,
1000
0000
0010
0000
0100
0000
0001
0100
1000
0000
0100
0000
0010
0000
1000
0000
,
0100
0000
0010
0000
0001
1000
0001
0010
0100
1000
0010
1000
0001
0100
0010
1000
,
0010
0100
0001
1000
0010
0000
0000
0000
1010
0000
0000
0000
1000
0000
0001
0000
,
0020
0030
0000
0000
1002
0000
0000
0000
0000
0000
0000
0000
0013
0000
0000
0000
,
0001
0000
1000
0000
0001
0100
0001
1000
,
0001
1000
0010
1000
0010
0000
1000
0000
,
0001
1000
0001
0000
0100
0000
0010
1000
,
0010
0100
0002
0000
0000
0000
0013
0000
,
0100
0000
0010
0000
0001
0010
0001
1000
,
0001
1000
0100
0010
0001
0000
1000
0000
,
0010
1000
0010
0000
0100
0000
0001
0000
,
1000
1200
0000
0310
,
0100
0000
1000
0000
0001
1000
0001
1000
,
0010
1000
0001
0100
0010
0000
1000
0000
,
0001
0010
0001
0000
1000
0000
0001
0000
,
0100
0000
0101
0000
0001
1000
1001
0000
,
1100
0000
1000
0010
0110
0000
0010
0010
,
1001
MMMM
0001
1000
,
0100
0000
0010
0100
0010
0001
0010
0100
,
0010
0000
0001
0000
1000
0000
0010
1000
,
0001
0000
0100
0000
0001
0000
0010
0001
,
2000
0000
3001
0100
,
0001
0000
1000
0010
0100
0010
1000
0010
,
0100
0000
0001
0000
1000
0000
0010
1000
,
0001
0000
1000
0000
0100
0000
0010
0001
,
1000
0000
0001
0100
0001
0000
1000
0000
,
0010
0000
1000
0000
0001
0000
0010
0001
,
1000
0010
1000
0001
,
0010
0100
1000
0010
,
1000
0100
0010
0001
1000
0100
0010
0001
,
0100
0010
1000
0001
0010
0100
1000
0001
,
0100
0000
0000
0000
,
2002
3003
0000
0000
2002
3003
0000
0000
,
0010
0001
1000
0100
,
0010
0000
0001
0000
1000
0010
1000
0010
,
0100
0001
0100
0000
0001
0000
1000
0000
,
0010
0000
1000
0000
0001
0010
0001
0010
,
0100
1000
0001
0010
,
0001
0000
0100
0000
0010
1000
0010
1000
,
0001
0100
0001
0000
1000
0000
0010
0000
,
1000
0000
0100
0000
0010
0001
0010
0001
,
1000
0100
0010
0001
,
1000
0000
0010
0000
0100
0001
0100
0001
,
1000
0010
1000
0000
0001
0000
0010
0000
,
0001
0000
1000
0000
0001
0100
0001
0100
,
0010
1000
0001
1000
,
0100
0000
0010
0000
0001
1000
0001
1000
,
0001
0100
0010
0000
1000
0000
0001
1000
,
0010
1000
2020
3030
,
MMMM
0101
0001
0010
,
0001
0000
1000
0100
1000
0001
0010
0001
,
1000
0000
0001
0000
0100
0010
0100
0000
,
0010
0000
1000
0001
1000
0001
0100
0000
,
0001
1000
0010
1000
,
0001
0100
0001
1000
0010
1000
0001
1000
,
0001
0000
0010
0000
0100
1000
0100
0000
,
0010
0000
0001
0000
1000
0001
1000
0000
,
0000
1010
0000
0000
0110
0000
0101
0000
,
0000
0000
0001
1000
0001
1000
0001
0000
,
0000
0011
0000
0000
0110
0000
1001
0000
,
0000
0000
1000
0001
1000
0001
1000
0100
,
0010
0001
0100
0010
1000
0001
0010
0100
,
1000
0100
0010
0001
0100
0010
2000
0000
,
0000
0000
0000
3010
,
0010
0100
0000
2002
,
0000
0000
0000
0000
0000
0000
0000
3003
0000
0000
0000
0000
0000
0000
0000
0000
;

//---------------dance-single - Duet 1----------------
#NOTES:
     dance-single:
     :
     Edit:
     1:
     0.700118,1.330324,0.214514,0.288769,0.222765,594.000000,568.000000,26.000000,35.000000,0.000000,0.000000,0.700118,1.330324,0.214514,0.288769,0.222765,594.000000,568.000000,26.000000,35.000000,0.000000,0.000000:
// measure 0
0000
0000
0000
0000
,  // measure 1
0000
0000
0000
0000
,  // measure 2
0000
0000
0000
0000
,  // measure 3
0000
0000
0000
0000
,  // measure 4
0000
0000
0000
0000
,  // measure 5
0000
0000
0000
0000
,  // measure 6
0000
0000
0000
0000
,  // measure 7
0000
0000
0000
0000
,  // measure 8
0000
0000
0000
0000
,  // measure 9
0010
1000
0010
0100
0001
0000
1000
0100
,  // measure 10
0000
0010
0001
1000
0100
1000
0001
0000
,  // measure 11
0100
0001
0010
0001
1000
0010
0100
0001
,  // measure 12
0000
0010
0100
1000
0000
0001
1000
0000
,  // measure 13
0001
0100
0001
0100
0010
0000
1000
0000
,  // measure 14
0100
1000
0100
0010
0001
0000
0100
0000
,  // measure 15
0010
1000
0001
1000
0100
0000
0010
0001
,  // measure 16
2000
0000
0010
3010
,  // measure 17
1001
0000
0100
0001
1000
0001
1000
0001
,  // measure 18
0010
0001
1000
0001
1000
0100
0010
0001
,  // measure 19
0100
0000
0001
1000
0010
1000
0001
1000
,  // measure 20
0001
0100
0001
0010
0100
1000
0001
0000
,  // measure 21
1000
0000
0001
0010
0001
0000
1000
0000
0000
0000
0010
0000
0000
0000
1000
0000
,  // measure 22
0001
0000
1000
0100
1000
0000
0010
0000
0000
0000
0100
0000
0010
0000
0100
0000
,  // measure 23
0001
0000
1000
0000
0100
0000
0010
0000
0001
1000
0001
1000
0010
0100
0010
0100
,  // measure 24
0001
0000
0000
0000
0001
0001
0100
0000
,  // measure 25
0120
0000
1030
0001
1000
0001
0100
0010
,  // measure 26
0100
0001
0010
0001
1000
0100
0010
0000
,  // measure 27
0002
0000
0013
0100
0010
0100
1000
0100
,  // measure 28
0010
0001
0100
0010
1000
0100
0010
0000
,  // measure 29
0102
0000
0103
0010
0100
0001
0100
0010
,  // measure 30
1000
0010
1000
0100
0010
0001
1000
0000
,  // measure 31
0020
0000
1030
0001
1000
0010
1000
0100
,  // measure 32
0010
0001
1000
0010
0100
0001
1000
0000
,  // measure 33
0002
0000
0003
0000
,  // measure 34
0010
0000
0001
0000
0100
0000
0000
0000
0001
0000
1000
0001
1000
0000
0010
0000
,  // measure 35
1000
0100
1000
0000
0010
1000
0000
1000
,  // measure 36
0001
1000
0001
0000
0010
0000
0100
0000
2000
0000
3020
0000
0130
0000
0000
0000
,  // measure 37
0001
0000
1000
0010
1000
0000
0001
0000
0000
0000
0010
0000
0000
0000
0010
0000
,  // measure 38
0001
0000
1000
0001
1000
0000
0100
0000
0000
0000
0010
0000
0011
0000
0000
0000
,  // measure 39
0010
0001
0100
0010
0010
0100
0010
1000
,  // measure 40
0100
0010
0010
0001
1000
0100
0010
0000
,  // measure 41
2001
0000
3100
0010
0000
0001
0010
0100
2000
0000
3010
0100
0000
0001
0100
0000
,  // measure 42
0010
1000
0002
0000
0013
0100
1000
0002
0000
0103
0010
2000
0000
3001
0020
0000
,  // measure 43
0030
0001
0200
0000
0301
1000
0010
2000
0000
0000
3001
0010
0000
0001
0100
0000
,  // measure 44
0220
0330
0000
2020
3030
0000
2002
3003
0000
0200
0000
0000
0301
1000
0020
0000
,  // measure 45
0130
0000
0000
0000
0000
0000
0000
0000
1010
0000
0010
1000
0001
1000
0001
1000
,  // measure 46
0100
0000
0000
0000
0100
0010
0001
0010
0001
0000
0000
0000
0100
0001
0010
0001
,  // measure 47
1000
0001
0010
0001
0100
0010
0100
0010
1000
0000
0001
1000
0001
0100
0001
0100
,  // measure 48
0010
0000
0000
0000
0010
0100
0001
1000
0100
0010
0001
0000
0000
0000
0000
0000
,  // measure 49
1000
0001
1000
0001
0000
0000
0100
0000
0000
0000
0100
0000
0000
0000
0010
0000
,  // measure 50
0000
0100
0000
0001
0000
1000
0000
0001
,  // measure 51
0000
0001
0000
1000
0000
0010
0000
1000
,  // measure 52
0000
1000
0000
0100
0000
0010
0000
0100
,  // measure 53
0000
0000
0010
0000
0001
0000
1000
0001
1000
0000
0001
0000
0100
0000
0010
0000
,  // measure 54
1000
0000
0100
0000
0010
0000
0001
1000
0001
0000
1000
0000
0100
0000
0010
0000
,  // measure 55
0001
0000
0100
0000
0010
0000
1000
0000
0010
0000
0100
0000
0001
0100
0001
0100
,  // measure 56
0010
1000
0010
1000
0001
0000
0000
0000
1001
0000
0000
0000
0000
0000
0000
0000
,  // measure 57
0200
0300
0000
0000
1001
0000
0000
0000
0000
0000
0000
0000
0010
0000
0000
0000
,  // measure 58
0000
0001
1000
0000
,  // measure 59
0010
0000
0010
1000
,  // measure 60
0000
0000
0100
0000
0010
0001
0010
0000
,  // measure 61
0001
1000
0000
0001
,  // measure 62
0000
0100
0001
0000
,  // measure 63
1000
0000
0000
0000
1000
0000
0010
1000
,  // measure 64
0010
0000
1000
0000
0001
1000
0001
0000
,  // measure 65
0010
0100
0000
0010
,  // measure 66
0000
0100
1000
0000
,  // measure 67
0001
0000
0001
1000
,  // measure 68
0000
0000
0010
0000
1000
0010
1000
0000
,  // measure 69
0001
0000
0011
0000
0010
0100
0110
0000
,  // measure 70
1100
0000
1000
0010
1010
0000
0100
0001
,  // measure 71
1000
0000
0010
1000
,  // measure 72
0001
1000
0001
0100
,  // measure 73
0001
1000
0100
0010
,  // measure 74
0001
1000
0100
0000
,  // measure 75
0020
0000
0031
0100
,  // measure 76
0001
0100
0010
1000
,  // measure 77
0001
0010
0100
1000
,  // measure 78
0001
0100
0010
0000
,  // measure 79
2000
0000
3001
0100
,  // measure 80
0001
1000
0001
0010
,  // measure 81
0100
0010
0001
1000
,  // measure 82
0100
0010
0001
0000
,  // measure 83
1000
0010
1000
0010
1000
0001
1000
0001
,  // measure 84
0100
0001
0010
0100
,  // measure 85
0010
0000
0000
0000
,  // measure 86
2002
3003
0000
0000
2002
3003
0000
0000
,  // measure 87
0010
0000
0000
0010
1000
0000
0001
0000
,  // measure 88
1000
0000
0011
0000
,  // measure 89
0010
0000
0000
0010
0001
0000
1000
0000
,  // measure 90
0010
0000
0101
0000
,  // measure 91
0001
0000
0000
0001
0100
0000
0010
0000
,  // measure 92
2000
0000
3001
0010
,  // measure 93
0100
0000
0110
0000
,  // measure 94
0010
0100
1000
0000
,  // measure 95
0001
0000
1000
0001
0100
0000
0001
0000
,  // measure 96
1000
0000
0011
0000
,  // measure 97
0010
0000
0001
1000
0100
0000
0010
0000
,  // measure 98
0001
0000
1100
0000
,  // measure 99
0100
0000
1000
0010
1000
0000
0001
0000
,  // measure 100
0100
0000
0010
0100
,  // measure 101
0010
0100
0010
0010
,  // measure 102
1000
0020
0000
0000
,  // measure 103
0030
0001
1000
0020
,  // measure 104
0000
1030
0100
0011
,  // measure 105
0000
0110
0000
1100
,  // measure 106
0000
1001
0000
1000
,  // measure 107
0001
1000
0010
1000
,  // measure 108
0000
0001
1000
0001
,  // measure 109
0010
0001
0000
1000
,  // measure 110
0100
0000
0010
0000
0010
0001
0100
0000
,  // measure 111
0000
0010
0000
0000
0010
0000
1000
0000
,  // measure 112
0000
0000
0001
0100
0001
0100
0010
0000
,  // measure 113
0000
1000
0000
0000
1000
0000
0100
0000
,  // measure 114
0000
0000
0010
0001
0010
0001
1000
0001
,  // measure 115
1000
0100
1000
0100
0010
0001
0010
0001
,  // measure 116
1000
0100
0010
0001
0100
0010
1000
0000
,  // measure 117
0000
0000
0000
0010
,  // measure 118
0010
1000
0000
0002
,  // measure 119
0000
0000
0000
0000
0000
0000
0000
0003
0000
0000
0000
0000
0000
0000
0000
0000
;

//---------------dance-single - Duet 2----------------
#NOTES:
     dance-single:
     :
     Edit:
     2:
     0.709548,1.428867,0.099007,0.189763,0.321772,602.000000,590.000000,12.000000,23.000000,0.000000,0.000000,0.709548,1.428867,0.099007,0.189763,0.321772,602.000000,590.000000,12.000000,23.000000,0.000000,0.000000:
0000
0000
0000
0000
,
0000
0000
0000
0000
,
0000
0000
0000
0000
,
0000
0000
0000
0000
,
0000
0000
0000
0000
,
0000
0000
0000
0000
,
0000
0000
0000
0000
,
0000
0000
0000
0000
,
0000
0000
0000
0000
,
0001
0000
0000
0010
0000
0000
0001
0000
0200
0000
0300
0000
0000
0000
0000
0000
,
0010
0000
0000
1000
0000
0000
0010
0000
0200
0000
0300
0000
0000
0000
0000
0000
,
0001
0000
0000
1000
0000
0000
0100
0000
0020
0000
0000
0000
0000
0000
0031
0000
,
0000
0000
0000
0100
0001
1000
0010
0000
,
1000
0000
0000
0010
0000
0000
0100
0000
0001
0000
0000
0000
1000
0000
0001
0000
,
0010
0000
0000
0001
0000
0000
0010
0000
0100
0000
0000
0000
1000
0000
0010
0000
,
0100
0000
0000
0010
0000
0000
1000
0000
0001
0000
0000
0000
0010
0000
0001
0000
,
0010
0001
0100
0010
1000
0020
0000
0030
,
1001
0000
0000
0000
0010
0000
0000
0000
0001
0000
0010
0000
0001
0000
1000
0001
,
1000
0001
1000
0000
1000
0001
1000
0001
,
0010
0000
0000
0000
0001
0000
0000
0000
1000
0000
0010
0000
1000
0000
0001
1000
,
0001
0000
1000
0000
0010
0000
0100
0000
0001
0010
0001
1000
0100
0000
0010
0000
,
0001
0000
1000
0010
1000
0001
1000
0001
,
0100
0001
0010
0001
1000
0100
0010
0000
,
0001
0100
0001
0100
0010
1000
0010
1000
0001
0000
0010
0000
0100
0000
1000
0000
,
0001
0000
0000
1000
0100
1000
0010
0000
,
0110
0000
1000
0000
0001
1000
0000
0010
,
0000
0000
0010
0000
1000
0000
0000
0000
0001
0000
0010
0100
0010
0000
0001
0000
,
0100
0000
0010
0000
1000
0001
0000
0001
,
0000
0000
0100
0000
0001
0100
0001
0000
1000
0000
0010
1000
0010
0000
0100
0000
,
0001
0000
1000
0000
0001
0010
0000
0001
,
0000
0000
0001
0000
1000
0000
0000
0000
0100
0000
1000
0010
1000
0000
0001
0000
,
0100
0000
0010
1000
1001
0000
0011
0000
,
0010
0001
0101
0000
0100
0100
0010
0000
,
0000
0000
0000
0000
0000
0000
0000
0000
1000
0010
1000
0010
1000
0010
1000
0010
,
0100
0001
0100
0001
0010
0100
1000
0000
,
0002
0000
0013
0100
0010
0100
1000
0001
,
1000
0010
0100
0001
0000
0000
1001
0000
,
0200
0000
1300
0010
1000
0001
1000
0001
,
0010
0100
0010
0100
1000
0001
0100
0000
,
0010
1000
0100
0010
0010
0100
0010
0001
,
0100
0010
0010
1000
0001
0100
0010
0000
,
1000
0001
0100
0001
0010
0000
0001
0010
0100
0010
0100
1000
0001
0000
0000
0000
,
1000
0010
0100
0010
1000
0000
0000
0000
1000
0001
0100
0001
0010
0001
0100
0001
,
1000
0100
0010
0100
0010
0000
0001
0010
0001
0010
0001
1000
0010
0000
0000
0000
,
1000
0001
0100
0001
1000
0100
0010
0001
1000
0010
1000
0001
0010
0100
0010
0100
,
0000
0000
0000
0000
0000
0000
0000
0000
0000
0000
0000
0000
0000
0000
0000
0000
0000
0000
0000
0000
0000
0000
0000
0000
0000
0000
0000
0000
0000
0000
0000
0000
0000
0000
0000
0000
0000
0000
0000
0000
0000
0000
0000
0000
0000
0000
0000
0202
0303
0000
0000
0000
0000
0000
0000
0000
0000
0000
0000
0000
0000
0000
0000
0000
0000
0000
0000
0000
0000
0000
0000
0000
0000
0000
0000
0000
0000
0000
0000
0000
0000
0000
0000
0000
0000
0000
0000
0000
0000
0000
0000
0000
0000
0000
0000
0000
0000
0000
0000
0000
0000
0000
0000
0000
0000
0000
0000
0000
0010
0000
0000
0000
0000
0000
0000
0000
0000
0000
0000
0000
1000
0000
0000
0000
0000
0000
0000
0000
0000
0000
0000
0000
0001
0000
0000
0000
0000
0000
0000
0000
0000
0000
0000
0000
0200
0000
0000
0000
0000
0000
0000
0000
0000
0000
0000
0000
0000
0000
0000
0000
0000
0000
0000
0000
0000
0000
0000
0000
0301
0000
0000
0000
0000
0000
0000
0000
0000
0000
0000
0000
1000
0000
0000
0000
0000
0000
0000
0000
0000
0000
0000
0000
,
0000
0010
0200
0000
0301
1000
0020
0000
1030
0100
0010
0002
0000
0103
0010
2000
,
0000
3001
0200
0000
0310
1000
0010
0100
0002
0000
0013
0100
0010
0001
1000
0000
,
1000
0001
1000
0100
0010
0000
0100
1000
0100
0010
0002
0000
0000
0000
0013
0100
,
0000
1000
0001
0010
0100
0000
0000
0000
0100
0000
0000
0000
0010
0000
0000
0100
,
0000
0000
0010
0000
0001
0000
0000
0000
0001
0000
0000
0000
1000
0000
0000
0001
,
0000
0000
1000
0000
0010
0000
0000
0000
0010
0000
0000
0000
1000
0000
0000
0010
,
0000
0000
1000
0000
0100
0000
0000
0000
0100
0000
0000
0000
0010
0000
0000
0010
,
0000
0000
0001
0000
1000
0000
0001
1000
0001
0000
1000
0000
0100
0000
0010
0000
,
0001
0000
0100
0000
0010
0000
1000
0001
1000
0000
0001
0000
0100
0000
0010
0000
,
1000
0000
0100
0000
0010
0001
0010
0001
1000
0001
1000
0001
0100
0000
0010
0000
,
1000
0001
1001
0000
0000
0010
0100
0010
,
1000
0002
0000
0013
,
0100
0010
0001
0010
,
0100
0010
0001
1000
,
0010
1000
0001
0100
,
0000
0020
0000
1030
,
0010
1000
0001
1000
,
0010
0100
0001
0010
,
0100
1000
0001
0010
,
0000
0200
0000
0310
,
0001
0010
0001
1000
,
0001
0100
0010
1000
,
0100
0010
0001
1000
,
0000
0000
1100
0000
1000
0100
1000
0010
,
0100
0001
0010
0001
0010
0100
1000
0100
,
0010
1001
0001
0000
,
0100
0010
0000
0100
,
0000
0100
0010
0000
,
1000
0000
0001
0100
0001
0000
1000
0000
,
0001
0000
0010
0000
,
0100
0010
0000
0010
,
0000
0000
0001
0000
1000
0001
1000
0000
,
0010
0000
1000
0010
1000
0000
0001
0000
,
0100
0000
0010
0000
,
1000
0001
0000
1000
,
0000
1000
0001
0000
,
0010
0000
0001
1000
0001
0000
0100
0000
,
0001
0010
0001
0100
,
0010
1000
0010
1000
0001
0100
0001
0100
,
0010
0000
0000
0100
,
0010
0100
0010
0000
,
1000
0100
1000
0001
,
0010
0000
0001
0100
,
0000
0010
0100
0001
,
1000
0001
0100
0000
,
0001
0010
0001
1000
,
0100
0010
0100
1000
,
0000
0001
0010
0100
,
0000
0010
0001
0000
,
1000
0010
1000
0001
,
0020
0000
0130
0000
,
0010
0001
0010
0100
,
2000
0000
3010
0000
,
0010
0100
0010
1000
,
0001
0000
0010
0001
,
0000
0001
1000
0100
,
0100
1000
0001
0000
,
0000
1000
0001
0100
,
0000
0011
0000
0010
,
0100
0010
0100
0000
1000
0000
0010
0000
,
0000
0101
0000
1000
,
0001
0010
0001
0000
1000
0000
0100
0000
,
0000
0010
0100
0000
,
1000
0001
0010
0001
,
0100
0000
0010
0000
0010
1000
0100
0000
,
0000
0010
0000
0000
0010
0000
0001
0000
,
0000
0000
1000
0100
1000
0100
0010
0000
,
0000
0001
0000
0000
0001
0000
0100
0000
,
0000
0000
0010
1000
0010
1000
0001
1000
,
0001
0100
0001
0100
0010
1000
0010
1000
,
0001
0100
0010
1000
0100
0010
0001
0000
,
1000
1000
0100
1000
,
0200
0000
0000
2300
,
0000
0000
0000
0000
0000
0000
0000
3000
0000
0000
0000
0000
0000
0000
0000
0000
;
