#TITLE:Kyle's Mom Is A Big Fat Bitch;
#SUBTITLE:(Bigger, Longer, and Uncut Edition);
#ARTIST:Unknown artist;
#TITLETRANSLIT:;
#SUBTITLETRANSLIT:;
#ARTISTTRANSLIT:;
#CREDIT:;
#BANNER:;
#BACKGROUND:;
#LYRICSPATH:;
#CDTITLE:;
#MUSIC:South_Park_Soundtrack_-_Kyle_s_Mom_is_a_.....-Vubey.mp3;
#OFFSET:-0.323;
#SAMPLESTART:38.834;
#SAMPLELENGTH:12.000;
#SELECTABLE:YES;
#BPMS:0.000=155.800,41.000=140.260,42.000=203.880,43.000=158.000,150.000=170.000,152.000=100.000,167.000=90.000;
#STOPS:;
#BGCHANGES:;

//---------------dance-single - ----------------
#NOTES:
     dance-single:
     :
     Edit:
     7:
     0.562,0.479,0.350,0.039,0.117:
2000
0000
0000
0000
3010
1000
0100
0010
,
0001
0001
0001
0000
0001
0010
1000
0001
,
0100
0100
0100
0000
0100
1000
0010
0100
,
0001
0001
0001
0000
0001
0100
1000
0001
,
0010
0010
0010
0000
0010
1000
0001
0010
,
0100
1000
0010
0100
0001
0010
1000
0010
,
0001
0100
1000
0000
0100
1000
0001
0010
,
0100
0001
0010
0100
1000
0010
0001
0010
,
1000
0100
0001
0000
0001
0100
0001
0000
,
0101
0000
1100
0000
0010
1000
0001
1000
,
0100
0010
0001
0100
0101
0100
0010
0000
,
0010
1000
0100
0000
1001
0000
0010
0001
,
0100
0010
1000
0000
0101
0000
1000
0000
,
0100
0010
0001
0100
1000
0000
1001
0000
,
0010
0100
0001
0000
0001
1000
0010
0100
,
0001
0001
0010
0100
1000
1000
0100
0010
,
0001
0001
0101
0000
1000
0010
0100
0001
,
0001
0010
0100
1000
1000
0010
0100
0001
,
0010
0000
1001
0000
1100
0000
1000
0001
,
0010
0000
0001
1000
0010
0100
0001
0000
,
0101
0000
0100
0000
0001
0100
0001
0010
,
0100
0000
0001
0000
0100
1000
0100
0001
,
0100
1001
0001
0001
,
0001
0001
0001
0000
0010
0000
0010
0000
,
0010
0010
0010
0000
0100
0000
1001
0000
,
0100
0110
0001
1000
,
1100
1000
1000
0000
0011
0000
1100
0000
,
0010
0100
0001
0100
,
0010
0100
1000
0000
0100
0000
0010
0000
,
1000
0010
1010
0000
0100
0000
1000
0000
,
0100
0001
0101
0000
0010
1000
0010
1000
,
0001
0100
0001
0100
0010
1000
0001
0100
,
0010
1000
0110
0000
0001
0100
0001
0100
,
0010
1000
0010
1000
0001
0100
0010
1000
,
0001
0100
0110
0000
1000
0001
1000
0001
,
0010
0100
1000
0010
0100
0001
0010
0100
,
1000
0010
0110
0000
0110
0000
0001
1000
,
0100
0000
1100
0000
0010
0001
0100
0001
,
0010
0000
0010
0100
0000
0100
1000
0000
1000
0010
0000
0100
,
0001
0000
0001
0010
0000
0100
1000
0000
1000
0010
0000
0100
,
0001
0000
0000
1001
0000
0000
0011
0000
0010
0000
0000
1001
,
0000
0000
1000
0010
0000
0010
0100
0000
0100
0001
1000
0010
,
0100
0001
1000
0001
0000
0202
0000
0000
0000
0000
0000
0000
,
0000
0000
0000
0000
0000
0303
0000
0000
0000
0000
0000
0000
;

//---------------dance-single - ----------------
#NOTES:
     dance-single:
     :
     Hard:
     8:
     0.671,0.620,0.402,0.130,0.376:
0002
0000
0000
0000
0000
0000
0000
0000
1003
0100
1000
0100
1000
0000
0001
0100
,
0001
0000
0010
0000
0100
0000
1000
0100
1000
0000
0100
0000
0010
0000
0001
0100
,
0001
0010
0100
0000
1000
0100
1100
1000
,
0001
0100
0001
0100
0001
0000
0010
0000
0001
0000
0100
0000
0010
0000
1000
0000
,
1010
0000
1000
0000
1100
0000
0000
0000
0001
0000
0000
1000
0001
0000
0100
0000
,
0001
0100
0001
0100
0010
0000
0100
0000
0001
0000
1000
0100
0010
0000
0001
0000
,
0000
0000
0001
0000
0101
0000
0000
0000
0001
0100
0001
0100
0001
0000
0000
0000
,
1000
0100
1000
0100
1000
0000
0000
0000
0001
0000
0010
0000
0001
0010
0001
0000
,
1000
0010
1010
0000
1000
0010
0100
0001
,
0010
0000
0100
0000
1000
0000
0001
0100
0001
0000
0001
0000
0100
0000
0100
0000
,
0010
0000
0010
0000
1000
0000
1000
0000
1001
0000
0001
0000
0100
0000
0000
1000
,
0100
0000
0010
0000
0001
0000
0000
0010
0100
0000
0001
0000
1000
0100
1000
0100
,
1000
0000
0010
0000
1000
0000
0001
0000
0001
0000
0010
0001
0010
0000
0100
0000
,
1000
0010
1000
0100
1000
1000
0010
0100
,
0001
0000
0010
0000
0001
0000
0000
0000
1001
0000
0000
1000
0010
0000
0100
0000
,
0001
0000
0000
0001
0010
0000
0100
0000
1000
0000
1000
0000
0100
0000
0100
0000
,
0010
0001
0001
0000
0001
0100
1000
0100
,
0001
0010
1000
0010
0001
0100
0010
1000
,
1002
0000
0013
0000
0210
0000
1300
0001
,
0201
0000
0310
1000
1010
1000
1100
1000
,
2010
3001
0010
0001
,
0010
0001
0010
0000
1000
0000
0010
0000
,
1000
0010
0001
0000
0001
0010
0001
1000
,
0001
0100
0010
0010
1000
0100
0010
0001
,
1000
0100
0100
0000
1000
0000
1100
0000
,
0101
1000
1001
0000
1000
0000
1010
0000
,
1001
0000
0010
0000
0110
0000
0000
0000
0010
0000
0000
0010
1000
0000
0000
1000
,
0100
0000
0000
0100
0001
0000
0000
0001
0100
0000
0000
0100
1000
0000
0000
1000
,
0010
0000
0000
0010
0001
0000
0000
0001
1000
0000
0000
0100
0000
0000
0100
0000
,
0001
0000
0010
0000
0010
0000
0100
0000
1000
0000
0000
0010
0000
0000
0010
0000
,
0100
0000
0001
0000
0001
0000
0000
1000
0100
0000
0010
0001
0010
0000
0100
0000
,
1000
0000
0100
1000
0100
0000
1000
0100
1000
0000
0010
0000
0001
0000
0010
0001
,
0010
0000
0100
0000
0001
0000
0000
0000
0011
0000
0000
0001
0010
0000
0100
0000
,
1000
0000
0000
1000
0010
0000
0100
0000
0001
0000
0001
0000
0100
0000
0100
0000
,
0010
1000
1000
0000
1000
0010
0001
0010
,
1000
0100
0001
0100
1000
1000
0010
0100
,
0102
0000
0013
0000
0120
0030
0011
0001
,
0101
0000
0100
0010
1010
1000
0100
0010
,
0011
0000
0001
0010
0000
0010
0100
0000
0100
1000
0000
0000
,
1001
0000
1000
0010
0000
0010
0100
0000
0100
1000
0000
1000
,
0100
0000
0000
1200
0000
0000
0001
0000
0301
0000
0000
0101
,
0000
0000
0100
0001
0000
0001
0010
0000
0010
0100
0001
0100
,
1000
0001
1000
1100
0000
2002
0000
0000
0000
0000
0000
0000
,
0000
0000
0000
0000
0000
3003
0000
0000
0000
0000
0000
0000
;

//---------------dance-single - ----------------
#NOTES:
     dance-single:
     :
     Challenge:
     10:
     0.871,0.817,0.700,0.221,0.681:
0020
0000
0000
0000
0000
0000
0000
0000
1030
0100
0010
0100
1000
0000
0001
0100
,
0010
0000
1000
0000
1010
0000
1000
0100
0010
0000
0001
0000
0011
0000
0010
0001
,
1000
0000
0010
0000
0100
0000
1000
0100
0010
0000
1000
0000
1010
0000
1000
0100
,
0010
0100
1000
0001
1000
0000
1000
0010
0100
0000
0001
0000
0010
0000
1000
0000
,
1010
0000
0010
0000
0011
0000
0000
0000
0002
0000
0000
1003
0001
0000
0100
0000
,
1000
0100
0010
1000
0010
0000
0100
0000
0001
0000
0100
0010
1000
0000
0001
0000
,
0000
0000
0001
0000
0011
0000
0010
0000
0100
1000
0100
0001
0100
0000
1000
0000
,
0010
0001
0010
1000
0010
0000
1000
0000
0100
0000
0001
0000
0100
1000
0010
0000
,
0100
0001
0101
0000
0011
0010
0100
1000
,
1010
0000
1000
0010
1000
0100
0010
0001
0100
0000
1000
0000
0100
0000
0001
0000
,
0010
0000
0001
0000
0100
0000
0010
0000
1010
0000
1000
0000
0100
0000
0000
0001
,
0100
0000
1000
0000
0010
0000
0000
0001
0010
0000
0100
0000
0010
0001
0010
1000
,
0010
0000
0100
0000
0101
0000
0001
0000
0010
0000
0100
1000
0100
0000
0010
0000
,
0001
0000
0100
0001
1000
0000
0100
1000
0001
0000
0010
0000
1000
0000
0010
0001
,
0100
0000
0010
0000
1000
0000
0100
1000
0100
0000
0010
0000
0011
0000
0001
0100
,
0010
0000
0010
1000
0001
0000
0001
0010
0100
0000
0100
0000
1000
0000
1000
0000
,
0001
1001
1001
0000
1100
1100
0110
0110
,
0011
0011
0101
0101
0100
0010
1000
0001
,
0022
0000
0033
0000
0220
0300
0130
1000
,
2001
0000
3001
1000
1010
1000
1100
1000
,
1020
0000
0130
0000
0001
0100
0001
0100
,
1000
0000
0100
0000
1000
0000
0100
0000
0001
0000
0100
0001
0100
0001
0100
0000
,
0010
1000
0010
0000
1000
0000
0000
0000
0010
1000
0010
1000
0001
1000
0001
1000
,
0001
0100
0001
0100
0010
0100
0010
0100
0001
0010
0100
1000
0001
0100
0010
1000
,
0002
0000
0013
0000
0100
0000
1000
0000
0010
0000
0010
1000
0100
0000
0010
0001
,
0100
0000
0100
0001
0010
0000
0100
1000
0010
0000
0010
1000
0100
0010
0001
0100
,
0001
0010
0100
0000
0110
0000
0000
0000
0001
1000
0001
0000
1000
0001
1000
0000
,
0001
0100
0001
0000
0100
0010
0100
0000
0010
1000
0010
0000
1000
0100
1000
0000
,
0100
0010
0100
0000
1000
0000
0000
0000
1000
0100
1000
0100
0001
0100
0001
0100
,
1000
0010
1000
0010
0001
0010
0001
0010
1000
0100
0001
1000
0010
0001
1000
0100
,
0001
1000
0010
0001
1000
0000
0000
1000
0001
0000
0100
1000
0100
0000
0001
0000
,
0010
0000
1000
0010
1000
0000
0010
0001
0010
0000
0001
0000
0100
0000
0010
1000
,
0100
0000
0001
0000
0100
0000
1000
0010
0100
0000
1000
0000
0100
0000
0001
0100
,
1000
0000
1000
0100
0001
0000
0001
0010
1000
0000
1000
0000
0010
0000
0010
0000
,
0001
0100
0100
0000
1100
0101
1100
0101
,
0011
1010
0011
1010
0011
0001
0100
0010
,
2002
0000
3003
0000
2010
3000
1100
0010
,
0101
0000
0101
0001
1001
1000
1100
1000
,
1010
0000
0010
0100
0000
0100
0001
0000
0001
0010
0000
0000
,
0110
0000
0010
0100
0000
0100
1000
0000
1000
0010
0000
0010
,
0110
0000
0100
0101
0000
0001
0011
0000
0220
0000
0000
0330
,
2100
0000
0100
0100
0000
0001
0001
0000
0010
3010
1000
0100
,
0001
0100
1000
1010
0000
0202
0000
0000
0000
0000
0000
0000
,
0000
0000
0000
0000
0000
0303
0000
0000
0000
0000
0000
0000
;

//---------------dance-single - ----------------
#NOTES:
     dance-single:
     :
     Medium:
     6:
     0.495,0.451,0.169,0.091,0.071:
0200
0000
1300
0001
,
0100
0001
1000
0000
0010
0000
0100
1000
,
0001
0100
1000
0000
0101
0000
1000
0000
,
0100
1000
0001
0000
0010
0000
0100
0001
,
1000
0100
0001
0000
1000
0000
0001
0000
,
0100
0001
0100
0000
1000
0000
0010
0000
,
0001
0010
0001
0000
0010
0010
0001
0000
,
0010
0010
1000
0000
0001
0000
0010
1000
,
0100
0001
0100
0000
0010
0010
0010
0000
,
1001
0000
0110
0000
0001
0100
1000
1000
,
0100
0001
0010
0100
0020
0030
0001
0000
,
1000
1001
0010
1000
,
0110
0001
0001
0000
1000
0100
0100
0000
,
0001
0100
0100
0000
1000
0010
0010
0000
,
0001
0010
0010
0000
1000
0100
1000
0100
,
0010
0001
0010
0001
1000
1000
0001
0001
,
0100
0100
0100
0000
0001
0010
0001
0100
,
1000
0100
0001
0010
0001
0100
0010
1000
,
0002
0000
0003
0000
0001
0000
0001
0100
,
1000
0000
1000
0100
0001
0100
1000
0100
,
0002
1003
1000
0100
,
0001
0100
1000
0010
,
0001
0000
0010
0000
1000
1000
1000
0000
,
1000
0010
0001
0000
0001
0001
0001
0000
,
0001
0010
1000
0000
0010
0000
0010
0000
,
0100
1000
0100
0000
0010
0000
0010
0000
,
0100
0001
0100
0000
0100
0000
0010
0000
,
0100
0010
0100
0011
,
1100
0000
0101
0000
0100
0001
0001
0001
,
0001
0001
0001
0000
0100
1000
1000
1000
,
1000
1000
1000
0000
0100
0001
0100
0001
,
0100
0001
0100
0000
0010
1000
0010
1000
,
0010
1000
0100
0000
0010
0001
0010
0000
,
0100
1000
0100
0000
0010
0001
1000
0001
,
0100
0010
0010
0000
1000
0001
1000
0001
,
0100
0010
0100
0010
1000
0100
1000
0100
,
0020
0000
0030
0000
0001
0000
0001
0010
,
0100
0000
0100
0000
1000
0100
0010
0001
,
1000
0010
0100
0001
,
1001
0000
0001
0100
0000
0001
0100
0000
0010
1000
0000
0010
,
1000
0000
0000
1100
0000
0000
0010
0000
0010
0000
0000
0011
,
0000
0000
0001
1000
0000
1000
0001
0000
0001
1000
0000
1000
,
0001
0000
0000
1001
0000
0202
0000
0000
0000
0000
0000
0000
,
0000
0000
0000
0000
0000
0303
0000
0000
0000
0000
0000
0000
;

//---------------dance-single - ----------------
#NOTES:
     dance-single:
     :
     Easy:
     4:
     0.341,0.451,0.182,0.208,0.019:
0002
1003
0100
1000
,
0100
0010
0001
1000
,
1000
0001
0100
0001
,
0100
0010
1000
0010
,
1000
1000
1000
0000
0200
0000
0300
0000
,
0200
0300
0010
0100
,
0000
0110
0001
0100
,
0001
1000
0001
0010
,
0100
0100
1000
0100
,
1000
0001
1000
0010
,
0100
0000
0001
0000
2002
3003
2000
0000
,
3000
2000
3000
0001
,
1000
1001
0001
0100
,
1000
0100
0001
0100
,
1000
1000
0100
0001
,
0100
1000
0100
0001
,
0001
0001
0001
0000
0001
0000
0010
0000
,
0100
1000
0100
0010
,
2002
3003
0101
1000
,
1100
1000
0110
1001
,
0220
0330
0020
1000
,
0001
1030
0200
0001
,
1000
0301
0001
0001
,
0001
0000
0100
0100
,
0100
0000
0100
1100
,
1000
1100
1000
0001
,
1001
0101
0001
0000
,
0100
0000
1000
1000
,
0100
0100
0001
0001
,
0010
0010
0100
0100
,
1000
1000
0010
0001
,
0010
1000
0010
0001
,
0010
1000
1000
0010
,
0001
0010
1000
0010
,
0001
0001
0001
0000
0001
0000
0010
0000
,
0100
1000
1000
0100
,
0020
0030
1000
0100
,
0010
0100
1000
0001
,
1001
0000
0000
1000
,
0001
0000
0000
0001
,
0100
0000
0000
0010
0000
0000
1000
0000
1000
0000
0000
0200
,
0000
0000
0000
0000
,
0300
0000
0000
0010
0000
0002
0000
0000
0000
0000
0000
0000
,
0000
0000
0000
0000
0000
0003
0000
0000
0000
0000
0000
0000
;

//---------------dance-single - ----------------
#NOTES:
     dance-single:
     :
     Beginner:
     2:
     0.221,0.275,0.104,0.052,0.000: // measure 1
0000
0000
1000
0000
,  // measure 2
1000
0000
1000
0000
,  // measure 3
0100
0100
0100
0000
,  // measure 4
0100
0000
0010
0000
,  // measure 5
0010
0010
0000
0000
,  // measure 6
0000
0000
0000
0000
,  // measure 7
0000
1001
0001
0000
,  // measure 8
1000
0010
0000
0100
,  // measure 9
0100
0100
0000
0010
,  // measure 10
0000
1000
0001
0001
,  // measure 11
0001
0001
1001
0000
,  // measure 12
0000
0000
0000
0000
,  // measure 13
0000
0000
1000
1000
,  // measure 14
1000
0000
0100
0100
,  // measure 15
0100
0000
0010
0010
,  // measure 16
0010
0000
0001
0001
,  // measure 17
0001
0000
0001
0001
,  // measure 18
0001
0001
0001
0001
,  // measure 19
0002
0003
1000
1000
,  // measure 20
1000
0000
0001
0001
,  // measure 21
1001
0000
1000
0000
,  // measure 22
0000
0000
0010
0000
,  // measure 23
0000
0000
0100
0000
,  // measure 24
0001
0000
0100
0000
,  // measure 25
0001
0000
0000
1001
,  // measure 26
0000
1001
0000
1001
,  // measure 27
1000
1000
1000
0100
,  // measure 28
0000
0010
0010
0010
,  // measure 29
0010
0000
0001
0000
,  // measure 30
0100
0000
0010
0000
,  // measure 31
1000
1000
0001
0001
,  // measure 32
0001
0000
1000
1000
,  // measure 33
1000
0000
0010
0010
,  // measure 34
0010
0010
0100
0100
,  // measure 35
0100
0100
0001
0001
,  // measure 36
0001
0001
0001
0001
,  // measure 37
1001
0000
1000
1000
,  // measure 38
1000
0000
0100
0100
,  // measure 39
0100
0000
0000
0010
,  // measure 40
0010
0000
0000
0001
,  // measure 41
0001
0000
1000
0000
,  // measure 42
2002
0000
0003
3001
,  // measure 43
0001
0000
0000
0002
0000
0003
0000
0000
0000
0000
0000
0000
;
