#TITLE:Duality;
#SUBTITLE:;
#ARTIST:BEMANI Sound Team "Yvya";
#TITLETRANSLIT:;
#SUBTITLETRANSLIT:;
#ARTISTTRANSLIT:;
#GENRE:;
#CREDIT:mf32892;
#BANNER:;
#BACKGROUND:;
#LYRICSPATH:;
#CDTITLE:;
#MUSIC:[VIP2 Full Flavor] - Duality.ogg;
#OFFSET:0.964695;
#SAMPLESTART:83.093262;
#SAMPLELENGTH:13.263161;
#SELECTABLE:YES;
#BPMS:0.000000=95.000000
,20.000000=190.000000
;
#STOPS:
;
#BGCHANGES:;
#KEYSOUNDS:;
#ATTACKS:;

//---------------dance-single - ----------------
#NOTES:
     dance-single:
     :
     Challenge:
     12:
     0.961305,1.054654,0.516323,0.482466,0.668681,795.000000,734.000000,61.000000,57.000000,0.000000,0.000000,0.961305,1.054654,0.516323,0.482466,0.668681,795.000000,734.000000,61.000000,57.000000,0.000000,0.000000:
0000
0000
0000
0000
,
0000
0000
0000
0000
,
0000
0000
0000
0000
,
0000
0000
0000
0000
,
0000
0000
0000
0000
,
0010
0000
1000
0100
1000
0100
1000
0100
0010
0000
0001
1000
0001
0100
0001
0100
,
0010
0000
1000
0100
1000
0100
1000
0000
0010
0000
0100
0001
0100
0001
0100
0000
,
0010
0000
1000
0100
1000
0100
1000
0100
0010
0000
0001
0100
0010
1000
0010
0100
,
0010
1000
0001
0100
0001
0010
0100
1000
,
0010
0000
0100
0001
0100
0001
0100
0001
1000
0000
0001
0010
0100
1000
0100
0010
,
0001
0000
1000
0010
1000
0010
1000
0000
0001
0000
0010
0001
0010
0001
0010
0000
,
0100
0000
1000
0001
0100
0001
1000
0001
0100
0000
0001
1000
0100
1000
0001
0000
,
0010
0000
0010
0000
0010
0000
0010
0000
0100
0000
1000
0100
0010
0001
0100
0010
,
1000
0000
1000
0000
1000
0000
1000
0000
0010
0000
1000
0100
0010
0001
1000
0001
,
0100
0100
0100
0100
0010
1000
0001
0010
,
0110
0000
0100
0000
0100
0000
0100
0000
0010
0000
0001
1000
0100
0010
0001
0100
,
0010
0010
0010
0010
1000
0001
0010
0200
,
1000
0000
1000
0000
1000
0000
1300
0000
1000
0000
0001
1000
0100
1000
0001
0200
,
0010
0010
0010
0010
0310
1000
0100
2000
,
0001
0001
0001
0001
3001
0010
1000
0001
,
0100
0000
1000
0001
1000
0001
0100
0000
0001
1000
0001
1000
0010
0000
0100
0000
,
0010
1000
0100
0010
1000
0010
0001
0100
,
0010
0001
1000
0100
0001
0010
0100
1000
,
0012
0013
0000
2200
0000
3300
0101
0001
,
0000
0000
0000
2020
0000
0000
3000
0000
0000
1030
0000
0000
0001
0000
0010
0000
1000
0000
0001
0000
0100
0000
1000
0000
,
0010
1000
0001
0100
1000
0001
0010
0100
,
0001
0010
1000
0001
0100
0010
0001
1000
,
1010
1010
0000
0101
0101
0000
0011
0011
,
0000
0000
0000
2200
0000
0000
0000
0000
0000
3300
0000
0000
0001
0000
0010
0000
0100
0000
0001
0000
1000
0000
0010
0000
,
0100
0000
1000
0000
0010
0000
1000
0000
0001
0000
1000
0001
0010
0001
1000
0100
,
0010
0001
0100
0001
1001
1000
0100
1000
,
0010
0100
1001
0001
0010
0100
0010
0001
,
0101
0000
1000
0000
0010
0000
0001
0000
0010
0000
1000
0100
1000
0001
0100
0010
,
1000
0100
0001
0100
0110
0001
1000
0001
,
0100
0010
2000
3200
0320
2030
3002
0203
,
0310
0000
0001
0000
1000
0000
0010
0000
0100
0000
0010
1000
0001
0010
0100
1000
,
0010
0100
0001
0010
0110
1000
0001
0100
,
0010
1000
1001
0001
0010
0100
1001
0100
,
0110
0000
1000
0000
0001
0000
0010
0000
0100
0000
1000
0100
0010
0001
1000
0010
,
0100
0000
1000
0000
0100
0001
0100
0001
0010
0000
1000
0000
0010
0000
0001
0000
,
0101
0010
0101
1000
0100
0010
0110
0010
,
0012
0000
0000
0000
1003
0010
1000
0000
0100
0010
0100
0000
0021
0000
0000
0000
,
0130
1000
0100
0000
1000
0000
0001
0000
0102
0000
0000
0000
1003
0010
1000
0010
,
0100
0000
0000
0010
0000
0000
0200
0000
0000
0300
0000
0000
0011
0000
0000
0000
0000
0000
1100
0000
0100
0000
1000
0000
,
1002
0000
0000
0000
0103
0010
0100
0010
1000
0000
0100
0000
0010
0001
0010
0001
,
0100
0000
0000
0010
1000
0000
0001
0010
0100
0001
0100
0000
0020
0000
0000
0000
,
0031
1000
0010
0100
1000
0001
0010
0100
,
0001
0000
0010
0000
1000
0000
0001
0000
0100
0000
0010
0000
0001
0000
0100
0010
,
2000
0000
3100
0012
0000
0103
2010
0000
,
3001
0000
0000
0202
0000
0000
0000
0000
0000
0303
0000
0000
1000
0000
0100
0000
0001
0000
1000
0000
0010
0000
0100
0000
,
1000
0100
1000
0010
0100
0010
0001
1000
,
0100
0010
0001
0010
1000
0001
0010
0100
,
0202
0000
0303
2020
0000
3030
0220
0000
,
0330
0000
0022
0000
0000
0000
0033
0000
1000
0100
0010
0001
0100
0010
1000
0001
,
0010
0001
0100
1000
0001
0010
0100
0001
,
0010
0000
1000
0000
0001
0000
1000
0000
0010
0000
0100
1000
0010
1000
0100
0010
,
0001
0100
0010
0101
1000
0001
1100
0010
,
0001
0000
0000
0000
0000
0000
0110
0000
0000
0000
0000
0000
1000
0000
0000
0000
0000
0000
0001
0000
0000
0100
0000
0000
0001
0000
0000
0000
0010
0000
0000
0000
1000
0000
0000
0000
0010
0000
0000
0000
0001
0000
0000
0000
0100
0000
0000
0000
,
0010
0100
0010
0001
1000
0001
1000
0100
,
0010
0000
1000
0000
0100
0000
0001
0000
1000
0000
0010
0001
0010
0100
1000
0001
,
0100
0010
0010
1000
0010
0010
0001
0010
,
0010
0000
0000
1000
0000
0000
0001
0000
0000
0001
0000
0000
1000
0000
0100
0000
0010
0000
0001
0000
0100
0000
0010
0000
,
2000
0000
0000
0000
3001
0100
0002
0000
0000
0000
1003
0000
1200
0000
0010
0000
,
0000
0000
0310
0001
1000
0000
0001
0000
0100
0000
1000
0000
0100
0000
0010
0000
,
2010
0000
0000
0000
3100
0000
0120
0000
0000
0000
0031
0010
0200
0000
1000
0000
,
0000
0000
0310
0001
1000
0000
0010
0000
0100
0000
0001
0000
0010
0000
0010
0000
,
0120
0000
0000
0000
0000
0000
0031
0000
0100
0000
0010
1000
0200
0000
0301
0000
,
0100
0000
1000
0000
0010
0000
0100
0000
0010
0000
0001
0000
0010
1000
0100
0000
,
0011
0100
1000
1010
0001
1000
0101
0010
,
1000
0010
0100
1000
0100
0001
0010
0001
1000
0100
0001
0100
,
0010
0000
1000
0000
0010
0000
0001
0000
0100
0000
0010
1000
0100
0010
0001
0100
,
0010
0000
0001
0000
0010
0000
1000
0000
0001
0000
0010
0001
0100
0010
1000
0100
,
0010
1000
0010
0001
0100
0010
1000
0100
,
0010
0001
0010
0100
1000
0000
0001
0000
0100
0000
1000
0000
0100
0000
0001
0000
,
1100
0000
0100
0000
1000
0000
0010
0000
0100
0000
0010
1000
0001
0010
0100
1000
,
0001
0000
0001
0000
0010
0000
0100
0000
0010
0001
0100
0000
0100
0000
0001
0000
,
1001
0100
0010
0100
1001
0010
0100
0010
,
0100
0100
0100
0100
0010
0010
0010
0010
,
0120
0000
1030
2100
0000
3010
0021
0000
,
0130
0202
0000
0303
0010
1000
0001
0010
,
0110
0000
1000
0100
0010
0000
0110
0000
0001
0100
0010
0000
0110
0000
1000
0001
,
0010
0000
0000
0220
0000
0000
0000
0000
0000
0330
0000
0000
0001
0000
1000
0000
0010
0000
0001
0000
1000
0000
0100
0000
,
0002
0000
1003
1200
0000
0310
0102
0000
,
0013
0000
2002
0000
0000
0000
3003
0000
1000
0100
0010
0001
0100
0010
1000
0001
,
1000
0100
1000
0001
0010
0100
0001
1000
0010
0100
1000
0010
,
0100
0000
0000
0001
0000
0000
1000
0000
0000
0100
0000
0000
0010
0000
0000
0000
0000
0000
0001
0000
0000
1000
0000
0000
0010
0000
0000
0100
0000
0000
0001
0000
0000
0000
0000
0000
0010
0000
0000
0000
0100
0000
0000
0000
1000
0000
0000
0000
,
2002
0000
0000
0000
,
0000
0000
0000
0000
,
0000
0000
0000
0000
,
3003
0000
0000
0000
;

//---------------dance-single - ----------------
#NOTES:
     dance-single:
     :
     Hard:
     10:
     0.805319,0.941655,0.228537,0.584038,0.448609,666.000000,639.000000,27.000000,69.000000,0.000000,0.000000,0.805319,0.941655,0.228537,0.584038,0.448609,666.000000,639.000000,27.000000,69.000000,0.000000,0.000000:
// measure 0
0000
0000
0000
0000
,  // measure 1
0000
0000
0000
0000
,  // measure 2
0000
0000
0000
0000
,  // measure 3
0000
0000
0000
0000
,  // measure 4
0000
0000
0000
0000
,  // measure 5
0001
0000
0100
0000
0010
0000
1000
0000
0001
0000
1000
0100
1000
0100
1000
0100
,  // measure 6
0010
0001
1000
0010
0100
0010
1000
0001
,  // measure 7
0010
0000
0100
0000
1000
0000
0001
0000
0100
0000
0010
0100
0010
0100
0010
0100
,  // measure 8
0001
1000
0100
0010
0001
0100
0010
1000
,  // measure 9
0001
0000
1000
0000
0100
0000
0010
0000
0001
0000
1000
0100
1000
0100
1000
0100
,  // measure 10
0010
0001
0100
0010
1000
0100
0001
0100
,  // measure 11
1000
0010
0100
0010
1000
0100
0010
0001
,  // measure 12
0100
0000
0100
0000
0100
0000
0100
0000
0010
0000
1000
0100
1000
0100
1000
0100
,  // measure 13
0010
0010
0010
0010
0001
0000
0000
0000
,  // measure 14
0010
0010
0010
0010
1000
0000
0110
0000
,  // measure 15
0001
0001
0001
0001
0100
0000
0000
0000
,  // measure 16
1000
1000
1000
1000
0100
0000
0110
0000
,  // measure 17
1000
1000
1000
1000
0001
0020
0000
0000
,  // measure 18
0130
0100
0100
0100
1000
0010
0010
0010
,  // measure 19
0100
0001
0010
0100
0001
0100
1000
0001
,  // measure 20
0100
0000
0010
1000
0010
1000
0010
0000
0100
0001
0100
0001
0100
0000
0001
0000
,  // measure 21
1000
0001
0100
1000
0100
0010
1000
0100
,  // measure 22
0001
1000
0010
0001
0100
0010
1000
0001
,  // measure 23
0022
0000
0033
2200
0000
3300
0202
0000
,  // measure 24
0303
0000
0000
0220
0000
0000
0000
0000
0000
0330
0000
0000
0001
0000
0010
0000
0100
0000
1000
0000
0100
0000
0010
0000
,  // measure 25
0001
1000
0010
0100
1000
0100
0001
0010
,  // measure 26
0100
0010
1000
0001
0100
1000
0010
0100
,  // measure 27
0202
0000
0303
2200
0000
3300
0220
0000
,  // measure 28
0330
0000
0000
2002
0000
0000
0000
0000
0000
3003
0000
0000
1000
0000
0100
0000
1000
0000
0001
0000
0100
0000
0010
0000
,  // measure 29
1000
0000
0100
0000
1000
0000
0100
0000
0010
0000
0001
1000
0001
1000
0001
1000
,  // measure 30
0010
0100
0001
0010
0100
1000
0100
1000
,  // measure 31
0001
0100
0010
1000
0010
1000
0001
0010
,  // measure 32
0100
0000
1000
0000
0100
0000
1000
0000
0010
0000
0100
0001
0100
0001
0100
0001
,  // measure 33
1000
0100
0010
0001
1000
0010
1000
0010
,  // measure 34
0100
0001
0020
2030
3002
0203
0320
0032
,  // measure 35
1003
0000
0001
0000
0100
0000
0010
0000
1000
0000
0100
0010
0001
0010
0100
0010
,  // measure 36
0001
1000
0010
0001
0010
0100
1000
0100
,  // measure 37
0001
0010
0001
1000
0100
0001
0100
1000
,  // measure 38
0001
0000
0010
0000
1000
0000
0010
0000
0001
0000
1000
0100
0010
0100
1000
0100
,  // measure 39
0010
0001
1000
0010
0100
0001
0010
0100
,  // measure 40
1000
0001
1000
0010
0100
0001
0010
0100
,  // measure 41
0120
0031
0101
0120
,  // measure 42
1030
0100
1000
0000
0100
0000
0010
0000
0012
0000
0000
0000
1003
0000
0001
0000
,  // measure 43
0100
0000
0000
0010
0000
0000
1010
0000
0000
0000
0000
0000
1001
0000
0000
0000
0000
0000
0001
0000
0010
0000
0001
0000
,  // measure 44
2000
0000
0000
0000
3001
0100
0001
0100
0001
0000
1000
0000
0001
0010
0001
0010
,  // measure 45
0100
0000
0000
1000
0100
0000
0010
0001
0010
0001
1000
0000
0020
0000
0000
0000
,  // measure 46
0130
0001
1000
0100
0010
0100
1000
0010
,  // measure 47
0001
0010
0100
0001
1000
0100
0010
0100
,  // measure 48
2200
0000
3300
0202
0000
0303
0022
0000
,  // measure 49
0033
0000
0000
2002
0000
0000
0000
0000
0000
3003
0000
0000
1000
0000
0010
0000
0100
0000
0001
0000
1000
0000
0100
0000
,  // measure 50
0010
0001
1000
0010
0100
1000
0100
0001
,  // measure 51
1000
0100
0010
0001
0100
0010
1000
0001
,  // measure 52
0202
0000
0303
0022
0000
0033
2200
0000
,  // measure 53
3300
0000
0000
2020
0000
0000
0000
0000
0000
3030
0000
0000
0010
0000
1000
0000
0010
0000
1000
0000
0010
0000
1000
0000
,  // measure 54
0001
0010
0100
0001
0100
0010
0001
1000
,  // measure 55
0010
0000
0100
0000
1000
0000
0001
0000
0010
0000
0100
0000
0001
1000
0001
0000
,  // measure 56
0020
0100
0130
2000
0010
3010
0200
0001
,  // measure 57
0301
0000
0000
0020
0000
0000
0100
0000
0000
0130
0000
0000
1000
0000
0100
0000
0010
0000
0001
0000
1000
0000
0010
0000
,  // measure 58
0100
1000
0100
0001
0010
0100
1000
0100
,  // measure 59
0001
0000
1000
0000
0010
0000
0001
0000
1000
0000
0100
0010
0100
0000
1000
0000
,  // measure 60
0020
0000
0030
0000
,  // measure 61
0000
0000
0000
0000
0000
0000
0010
1000
0100
0010
0001
1000
,  // measure 62
0020
0000
0130
2000
0000
3100
0002
0000
,  // measure 63
0000
0000
0013
0100
0010
0000
0001
0000
1000
0000
0100
0000
0001
0000
0100
0000
,  // measure 64
2000
0000
0000
0000
3010
0000
0002
0000
0000
0000
0013
0100
0020
0000
0000
0000
,  // measure 65
0000
0000
1030
0100
1000
0000
0010
0000
0100
0000
0001
0000
1000
0000
0100
0000
,  // measure 66
0020
0000
0000
0000
0000
0000
0032
0000
0000
0000
1003
0010
0100
0000
0001
0000
,  // measure 67
0010
0100
1000
0100
0010
0001
1000
0001
,  // measure 68
0100
0010
0010
0100
1000
1000
0100
0001
,  // measure 69
1000
0100
0010
0001
1000
0001
0100
0010
1000
0001
0010
0100
,  // measure 70
1000
0000
0100
0000
1000
0000
0010
0000
1000
0000
0100
0010
0001
1000
0100
0010
,  // measure 71
0001
0000
0010
0000
0001
0000
0100
0000
0001
0000
0010
0100
1000
0001
0100
0010
,  // measure 72
1000
0010
1000
0100
1000
0010
0100
0001
,  // measure 73
0010
0000
0100
0010
0001
0000
0010
0000
0100
0000
1000
0000
0001
0000
0100
0000
,  // measure 74
0120
0000
0000
0000
1030
0000
1000
0000
0001
0000
1000
0100
0010
0001
0010
0100
,  // measure 75
1000
0000
0010
0100
0010
0100
0010
0000
0100
0001
0010
0000
0010
0000
0100
0000
,  // measure 76
0110
0001
0100
0010
0110
1000
0100
0010
,  // measure 77
0001
0001
0001
0001
1000
1000
1000
1000
,  // measure 78
0020
0000
0100
2030
0000
0100
3002
0000
,  // measure 79
0010
0203
0000
0300
0001
0010
0100
1000
,  // measure 80
0001
0000
0100
0010
0100
0000
1000
0000
0100
0010
0100
0000
0001
0000
0100
0010
,  // measure 81
0100
0000
0000
2000
0000
0000
0000
0000
0000
0000
0000
0000
3100
0000
0010
0000
0100
0000
0001
0000
0010
0000
0100
0000
,  // measure 82
2000
0000
0100
3002
0000
0100
0023
0000
,  // measure 83
0100
0000
0032
0000
0000
0000
0000
0000
1003
0010
1000
0010
0100
0001
0100
0001
,  // measure 84
2000
0000
0000
0000
,  // measure 85
3001
0000
0000
0010
0000
0000
0001
0000
0000
0010
0000
0000
0001
0000
0000
0000
0000
0000
1000
0000
0000
0100
0000
0000
1000
0000
0000
0100
0000
0000
1000
0000
0000
0000
0000
0000
0001
0000
0000
0000
0100
0000
0000
0000
0010
0000
0000
0000
,  // measure 86
2000
0000
0000
0000
,  // measure 87
0000
0000
0000
0000
,  // measure 88
0000
0000
0000
0000
,  // measure 89
3000
0000
0000
0000
;

//---------------dance-single - ----------------
#NOTES:
     dance-single:
     :
     Medium:
     8:
     0.564691,0.640326,0.321644,0.448609,0.033857,467.000000,429.000000,38.000000,53.000000,0.000000,0.000000,0.564691,0.640326,0.321644,0.448609,0.033857,467.000000,429.000000,38.000000,53.000000,0.000000,0.000000:
0000
0000
0000
0000
,
0000
0000
0000
0000
,
0000
0000
0000
0000
,
0000
0000
0000
0000
,
0000
0000
0000
0000
,
0001
1000
0100
0010
0001
0000
0010
0000
,
0001
1000
0100
0010
0001
0000
1000
0000
,
0001
1000
0010
0100
0001
0000
0010
0000
,
0001
1000
0010
0100
0001
0000
0011
0000
,
1000
0001
0010
0100
1000
0000
1100
0000
,
1000
0001
0010
0100
1000
0000
1100
0000
,
0001
0100
0010
1000
0001
0000
1001
0000
,
0001
0100
0001
0100
0010
1000
0010
1000
,
0001
0010
0001
0010
0100
0000
0110
0000
,
1000
0010
1000
0010
0100
0000
0010
0000
,
1000
0001
1000
0001
0010
0000
0100
0000
,
1000
0001
1000
0001
0100
0000
0010
0000
,
1000
0100
1000
0100
0001
0000
0100
0000
,
1000
0010
1000
0010
0001
0000
0010
0000
,
0100
0001
0100
0001
0010
0100
0010
0100
,
1000
0010
0100
0001
1000
0100
0010
0001
,
1000
0000
0001
0000
0100
0010
1000
0001
,
0010
0100
0010
0000
0001
1000
0100
0010
,
0011
0000
0000
1100
0000
0000
0101
0000
,
0000
1002
0000
0000
0203
0000
0320
0000
,
1030
0000
0100
1000
0001
0010
0100
0010
,
0001
0000
1000
0001
0100
0010
1000
0100
,
0110
0000
0000
0011
0000
0000
1100
0000
,
0000
0201
0000
0000
0320
0000
2030
0000
,
3001
0010
0100
0010
0001
0000
2000
0000
,
3001
0100
1000
0100
0001
1000
0100
0010
,
0001
0000
1000
0001
0100
0010
1000
0000
,
0001
0010
1000
0010
0001
0000
0200
0000
,
0310
1000
0100
0001
0100
0010
0001
0100
,
0010
0000
2000
3200
0320
0032
0203
0320
,
1030
0001
1000
0001
0010
0100
0020
0000
,
0031
0100
0010
1000
0001
0010
0100
0010
,
0001
0000
0001
1000
0010
0100
0001
0000
,
0010
0100
1000
0100
0010
0001
2000
0000
,
3001
0100
1000
0100
0001
0010
1000
0010
,
0001
0000
0001
0100
0010
1000
0100
0010
,
0012
1000
0103
0210
,
1000
0000
0310
0000
0120
0000
1030
0100
,
0010
0001
0011
1100
,
2002
3003
1100
0000
,
0101
0000
0011
1100
,
2002
0000
0000
0000
,
0000
0000
0000
3003
,
1010
0000
0000
0101
0000
0000
1001
0000
,
0000
0220
0000
0330
0002
0000
2003
0000
,
3010
0000
0000
0000
,
0000
0000
0000
0000
,
0101
0000
0000
0011
0000
0000
1100
0000
,
0000
2001
0000
0000
3200
0000
0320
0000
,
0031
0000
0000
0010
0000
0000
0001
1000
,
0010
0000
0000
0100
0010
0000
1000
0000
,
0100
0000
1000
0010
0000
1000
0100
0000
,
0010
0001
0000
1000
0002
0000
0203
0000
,
0310
0000
1000
0100
0010
0100
1000
0001
,
0010
0000
0100
0010
0001
0100
0010
1000
,
0002
0000
0003
0000
,
0000
0000
0200
0000
,
0320
0000
1030
0200
0000
1300
0002
0000
,
0000
0013
0100
0010
0001
0100
0010
1000
,
0002
0000
0103
0020
0000
1030
0002
0000
,
0000
1003
0100
0010
0001
0100
0010
1000
,
0002
0000
0000
0013
0100
0000
0000
1100
,
0000
0000
0100
0000
0010
0001
1000
0010
,
0100
0100
0010
1000
1000
0001
0010
0000
,
0100
0010
0100
0010
0000
0000
0001
1000
0001
1000
0000
0000
,
0010
0100
0001
0010
0100
0010
0001
0000
,
0100
0010
1000
0100
0010
0100
1000
0000
,
0001
0010
0100
0010
0001
0100
0010
0000
,
1000
0010
0100
0001
1000
0100
0010
0001
,
0100
0010
1000
0001
1000
0000
1001
0000
,
0100
0010
0001
1000
0001
0000
1001
0000
,
1000
0010
0100
0000
0001
0010
0100
0000
,
1000
0100
0010
0001
0010
0100
1000
0010
,
0200
0000
0000
0302
0000
0000
2003
0000
,
0000
3200
0000
0000
0310
0001
1000
0010
,
0200
0000
0000
2300
0000
0000
3200
0000
,
0000
0000
0000
0302
0000
0000
0000
0000
0000
0000
0000
0000
1003
0000
0100
0000
0010
0000
0001
0000
0000
0000
0000
0000
,
1000
0000
0000
1010
0000
0000
0011
0000
,
0000
2002
0000
3003
1000
0100
0010
0001
,
0200
0000
0000
0300
,
0010
0000
0000
1000
0000
0000
0010
0000
0000
0100
0000
0000
0001
0000
0000
0100
0000
0000
0010
0000
1000
0000
0001
0000
,
2000
0000
0000
0000
,
0000
0000
0000
0000
,
0000
0000
0000
0000
,
3000
0000
0000
0000
;

//---------------dance-single - ----------------
#NOTES:
     dance-single:
     :
     Easy:
     6:
     0.405078,0.602660,0.423216,0.228537,0.000000,335.000000,285.000000,50.000000,27.000000,0.000000,0.000000,0.405078,0.602660,0.423216,0.228537,0.000000,335.000000,285.000000,50.000000,27.000000,0.000000,0.000000:
0000
0000
0000
0000
,
0000
0000
0000
0000
,
0000
0000
0000
0000
,
0000
0000
0000
0000
,
0000
0000
0000
0000
,
0001
0000
1000
0100
1000
0000
0001
0000
,
0011
0000
1000
0001
0100
0000
0010
0000
,
1010
0000
0001
0100
0001
0000
1000
0100
,
0010
0000
0001
1000
0001
0000
0001
0000
,
0101
0000
1000
0001
0100
0000
0010
0000
,
1000
0100
1000
0000
0001
0010
0001
0000
,
0010
0100
0010
0000
0001
1000
0001
0000
,
0100
0010
0100
0010
0100
0000
0010
0000
,
2000
0001
3100
0000
,
0200
0010
1300
0000
,
2000
0010
3001
0000
,
0002
0010
0103
0110
,
2000
0010
3001
0000
,
0020
0001
0130
0000
,
0110
0000
1001
0000
,
0001
0000
0100
0000
0001
1000
0001
0000
,
1000
0000
0100
0000
1000
0000
0001
0010
,
0001
1000
0001
0100
,
0010
0000
0000
0010
0000
0000
1000
0000
,
0000
2000
0000
0000
0010
0000
3010
0000
,
0001
0000
1000
0001
0010
0000
0100
0000
,
0010
0001
1000
0010
,
0100
0000
0000
0001
0000
0000
1000
0000
,
0000
0002
0000
0000
0010
0000
0013
0000
,
0110
1000
0010
0001
,
0010
0010
0110
1000
,
0001
1001
0010
0100
,
0110
0001
1000
0100
,
0110
0010
1001
1000
,
0001
0200
0320
2030
,
3001
0000
0010
0100
0010
0000
0002
0000
,
0103
0000
0010
1000
0010
0000
0100
0000
,
0101
0101
1000
0011
,
0011
0100
1001
1000
,
0110
0010
0110
0001
,
1001
1001
0100
0110
,
0210
0010
0301
1002
,
1000
0013
0120
0100
,
0031
1000
1001
0110
,
1001
0000
0100
0000
,
0010
0000
0100
0000
,
1001
0000
0000
0000
,
0000
0000
0000
0000
,
0001
0000
0000
1000
0000
0000
0001
0000
,
0000
2000
0000
0000
0100
0000
3100
0000
,
0110
0000
0000
0000
,
0000
0000
0000
0000
,
1000
0000
0000
0001
0000
0000
0100
0000
,
0000
0020
0000
0000
0100
0000
0130
0000
,
1001
0001
0010
0000
,
0100
1000
0010
1000
,
0100
0000
0000
0100
0000
0000
0010
0000
,
0000
0010
0000
0000
0001
0000
0001
0000
,
1000
0000
1000
0000
0010
0000
1000
0001
,
0010
0100
1000
0001
,
1001
0000
0000
0000
,
0000
0000
0000
0000
,
0101
0000
0000
1000
0000
0000
0001
0000
,
0000
1000
0100
0010
,
0011
0000
0000
0100
0000
0000
1000
0000
,
0000
0001
0100
0010
,
2000
0000
0100
0000
,
0001
0001
3001
0000
,
1100
0000
0000
0101
0000
0000
1100
0000
,
0002
0000
0203
0000
,
0310
0110
0110
0110
,
1000
1001
1001
1001
,
0100
0011
0011
0011
,
1000
0000
0010
0000
0100
0001
1000
0000
,
0100
0000
0010
0010
0100
0000
0000
0000
,
1000
0000
0001
0001
1000
0000
0000
0000
,
0001
0100
0001
0000
1000
0100
1000
0000
,
0001
0000
0010
0000
0001
0010
0100
1000
,
0001
0000
0000
1000
0000
0000
0010
0000
,
0000
0200
0000
0000
0010
0000
0310
0000
,
0001
0000
0000
1000
0000
0000
0100
0000
,
0000
0020
0000
0000
0100
0000
0130
0000
,
1000
0000
0000
0001
0000
0000
0010
0000
,
0000
0200
0000
0000
1300
0000
0001
0000
,
2002
0000
0000
3003
,
1010
0000
0000
0101
0000
0000
1000
0000
,
2002
0000
0000
0000
,
0000
0000
0000
0000
,
0000
0000
0000
0000
,
3003
0000
0000
0000
;

//---------------dance-single - ----------------
#NOTES:
     dance-single:
     :
     Beginner:
     3:
     0.178960,0.301330,0.067715,0.194679,0.000000,148.000000,140.000000,8.000000,23.000000,0.000000,0.000000,0.178960,0.301330,0.067715,0.194679,0.000000,148.000000,140.000000,8.000000,23.000000,0.000000,0.000000:
0000
0000
0000
0000
,
0000
0000
0000
0000
,
0000
0000
0000
0000
,
0000
0000
0000
0000
,
0000
0000
0000
0000
,
1000
0000
1000
0000
,
0001
0000
0001
0000
,
0100
0000
0100
0000
,
0010
0000
0010
0000
,
1000
0000
1000
0000
,
0001
0000
0001
0000
,
0010
0000
0010
0000
,
0100
0000
0100
0000
,
2000
0000
3000
0000
,
0002
0000
0003
0000
,
0200
0000
0300
0000
,
0020
0000
0030
0000
,
2000
0000
3000
0000
,
0002
0000
0003
0000
,
0020
0000
0130
0000
,
0100
0010
0100
0000
,
1000
0000
0010
0000
,
0100
0100
0100
0000
,
1001
0000
0000
1001
,
0000
0000
0000
0000
,
0001
0000
0010
0000
,
0001
0001
0001
0000
,
1001
0000
0000
1001
,
0000
0000
0000
0000
,
1000
0000
0000
0000
,
0010
0000
0100
0000
,
0100
0001
0000
0001
,
1000
0000
0000
0000
,
0100
0000
0010
0000
,
0010
0001
0010
0001
,
1000
0000
1000
0000
,
0010
0000
1000
0000
,
1000
0100
0000
0100
,
0010
0000
0010
0001
,
1000
0000
0001
0000
,
0001
0100
0000
0100
,
0020
0000
0000
2030
,
0000
0000
3002
0000
,
0000
0023
0100
0100
,
0230
0000
0000
0000
,
0000
0000
0000
0000
,
1300
0000
0000
0000
,
0000
0000
0000
0000
,
1001
0000
0000
0001
,
0000
0000
0000
0000
,
1000
0000
0000
0000
,
0000
0000
0000
0000
,
0110
0000
0000
1000
,
0000
0000
0001
0000
,
0001
0000
0000
0000
,
1000
0000
0100
0000
,
1000
0000
0000
0000
,
0000
0000
0020
0000
,
0130
0000
0000
0000
,
0001
0000
1000
0000
,
1001
0000
0000
0000
,
0000
0000
0000
0000
,
0001
0000
0010
0000
,
0001
0001
1000
0000
,
1000
0000
0010
0000
,
1000
1000
0001
0000
,
0200
0000
0300
0000
,
0020
0000
0030
0000
,
1000
0000
1000
0000
,
0200
0000
0300
0000
,
0010
0010
0010
0000
,
0001
0001
0001
0000
,
0100
0100
0100
0000
,
0020
0000
1030
0000
,
0001
0001
0001
0000
,
1000
1000
1000
0000
,
0100
0100
0010
0010
,
0100
0010
0100
0000
,
2000
0000
0000
0000
,
0000
0000
0000
3000
,
0020
0000
0000
0000
,
0000
0000
0000
0030
,
0200
0000
0000
0000
,
0000
0300
0001
1000
,
0001
0000
0000
0000
,
0020
0000
0000
0130
,
2002
0000
0000
0000
,
0000
0000
0000
0000
,
0000
0000
0000
0000
,
3003
0000
0000
0000
;

//---------------dance-single - ----------------
#NOTES:
     dance-single:
     Total BS, but also works to a degree:
     Edit:
     14:
     1.095525,1.242985,0.990325,0.719467,0.799878,906.000000,789.000000,117.000000,85.000000,0.000000,0.000000,1.095525,1.242985,0.990325,0.719467,0.799878,906.000000,789.000000,117.000000,85.000000,0.000000,0.000000:
0000
0000
0000
0000
,
2010
0000
3200
0000
0320
0000
0031
0000
0012
0000
0103
0010
1000
0000
0001
1000
,
0002
0000
0000
0000
0023
0000
0000
0000
0230
0000
0000
0000
1300
0000
0000
0000
2001
0000
0000
0000
3010
0000
0000
0000
0100
0000
0000
0000
0001
1000
0001
1000
,
0002
0000
0023
0000
0230
0000
1300
0000
1002
0000
0103
0010
1000
0000
0100
0010
,
0002
0010
2003
0010
3002
0100
2003
0100
,
3001
0000
1000
0100
0010
0100
1000
0100
0001
0000
0100
0010
0001
0100
0010
1000
,
0001
0000
0100
0010
0100
1000
0100
0000
1000
0000
0100
0010
0100
0001
0100
0000
,
0001
0000
0010
1000
0010
0001
0010
1000
0010
0000
0001
0100
0010
0100
1000
0100
,
0002
1000
0010
0010
2003
0001
0010
3010
,
1000
0000
0001
0010
0100
0010
0001
0010
1000
0000
0010
0100
1000
0010
0100
0001
,
1000
0000
0010
0001
0010
1000
0100
0000
0100
0000
0010
1000
0010
0001
0100
0000
,
0001
0000
0100
1000
0100
0001
0010
0100
1000
0000
0100
0001
0100
1000
0010
0100
,
0001
0000
0101
0000
1100
0000
0101
0000
1001
0000
0001
0100
0010
0001
1000
0100
,
0010
0000
1010
0000
0011
0000
1010
0000
1001
0000
1000
0100
0010
0001
0100
0010
,
1000
1010
0011
1010
1001
0001
0010
0100
,
1100
0000
0101
0000
1100
0000
0101
0000
1001
0000
1000
0010
0100
0001
0010
0100
,
1000
1100
0101
1100
1001
0001
0010
0100
,
1100
0000
1010
0000
0101
0000
0011
0000
1001
0000
0001
1000
0100
0010
0001
0100
,
0010
0101
0011
1100
1001
1100
1001
1100
,
0011
0011
0011
0011
1100
1100
1100
1100
,
0101
0000
0010
1000
0001
0100
1000
0100
0010
0000
1000
0100
0001
0100
0010
0001
,
1000
0010
0100
0001
0010
0100
1000
0001
0100
0000
1000
0000
0100
0000
0001
0010
,
0100
0000
0001
0000
1000
0000
0010
0000
0100
1000
0010
0000
0001
0000
1000
0100
,
0010
0010
0000
1100
0000
0000
0110
0000
,
0000
0000
0000
0202
0000
0000
0000
0000
0000
0303
0000
0000
1000
0000
1000
0000
1000
0000
0001
0000
0001
0000
0001
0000
,
0010
0100
0010
0001
0100
0010
1000
0100
0010
0000
1000
0000
0001
0000
0100
1000
,
0010
0000
0001
0000
1000
0000
0100
0000
0010
1000
0100
0000
0001
0000
0100
0000
,
0011
1010
0000
1100
1010
0000
1010
0011
,
0000
0000
0000
0220
0000
0000
0000
0000
0000
0330
0000
0000
0001
0000
0001
0000
0001
0000
1000
0000
1000
0000
1000
0000
,
0010
0000
1000
0000
0100
0000
1000
0000
0010
0000
0100
0010
0100
0001
0010
1000
,
0010
0001
0100
0010
0210
1300
0100
0001
,
0010
1000
0210
0301
0100
1000
0010
0001
,
0210
0000
1300
0000
0100
0000
0001
0000
0010
0000
1000
0010
0001
0100
0010
1000
,
0001
1000
0001
0100
0120
0031
0010
1000
,
0100
0001
2000
3020
0032
0203
2300
3002
,
0023
0000
1000
0000
0100
0000
1000
0000
0130
0000
0001
0010
1000
0001
0100
1000
,
0002
0010
1000
0103
0120
1000
0100
0031
,
0110
1000
0210
1000
0010
0301
1001
0010
,
2001
0000
0010
0000
0100
0000
3010
0000
1001
0000
1000
0100
0001
1000
0010
0001
,
2000
0010
0001
3100
0210
0001
0010
1300
,
1001
0010
1002
0100
0010
1003
1001
0010
,
2001
0000
0000
0000
3001
0100
1000
0000
1000
0100
0001
0000
0021
0000
0000
0000
,
1030
0010
0001
0000
0100
0000
0010
0000
0021
0000
0000
0000
1030
0010
0100
0010
,
0001
0000
0000
0010
0000
0000
1010
0000
0000
0000
0000
0000
0011
0000
0000
0000
0000
0000
1001
0000
0010
0000
0100
0000
,
0110
0000
0000
0000
1000
0100
0001
0100
1000
0000
0100
0000
1000
0010
0001
0010
,
1000
0000
0000
1000
0010
0000
0100
1000
0100
0001
0010
0000
0101
0000
0000
0000
,
1100
0000
0001
0000
0010
0000
1000
0000
0001
0000
0100
0000
1000
0000
0010
0100
,
0001
0000
0000
1000
0000
0000
0100
0000
0000
0001
0000
0000
1000
0000
0000
0010
0000
0000
0100
0000
0000
0010
0001
0010
,
0100
0000
0100
1010
0000
1000
0011
0000
,
0010
0000
0000
0201
0000
0000
0000
0000
0000
0000
0000
0000
1300
0000
0100
0000
0001
0000
0010
0000
1000
0000
0001
0000
,
0100
0000
1000
0000
0010
0000
0001
0000
1000
0000
0100
0000
0001
0000
0010
0001
,
0100
0010
0001
1000
0100
0001
0010
0100
,
2200
0000
3000
0002
0000
0300
0020
0000
,
0003
0000
2000
0000
0000
0000
3030
0000
0001
1000
0100
0010
0001
0100
0010
0001
,
0010
0000
1000
0000
0001
0000
0100
0000
1000
0000
0001
0000
0010
0000
0100
0001
,
0010
0000
1000
0000
0001
0000
0100
0000
1000
0000
0010
0100
1000
0001
0010
0100
,
0001
0010
0100
1010
0001
0100
0011
1000
,
0001
0000
0000
0000
0000
0000
1010
0000
0000
0000
0000
0000
0100
0000
0000
0000
0000
0000
0010
0000
0000
0001
0000
0000
0100
0000
0000
0000
1000
0000
0000
0000
0001
0000
0000
0000
0010
0000
0000
0000
1000
0000
0000
0000
0100
0000
0000
0000
,
0010
0000
1000
0000
0001
0000
0100
0000
1000
0000
0010
0000
0001
0000
0010
1000
,
0100
0000
0010
0000
1000
0000
0001
0000
0100
0000
0010
0001
0100
0010
1000
0200
,
0010
0010
0320
1000
1000
2030
0001
0001
,
3002
0000
0000
0100
0000
0000
0100
0000
0000
0103
0000
0000
0010
0000
0001
0000
0100
0000
0100
0000
1000
0000
0010
0000
,
0210
0000
0310
1200
0000
0310
0201
0010
,
0000
0000
1300
0100
0001
0000
0010
0000
1000
0000
0001
0000
0100
0000
1000
0000
,
1020
0000
0000
0000
0130
0000
0021
0000
0000
0000
0130
1000
0020
0000
0001
0000
,
0000
0000
0130
0001
0010
0000
1000
0000
0001
0000
0100
0000
0010
0000
0001
0000
,
0201
0000
0000
0000
0000
0000
2300
0000
3001
0000
0010
1000
0200
0000
0310
0000
,
2000
3002
0203
0320
0032
0203
0320
1030
,
0101
0000
0010
1000
0001
0000
1100
0000
0010
0001
1000
0000
0101
0000
0010
0000
,
1000
0100
0100
0001
0010
1000
0001
0100
0100
0010
1000
0001
,
0010
0000
1000
0000
0010
0000
0001
0000
0100
0000
1000
0100
0001
0010
0100
1000
,
0001
0000
0100
0000
1000
0000
0100
0000
0010
0000
0001
0010
1000
0100
0010
0001
,
1000
0000
0100
0000
0001
0000
0100
0000
0010
0000
1000
0010
0001
0000
0100
0000
,
1000
0100
0001
0010
1000
0000
0001
0000
1000
0000
0010
0000
0001
0000
0100
0000
,
0120
0000
1030
0000
0100
0000
1000
0000
0020
0000
0031
0010
0100
0001
0010
0100
,
1000
0000
0001
0010
1000
0010
0100
0000
0100
1000
0010
0000
0110
0000
0110
0000
,
0100
0001
0010
0000
0100
0000
0010
0000
0100
1000
0010
0000
0100
0000
0010
0000
,
1010
1010
0101
0101
0011
1100
0101
0110
,
2002
0000
3003
2200
0000
3300
0220
0000
,
0330
2002
0000
3003
0100
0100
0010
0010
,
0110
0000
0001
0100
1000
0000
0110
0000
1000
0010
0001
0000
0110
0000
0001
0100
,
1000
0000
0000
0220
0000
0000
0000
0000
0000
0330
0000
0000
1000
0000
0100
0000
0100
0000
0001
0000
0010
0000
0010
0000
,
1000
0000
0000
0001
0000
0000
0110
0000
,
0000
0000
2002
0000
0000
0000
3003
0000
0100
1000
0010
0100
1000
0001
0010
1000
,
0001
0010
0100
0001
1000
0010
0001
0100
0010
0001
1000
0100
,
0001
0000
0000
0010
0000
0000
1000
0000
0000
0001
0000
0000
0100
0000
0000
0000
0000
0000
1000
0000
0000
0010
0000
0000
0001
0000
0000
1000
0000
0000
0100
0000
0000
0000
0000
0000
0001
0000
0000
0000
0010
0000
0000
0000
0100
0000
0000
0000
,
2020
0000
0000
0000
,
0000
0000
0000
0000
,
0000
0000
0000
0000
,
3030
0000
0000
0000
;
