#TITLE:Chippin Break;
#SUBTITLE:;
#ARTIST:あるふぁ;
#TITLETRANSLIT:;
#SUBTITLETRANSLIT:;
#ARTISTTRANSLIT:Alpha;
#GENRE:;
#CREDIT:;
#BANNER:[VIP2 Full Flavor] - Chippin Break.png;
#BACKGROUND:[VIP2 Full Flavor] - Chippin Break-bg.png;
#LYRICSPATH:;
#CDTITLE:;
#MUSIC:[VIP2 Full Flavor] - Chippin Break.ogg;
#OFFSET:-0.053000;
#SAMPLESTART:61.951828;
#SAMPLELENGTH:15.166000;
#LASTBEATHINT:376.040619;
#SELECTABLE:YES;
#DISPLAYBPM:190.000000;
#BPMS:0.000000=190.000000
;
#STOPS:
;
#BGCHANGES:;
#KEYSOUNDS:;
#ATTACKS:;

//---------------dance-single - ----------------
#NOTES:
     dance-single:
     :
     Hard:
     8:
     0.683003,0.697163,0.308184,0.341502,0.000000,574.000000,537.000000,37.000000,41.000000,0.000000,0.000000,0.683003,0.697163,0.308184,0.341502,0.000000,574.000000,537.000000,37.000000,41.000000,0.000000,0.000000:
// measure 0
0000
0000
0000
0000
,  // measure 1
0000
0000
0000
0000
,  // measure 2
0000
0000
0000
0000
,  // measure 3
0000
0000
0000
0000
,  // measure 4
0000
0000
0000
0000
,  // measure 5
0000
0000
0000
0000
,  // measure 6
0000
0000
0000
0000
,  // measure 7
0000
0000
0000
0000
,  // measure 8
0000
0000
0000
0000
,  // measure 9
1001
0001
0100
0010
,  // measure 10
1000
0100
0010
0001
,  // measure 11
1000
0100
1000
0100
0010
0001
0010
0001
,  // measure 12
0010
0100
1000
0010
,  // measure 13
0100
0001
0100
0001
1000
0010
1000
0010
,  // measure 14
0100
0010
1000
0001
,  // measure 15
0010
0100
0010
0100
1000
0001
1000
0001
,  // measure 16
0100
0000
0010
0000
1000
0001
1000
0000
,  // measure 17
1001
0000
0101
0000
0001
0100
0010
1000
,  // measure 18
0010
0000
1000
0100
0010
0001
0100
0010
,  // measure 19
0100
0001
0010
0000
0100
1000
0010
0100
,  // measure 20
0001
0010
1000
0001
0100
1000
0001
0010
,  // measure 21
0110
0000
1001
0000
1000
0010
0100
0001
,  // measure 22
0100
0000
0010
1000
0100
0010
0001
0100
,  // measure 23
0001
0010
1000
0001
0100
1000
0100
0010
,  // measure 24
0001
0001
1000
1000
0010
0100
0001
0000
,  // measure 25
1001
0000
1100
0000
1000
0100
0010
0001
,  // measure 26
0010
0000
0001
0100
0010
1000
0100
0010
,  // measure 27
0100
1000
0010
0000
0100
0001
0010
0100
,  // measure 28
1000
0100
0001
1000
0010
0001
1000
0100
,  // measure 29
0110
0000
1001
0000
0001
0010
0100
1000
,  // measure 30
0100
0000
0010
0001
0100
0010
1000
0010
,  // measure 31
1000
0100
0001
1000
0010
0001
0100
0010
,  // measure 32
1010
0000
0001
0202
0000
0000
0303
0000
,  // measure 33
1001
0000
1010
0000
1000
0010
0100
0001
,  // measure 34
0010
0000
0100
0010
0001
0100
0010
1000
,  // measure 35
0100
0010
0001
0000
0100
0010
1000
0001
,  // measure 36
1000
0100
0001
1000
0010
0001
0100
0010
,  // measure 37
1010
0000
1001
0000
0001
0010
0100
0010
,  // measure 38
0001
0000
1000
0010
0100
0010
1000
0001
,  // measure 39
0011
0000
1001
0000
1000
0100
0010
0001
,  // measure 40
0200
0000
0320
0000
1030
0010
0100
0001
,  // measure 41
0010
0100
1000
0001
0100
0010
1000
0100
,  // measure 42
0020
0000
0130
2000
0000
0000
3100
0000
,  // measure 43
1100
0000
0110
0000
0010
0001
0010
0100
,  // measure 44
2000
0000
3001
0100
0001
1000
0100
0000
,  // measure 45
0010
0001
0100
0000
0010
1000
0100
0010
,  // measure 46
0001
0100
1000
0001
0010
1000
0100
0010
,  // measure 47
0001
0100
1000
0001
0010
1000
0001
0100
,  // measure 48
0020
0000
1030
0001
2000
0000
3100
0000
,  // measure 49
0120
0000
0031
0100
0010
1000
0100
1000
,  // measure 50
1200
0000
0001
0000
1300
0100
0010
0001
,  // measure 51
0010
0002
0100
0103
0010
2000
0100
3100
,  // measure 52
0010
0100
1000
0001
0100
0100
0100
0100
,  // measure 53
0120
0000
1030
0100
0010
0001
0100
0001
,  // measure 54
0201
0000
1000
0000
0301
0100
0010
1000
,  // measure 55
0100
0010
0001
0100
0010
0100
0001
0000
,  // measure 56
1000
0100
0010
0100
1000
0010
0100
0000
,  // measure 57
2001
0000
3100
0010
0001
0100
0010
1000
,  // measure 58
1020
0000
0001
0000
1030
0100
0010
0001
,  // measure 59
0100
0002
0010
0013
0100
2000
0010
3010
,  // measure 60
0100
0001
1000
0100
0010
0010
0010
0010
,  // measure 61
0021
0000
0130
1000
0010
0100
0001
0010
,  // measure 62
0021
0000
1000
0000
0031
0100
0010
1000
,  // measure 63
1100
0000
0100
0010
0011
0000
0001
1000
,  // measure 64
0000
1001
0000
0010
0100
0000
0110
0000
,  // measure 65
0001
0100
0000
0010
1000
0001
0000
0020
,  // measure 66
0230
2300
3002
0203
0310
0000
1000
0000
,  // measure 67
0001
0010
0100
1000
0001
0100
0010
1000
,  // measure 68
0100
0100
0010
0010
0001
0000
1001
0000
,  // measure 69
1000
0010
0000
0100
0001
0000
0010
0100
,  // measure 70
0000
1000
0001
1000
0100
0010
0001
0100
,  // measure 71
0001
0010
0100
1000
0100
0010
0100
1000
,  // measure 72
0010
0100
0010
1000
0001
1000
0100
0000
,  // measure 73
1000
0100
0000
0010
0001
1000
0000
0020
,  // measure 74
0230
0302
2003
3200
0310
0000
0001
0000
,  // measure 75
1000
0010
0100
0001
0010
0100
1000
0100
,  // measure 76
0010
0010
0100
0100
1000
0000
1001
0000
,  // measure 77
0001
0100
0000
0010
1000
0000
0100
0010
,  // measure 78
0000
0001
1000
0100
0010
0001
0100
0010
,  // measure 79
0100
0000
0010
1000
1010
0000
0001
0010
,  // measure 80
0000
0011
0000
0010
0100
0000
0110
0000
,  // measure 81
0001
1000
0000
1000
0001
0100
0000
0020
,  // measure 82
2030
3002
0023
0230
0310
0000
0001
0000
,  // measure 83
1000
0100
0010
0001
0100
0010
1000
0001
,  // measure 84
0010
0100
0000
1000
2002
0000
3003
0000
,  // measure 85
0001
0100
0000
0010
1000
0000
0100
0010
,  // measure 86
0000
0001
1000
0000
0001
0100
0010
1000
,  // measure 87
0100
0010
0100
0010
0001
1000
0001
1000
,  // measure 88
0010
0100
0001
1000
0100
0010
0001
0100
,  // measure 89
0002
0000
0000
2003
,  // measure 90
0000
3020
0000
0000
,  // measure 91
1000
0100
0001
1000
,  // measure 92
0031
0010
1000
0100
0010
0100
1000
0001
,  // measure 93
0100
0000
0000
0000
;

//---------------dance-single - ----------------
#NOTES:
     dance-single:
     :
     Challenge:
     10:
     0.817462,1.007013,0.349831,0.349831,0.349831,687.000000,645.000000,42.000000,42.000000,42.000000,0.000000,0.817462,1.007013,0.349831,0.349831,0.349831,687.000000,645.000000,42.000000,42.000000,42.000000,0.000000:
// measure 0
0000
0000
0000
0000
,  // measure 1
0000
0000
0000
0000
,  // measure 2
0000
0000
0000
0000
,  // measure 3
0000
0000
0000
0000
,  // measure 4
0000
0000
0000
0000
,  // measure 5
0002
0000
0100
0000
,  // measure 6
2003
0010
0000
0000
0010
0000
0000
0000
,  // measure 7
3002
0000
0010
0000
,  // measure 8
2003
0100
0000
0000
0100
0000
0000
0000
,  // measure 9
3001
0100
0010
1000
0100
0010
0001
0000
,  // measure 10
0010
0100
1000
1000
,  // measure 11
0100
0010
0001
0100
0010
1000
0100
0010
,  // measure 12
0001
0000
0100
0000
0010
0010
1000
1000
,  // measure 13
0001
0010
0100
1000
0010
0100
0001
0010
,  // measure 14
0100
0000
1000
0000
0010
0100
0010
1000
,  // measure 15
0001
0100
0010
1000
0100
0010
0001
0100
,  // measure 16
0010
0000
1000
0000
0010
0100
0001
0000
,  // measure 17
0021
0000
0130
0000
1000
0010
0100
0001
,  // measure 18
0010
0000
0110
0100
1000
0001
0100
0100
,  // measure 19
0010
1000
0100
0000
0010
0001
0100
0010
,  // measure 20
1000
0000
0100
M0MM
0100
0000
0001
0000
0100
M0MM
0100
0000
1000
0000
0010
0000
,  // measure 21
1020
0000
0130
0000
0001
0010
0100
1000
,  // measure 22
0010
0000
1001
0001
0010
0100
1000
0100
,  // measure 23
0010
0000
0001
0000
0100
M0MM
0100
0000
1000
0000
0100
M0MM
0100
0000
0001
0000
,  // measure 24
0010
0000
0000
0001
0000
0000
0100
0000
0010
0000
1000
0000
0001
0000
0010
0000
0100
0000
1000
0000
0100
0000
0010
0000
,  // measure 25
0002
0000
0103
0000
0010
1000
0100
0010
,  // measure 26
0001
0000
1000
0010
0100
0001
0010
0100
,  // measure 27
1000
0001
0100
0000
0010
1000
0001
0010
,  // measure 28
0100
0000
1000
0000
0010
MM0M
0010
0000
0001
0000
0010
MM0M
0010
0000
0100
0000
,  // measure 29
0120
0000
1030
0010
0100
0001
0010
0100
,  // measure 30
1000
0000
0001
0100
0010
1000
0001
0010
,  // measure 31
0001
0000
0010
MM0M
0010
0000
1000
0000
0010
MM0M
0010
0000
0001
0000
0010
0000
,  // measure 32
0011
0000
1000
2200
0000
0000
3300
0000
,  // measure 33
0102
0000
0013
0000
0100
1000
0001
0100
,  // measure 34
0010
0000
1001
1000
0100
0010
0001
0100
,  // measure 35
0010
1000
0100
0000
0010
0001
0100
0010
,  // measure 36
1000
0000
0100
M0MM
0100
0000
0001
0000
0010
MM0M
0010
0000
1000
0000
0100
0000
,  // measure 37
2100
0000
3010
0000
0100
0001
1000
0100
,  // measure 38
0020
0000
0230
0000
1300
0010
0100
0001
,  // measure 39
0201
0000
0310
0000
0100
0001
1000
0100
,  // measure 40
1100
0000
0011
0000
1001
0001
1000
0010
,  // measure 41
0100
0001
1000
0100
0010
0001
0100
0001
,  // measure 42
0101
0000
1000
2020
0000
0000
3030
0000
,  // measure 43
0201
0000
0310
0000
1000
0100
0010
0001
,  // measure 44
0200
0000
0000
0000
0310
0100
0010
0100
0010
0000
1000
0000
0100
0000
1000
0000
,  // measure 45
0001
0100
0010
0000
1000
0100
0010
0001
,  // measure 46
1000
0000
0100
M0MM
0100
0000
0001
0000
0010
MM0M
0010
0000
1000
0000
0001
0000
,  // measure 47
0010
MM0M
0010
0000
1000
0000
0100
M0MM
0100
0000
0001
0000
0100
0000
0010
0000
,  // measure 48
2000
0000
0000
0000
3001
0100
0001
0100
0020
0000
0000
0000
0130
0000
0000
0000
,  // measure 49
0002
0000
1003
0100
1000
0001
0100
0001
,  // measure 50
0100
0000
0000
0100
0010
0000
0000
0010
1000
0000
0100
0000
0010
0000
0001
0000
,  // measure 51
0100
0000
0010
1000
0010
0000
0100
0000
0001
0000
0010
0001
0010
0000
0100
0000
,  // measure 52
1000
0100
1000
0000
0001
0100
0001
0000
0100
0010
0100
0010
0100
0010
0100
0010
,  // measure 53
2000
0000
3001
0100
0001
1000
0100
1000
,  // measure 54
0100
0000
0000
0100
0010
0000
0000
0010
0001
0000
0010
0000
0100
0000
1000
0000
,  // measure 55
0001
0100
1000
0100
0001
1000
0100
0001
,  // measure 56
0100
0010
1000
0010
0100
0001
0100
0000
,  // measure 57
2000
0000
3001
0010
0001
1000
0010
1000
,  // measure 58
0010
0000
0000
0010
0100
0000
0000
0100
0001
0000
1000
0000
0100
0000
0010
0000
,  // measure 59
0001
0000
0100
0001
0100
0000
0010
0000
1000
0000
0100
1000
0100
0000
0010
0000
,  // measure 60
0001
0010
0001
0000
1000
0010
1000
0000
0010
0100
0010
0100
0010
0100
0010
0100
,  // measure 61
0002
0000
1003
0010
1000
0001
0010
0001
,  // measure 62
0010
0000
0000
0010
0100
0000
0000
0100
1000
0000
0010
0000
0100
0000
0001
0000
,  // measure 63
1001
0000
1000
0100
0110
0000
0001
0100
,  // measure 64
0000
0000
0110
0000
0000
0000
1000
0000
0001
1000
0100
0010
0001
0000
0100
0000
,  // measure 65
0101
0101
0001
0010
0011
0011
0010
0100
,  // measure 66
2000
3020
0032
0203
1300
0010
0010
0100
,  // measure 67
0001
0100
0001
0000
1000
0010
1000
0000
0100
0010
0001
0000
0100
0010
1000
0000
,  // measure 68
0001
0100
0001
0000
1000
0100
1000
0000
0200
0000
0000
0000
0310
0001
0010
0001
,  // measure 69
1000
0000
0010
0100
0000
0001
0100
0000
,  // measure 70
0010
0000
1000
0100
0010
0000
0000
0000
0001
0000
1000
0000
0001
0000
0100
0000
,  // measure 71
0010
0000
1000
0000
0100
0000
0010
0000
0200
0300
2000
3000
0001
0000
0100
0000
,  // measure 72
0010
0010
0100
0100
0001
1000
0100
0000
,  // measure 73
1100
1100
1000
0010
1010
1010
0010
0100
,  // measure 74
0002
0023
2030
3200
0301
0010
0010
0100
,  // measure 75
1000
0010
1000
0000
0001
0100
0001
0000
0010
0100
1000
0000
0010
0100
0001
0000
,  // measure 76
1000
0010
1000
0000
0001
0010
0001
0000
0020
0000
0000
0000
0130
1000
0100
1000
,  // measure 77
0001
0100
0000
0010
0100
0000
0010
1000
,  // measure 78
0000
0000
0001
0100
0010
0000
0000
0000
1000
0000
0001
0000
1000
0000
0100
0000
,  // measure 79
0110
0010
0001
1001
1000
0100
0010
0011
,  // measure 80
0000
0000
1010
0000
0000
0000
0001
0000
1000
0000
0001
0100
0010
1000
0001
0000
,  // measure 81
0101
0101
0100
0010
1010
1010
1000
0100
,  // measure 82
0110
0010
0011
0001
1001
0001
1000
0010
,  // measure 83
1000
0010
1000
0000
0001
0100
0001
0000
0010
0100
1000
0000
0010
0100
0001
0000
,  // measure 84
1000
1100
0000
0001
0022
0000
0033
0000
,  // measure 85
1001
0000
0001
0100
0000
0010
1000
0000
,  // measure 86
0001
0000
1000
0010
0100
0000
0000
0000
0001
0000
1000
0000
0001
0000
0010
0000
,  // measure 87
0100
0100
1000
0010
0010
0100
0001
0001
,  // measure 88
1000
0100
0010
0001
0100
0000
0001
0000
0010
0001
0100
0010
1000
0000
0100
0000
,  // measure 89
0020
0000
0000
0032
,  // measure 90
0000
0000
2000
0000
0000
0000
0000
3003
,  // measure 91
1000
0100
0001
0100
1000
0001
0100
1000
,  // measure 92
0100
0000
0001
1000
0001
0000
0100
0000
0010
0100
0001
1000
0100
0010
0001
1000
,  // measure 93
0010
0000
0000
0000
;

//---------------dance-single - ----------------
#NOTES:
     dance-single:
     :
     Medium:
     6:
     0.492619,0.580969,0.224891,0.274867,0.000000,414.000000,387.000000,27.000000,33.000000,2.000000,0.000000,0.492619,0.580969,0.224891,0.274867,0.000000,414.000000,387.000000,27.000000,33.000000,2.000000,0.000000:
// measure 0
0000
0000
0000
0000
,  // measure 1
0000
0000
0000
0000
,  // measure 2
0000
0000
0000
0000
,  // measure 3
0000
0000
0000
0000
,  // measure 4
0000
0000
0000
0000
,  // measure 5
0000
0000
0000
0000
,  // measure 6
0000
0000
0000
0000
,  // measure 7
0000
0000
0000
0000
,  // measure 8
0000
0000
0000
0000
,  // measure 9
1000
0100
2000
0000
0010
0000
3010
0000
,  // measure 10
0002
0013
2000
3010
,  // measure 11
0001
0010
0002
0000
0100
0000
0103
0000
,  // measure 12
2000
3100
0002
0103
,  // measure 13
1000
0010
2000
0000
0100
0000
3100
0000
,  // measure 14
0002
0103
2000
3100
,  // measure 15
0001
0100
0002
0000
0010
0000
0013
0000
,  // measure 16
2000
3100
0002
0103
,  // measure 17
0110
0100
0010
1000
,  // measure 18
0100
0000
0010
0001
0010
0000
0001
0000
,  // measure 19
0100
0001
0100
0000
0010
1000
0010
0000
,  // measure 20
1000
0100
1000
0100
1000
0100
1000
0000
,  // measure 21
1100
0000
0100
0000
0010
0000
0001
0010
,  // measure 22
0001
0000
0100
0001
0100
0000
0010
0000
,  // measure 23
1000
0010
1000
0010
1000
0010
1000
0000
,  // measure 24
0010
0000
0100
0000
0001
1000
0001
0000
,  // measure 25
1001
1000
0100
0010
,  // measure 26
0001
0000
0100
0001
0100
0000
0010
0000
,  // measure 27
1000
0100
1000
0000
0100
0010
0100
0000
,  // measure 28
0010
0001
0010
0001
0010
0001
0010
0000
,  // measure 29
0011
0000
0001
0000
0010
0000
0100
1000
,  // measure 30
0100
0000
0010
0001
0010
0000
0001
0000
,  // measure 31
0100
0001
0100
0001
0100
0001
0100
0000
,  // measure 32
0001
0000
0000
2002
0000
0000
3003
0000
,  // measure 33
1001
0000
1000
0000
0100
0000
0010
0001
,  // measure 34
0010
0000
0001
0100
0001
0000
0100
0000
,  // measure 35
0010
0100
0010
0000
1000
0010
1000
0000
,  // measure 36
0001
1000
0001
1000
0001
1000
0001
0000
,  // measure 37
1001
0000
0001
0000
0100
0000
0010
1000
,  // measure 38
0010
2000
3002
0013
,  // measure 39
0110
0100
1000
0001
,  // measure 40
0100
0000
0100
0000
0010
0100
0010
0000
,  // measure 41
0100
0001
0010
0100
,  // measure 42
0010
0000
0010
0002
0000
0000
0003
0000
,  // measure 43
1001
0000
1000
0000
0010
0000
0100
0001
,  // measure 44
0200
0000
0310
0000
1000
0001
1000
0000
,  // measure 45
0100
0010
0100
0000
0010
0001
0010
0000
,  // measure 46
0001
1000
0001
1000
0001
1000
0001
0000
,  // measure 47
0100
0010
0100
0010
0100
0010
0100
0000
,  // measure 48
0010
0100
2002
3003
,  // measure 49
1000
0000
0100
0000
0010
0001
0100
0000
,  // measure 50
0101
0000
0101
0000
0001
0100
0010
0000
,  // measure 51
0100
0010
1000
0000
1000
0010
0100
0000
,  // measure 52
0001
0000
1000
0000
0100
0010
0100
0000
,  // measure 53
0M01
0000
0100
0000
0010
1000
0100
0000
,  // measure 54
1100
0000
1100
0000
1000
0100
0010
0000
,  // measure 55
0001
0010
0001
0000
1000
0100
1000
0000
,  // measure 56
0010
1000
0010
0000
0100
0001
0100
0000
,  // measure 57
0001
0000
0010
0000
0100
1000
0010
0000
,  // measure 58
1010
0000
1010
0000
1000
0010
0100
0000
,  // measure 59
0010
0100
0001
0000
0001
0100
0010
0000
,  // measure 60
1000
0000
0001
0000
0010
0100
0010
0000
,  // measure 61
10M0
0000
0010
0000
0100
0001
0010
0000
,  // measure 62
0011
0000
0011
0000
0001
0010
0100
0000
,  // measure 63
0110
0000
0000
1000
0002
0000
0000
0100
,  // measure 64
0000
0103
0000
0100
0020
0000
0030
0000
,  // measure 65
1000
2000
0000
0000
3001
0002
0000
0000
,  // measure 66
0103
0100
0100
0010
,  // measure 67
1000
1000
0001
0001
,  // measure 68
0010
0100
1000
0001
,  // measure 69
0100
0000
0000
0110
0000
0000
0010
0000
,  // measure 70
0000
0110
0000
0000
1000
0000
0001
0000
,  // measure 71
0100
0010
1000
0001
,  // measure 72
1000
0010
1000
0000
0001
0010
0001
0000
,  // measure 73
0100
0200
0000
0000
0310
0020
0000
0000
,  // measure 74
1030
1000
1000
0001
,  // measure 75
0010
0010
0100
0100
,  // measure 76
1000
0100
0010
0001
,  // measure 77
1000
0000
0000
1001
0000
0000
0001
0000
,  // measure 78
0000
1001
0000
0000
0001
0000
1000
0000
,  // measure 79
0110
0000
0000
0001
2000
0000
0000
0010
,  // measure 80
0000
3010
0000
0010
0200
0000
0300
0000
,  // measure 81
0001
0002
0000
0000
0013
0020
0000
0000
,  // measure 82
0130
0100
1000
1000
,  // measure 83
0010
0100
0010
0000
0100
0010
0100
0000
,  // measure 84
0000
1001
0000
2000
0002
0000
3003
0000
,  // measure 85
0001
0000
0000
0101
0000
0000
1000
0000
,  // measure 86
0000
1100
0000
0000
1000
0000
0100
0000
,  // measure 87
0010
0001
0100
1000
,  // measure 88
0010
1000
0100
0001
,  // measure 89
2000
0000
0000
0000
,  // measure 90
0000
0000
0000
0000
,  // measure 91
3001
0001
0010
0010
,  // measure 92
0100
1000
0010
0000
0100
0001
0010
0000
,  // measure 93
0100
0000
0000
0000
;

//---------------dance-single - ----------------
#NOTES:
     dance-single:
     :
     Easy:
     4:
     0.339122,0.426044,0.149928,0.358160,0.000000,285.000000,267.000000,18.000000,43.000000,0.000000,0.000000,0.339122,0.426044,0.149928,0.358160,0.000000,285.000000,267.000000,18.000000,43.000000,0.000000,0.000000:
// measure 0
0000
0000
0000
0000
,  // measure 1
0000
0000
0000
0000
,  // measure 2
0000
0000
0000
0000
,  // measure 3
0000
0000
0000
0000
,  // measure 4
0000
0000
0000
0000
,  // measure 5
0000
0000
0000
0000
,  // measure 6
0000
0000
0000
0000
,  // measure 7
0000
0000
0000
0000
,  // measure 8
0000
0000
0000
0000
,  // measure 9
2000
0000
3002
0000
,  // measure 10
0103
0100
0100
0000
,  // measure 11
0002
0000
2003
0000
,  // measure 12
3010
0010
0010
0100
,  // measure 13
0002
0000
0023
0000
,  // measure 14
0130
0100
0100
1000
,  // measure 15
2000
0000
3020
0000
,  // measure 16
0130
0100
0100
0001
,  // measure 17
2002
3003
0000
1000
,  // measure 18
0001
0100
0010
0010
,  // measure 19
0100
0001
0010
0100
,  // measure 20
1000
1000
1000
1000
,  // measure 21
2002
3003
0000
0001
,  // measure 22
1000
0100
0010
0001
,  // measure 23
1000
1000
1000
1000
,  // measure 24
0020
0230
0302
1003
,  // measure 25
2002
3003
0000
0001
,  // measure 26
1000
0100
0010
0010
,  // measure 27
0100
1000
0010
0100
,  // measure 28
0001
0001
0001
0001
,  // measure 29
2002
3003
0000
1000
,  // measure 30
0001
0100
0010
1000
,  // measure 31
0001
0001
0001
0001
,  // measure 32
1000
0000
0000
0001
0000
0000
0000
0000
,  // measure 33
0220
0330
0000
0010
,  // measure 34
1000
0001
0001
0010
,  // measure 35
0100
1000
0001
0100
,  // measure 36
0010
0010
0010
0010
,  // measure 37
0220
0330
0000
0100
,  // measure 38
0001
1000
0100
0010
,  // measure 39
0220
0330
0000
0010
,  // measure 40
0001
0001
1000
0010
,  // measure 41
0100
0001
0100
0010
,  // measure 42
0100
0000
0000
0010
0000
0000
0000
0000
,  // measure 43
0220
0330
0000
0100
,  // measure 44
2000
3000
0001
0001
,  // measure 45
0100
0010
1000
0100
,  // measure 46
0010
0010
0010
0010
,  // measure 47
0100
0100
0100
0100
,  // measure 48
1000
0001
2002
3003
,  // measure 49
1000
0100
0010
0001
,  // measure 50
1001
1001
0001
0100
,  // measure 51
0020
0030
0200
0300
,  // measure 52
0001
1000
0001
1000
,  // measure 53
0001
0100
0010
1000
,  // measure 54
1001
1001
1000
0100
,  // measure 55
0010
0000
0001
0000
,  // measure 56
0100
0000
1000
0000
,  // measure 57
0001
0010
0100
1000
,  // measure 58
1001
1001
1000
0010
,  // measure 59
0200
0300
0020
0030
,  // measure 60
1000
0001
1000
0001
,  // measure 61
1000
0010
0100
0001
,  // measure 62
1001
1001
0001
0010
,  // measure 63
0200
0300
2000
3000
,  // measure 64
0002
0003
0020
0030
,  // measure 65
0100
0000
0100
0000
,  // measure 66
1000
1000
1000
0000
,  // measure 67
0010
0100
0001
1000
,  // measure 68
0100
0100
0020
0030
,  // measure 69
0001
0000
0000
1000
0000
0000
0001
0000
,  // measure 70
0000
1000
0000
0000
0010
0000
0010
0000
,  // measure 71
0100
0001
0100
0000
,  // measure 72
0010
1000
0010
0000
,  // measure 73
1000
0000
1000
0000
,  // measure 74
0001
0001
0001
0000
,  // measure 75
0100
0010
1000
0001
,  // measure 76
0010
0010
0200
0300
,  // measure 77
0010
0000
0000
0100
0000
0000
0010
0000
,  // measure 78
0000
0100
0000
0000
1000
0000
1000
0000
,  // measure 79
0001
0100
0010
1000
,  // measure 80
0100
0010
0001
1000
,  // measure 81
0001
0000
0001
0000
,  // measure 82
0010
0010
0010
0100
,  // measure 83
1000
0010
0100
0001
,  // measure 84
1000
0000
0200
0300
,  // measure 85
1000
0000
0000
0001
0000
0000
1000
0000
,  // measure 86
0000
0001
0000
0000
0100
0000
0100
0000
,  // measure 87
0010
0100
0001
1000
,  // measure 88
0100
0100
0010
0010
,  // measure 89
2002
0000
0000
0000
,  // measure 90
0000
3003
0000
0000
,  // measure 91
0001
0001
1000
1000
,  // measure 92
0001
0100
0010
1000
,  // measure 93
0100
0000
0000
0000
;

//---------------dance-single - ----------------
#NOTES:
     dance-single:
     :
     Beginner:
     2:
     0.203473,0.309850,0.091622,0.124940,0.000000,171.000000,160.000000,11.000000,15.000000,0.000000,0.000000,0.203473,0.309850,0.091622,0.124940,0.000000,171.000000,160.000000,11.000000,15.000000,0.000000,0.000000:
// measure 0
0000
0000
0000
0000
,  // measure 1
0000
0000
0000
0000
,  // measure 2
0000
0000
0000
0000
,  // measure 3
0000
0000
0000
0000
,  // measure 4
0000
0000
0000
0000
,  // measure 5
0000
0000
0000
0000
,  // measure 6
0000
0000
0000
0000
,  // measure 7
0000
0000
0000
0000
,  // measure 8
0000
0000
0000
0000
,  // measure 9
1000
1000
1000
0000
,  // measure 10
0100
0000
0100
0000
,  // measure 11
0001
0001
0001
0000
,  // measure 12
0100
0000
0100
0000
,  // measure 13
0010
0010
0010
0000
,  // measure 14
1000
0000
1000
0000
,  // measure 15
0100
0100
0100
0000
,  // measure 16
0001
0000
0001
0000
,  // measure 17
1000
0000
0000
0000
,  // measure 18
0100
0000
0010
0000
,  // measure 19
0001
0000
1000
0000
,  // measure 20
0010
0010
0010
0000
,  // measure 21
0001
0000
0000
0000
,  // measure 22
0100
0000
0010
0000
,  // measure 23
1000
1000
1000
0000
,  // measure 24
0200
0000
0300
0000
,  // measure 25
0010
0000
0000
0000
,  // measure 26
0001
0000
1000
0000
,  // measure 27
0010
0000
0100
0000
,  // measure 28
0001
0001
0001
0000
,  // measure 29
0100
0000
0010
0000
,  // measure 30
1000
0000
0100
0000
,  // measure 31
0010
0010
0010
0000
,  // measure 32
2002
0000
3003
0000
,  // measure 33
1001
0000
0000
0000
,  // measure 34
0001
0000
0100
0000
,  // measure 35
0010
0000
1000
0000
,  // measure 36
0100
0100
0100
0000
,  // measure 37
0010
0000
0001
0000
,  // measure 38
1000
0000
0001
0000
,  // measure 39
0100
0000
0100
0000
,  // measure 40
0010
0010
0000
0000
,  // measure 41
1000
0000
0001
0000
,  // measure 42
0200
0000
0300
0000
,  // measure 43
1001
0000
0000
0000
,  // measure 44
1000
0000
0010
0000
,  // measure 45
0100
0000
0001
0000
,  // measure 46
0010
0010
0010
0000
,  // measure 47
0100
0100
0100
0000
,  // measure 48
1000
0000
0001
0000
,  // measure 49
1001
0000
0000
0000
,  // measure 50
0100
0000
0100
0000
,  // measure 51
0010
0010
0010
0000
,  // measure 52
1000
1000
1000
0000
,  // measure 53
1001
0000
0000
0000
,  // measure 54
0010
0000
0010
0000
,  // measure 55
1000
0000
0100
0000
,  // measure 56
0010
0000
0001
0000
,  // measure 57
1001
0000
0000
0000
,  // measure 58
0001
0000
0001
0000
,  // measure 59
0100
0100
0100
0000
,  // measure 60
0010
0010
0010
0000
,  // measure 61
1001
0000
0000
0000
,  // measure 62
1000
0000
1000
0000
,  // measure 63
0100
0000
0000
0000
,  // measure 64
0010
0000
0000
0000
,  // measure 65
0002
0000
0003
0000
,  // measure 66
2000
0000
3000
0000
,  // measure 67
0010
0000
0100
0000
,  // measure 68
0001
0000
0001
0000
,  // measure 69
2000
0000
3000
0000
,  // measure 70
0002
0000
0003
0000
,  // measure 71
0100
0000
0010
0000
,  // measure 72
1000
0000
0001
0000
,  // measure 73
0020
0000
0030
0000
,  // measure 74
0200
0000
0300
0000
,  // measure 75
1000
0000
0100
0000
,  // measure 76
0010
0000
0001
0000
,  // measure 77
0200
0000
0300
0000
,  // measure 78
0020
0000
0030
0000
,  // measure 79
0001
0000
0100
0000
,  // measure 80
0010
0000
1000
0000
,  // measure 81
1001
0000
0000
0000
,  // measure 82
0110
0000
0000
0000
,  // measure 83
1000
0000
0001
0000
,  // measure 84
2002
0000
3003
0000
,  // measure 85
1001
0000
1000
0000
,  // measure 86
0001
0000
1000
0000
,  // measure 87
0010
0010
0010
0000
,  // measure 88
0100
0100
0100
0000
,  // measure 89
0002
0000
0000
0000
,  // measure 90
0000
0003
0000
0000
,  // measure 91
1000
0000
0001
0000
,  // measure 92
1000
0100
0010
0001
,  // measure 93
0010
0000
0000
0000
;

//---------------dance-single - AIR Special----------------
#NOTES:
     dance-single:
     :
     Edit:
     7:
     0.666345,0.734905,2.032351,0.116610,0.070799,560.000000,316.000000,244.000000,14.000000,336.000000,0.000000,0.666345,0.734905,2.032351,0.116610,0.070799,560.000000,316.000000,244.000000,14.000000,336.000000,0.000000:
// measure 0
0000
0000
0000
0000
,  // measure 1
0000
0000
0000
0000
,  // measure 2
0000
0000
0000
0000
,  // measure 3
0000
0000
0000
0000
,  // measure 4
0000
0000
0000
0000
,  // measure 5
0000
0000
0000
0000
,  // measure 6
0000
0000
0000
0000
,  // measure 7
0000
0000
0000
0000
,  // measure 8
0000
0000
0000
0000
,  // measure 9
0011
0011
0101
0101
,  // measure 10
1010
1010
1100
1100
,  // measure 11
0110
MMMM
1001
MMMM
,  // measure 12
0110
MMMM
1001
MMMM
,  // measure 13
0101
0011
0101
0101
,  // measure 14
1010
1100
1010
1010
,  // measure 15
0011
0101
0011
0011
,  // measure 16
1100
1010
1100
1100
,  // measure 17
0001
0011
0000
0011
0000
1100
1000
0010
,  // measure 18
0100
0001
1000
0001
,  // measure 19
1001
1001
0101
0101
,  // measure 20
0011
MMMM
1010
MMMM
1100
MMMM
0101
0000
,  // measure 21
1000
1010
0000
1010
0000
0101
0001
1000
,  // measure 22
0100
0010
0001
1000
,  // measure 23
0101
MMMM
1100
MMMM
1010
MMMM
0011
0000
,  // measure 24
2000
0000
3002
0000
0103
0010
0100
0000
,  // measure 25
0001
0101
0000
0101
0000
1010
1000
0100
,  // measure 26
0010
0100
1000
0001
,  // measure 27
1001
1001
1010
1010
,  // measure 28
1100
MMMM
0101
MMMM
0011
MMMM
1010
0000
,  // measure 29
1000
1100
0000
0110
0000
0011
0001
0100
,  // measure 30
0010
0100
0001
0010
,  // measure 31
0011
MMMM
0101
MMMM
1100
MMMM
1010
0000
,  // measure 32
1001
0000
0000
MMMM
0000
0000
0220
0000
0000
0000
0000
0000
0330
0000
0000
0000
,  // measure 33
1000
1100
0000
1001
0000
0101
0100
0010
,  // measure 34
1000
0100
0010
0001
,  // measure 35
0101
0101
0011
0011
,  // measure 36
1010
MMMM
1100
MMMM
0101
MMMM
0011
0000
,  // measure 37
0001
0101
0000
1001
0000
1100
1000
0100
,  // measure 38
0010
1001
0110
0110
,  // measure 39
0001
0101
0000
0110
0000
1010
0010
1000
,  // measure 40
1001
0000
1001
0000
1000
0100
0010
0000
,  // measure 41
0100
1100
0000
0110
0000
0011
0010
0001
,  // measure 42
1001
0000
0000
MMMM
0000
0000
0220
0000
0000
0000
0000
0000
0330
0000
0000
0000
,  // measure 43
0001
0101
0000
0110
0000
1010
1000
0001
,  // measure 44
2002
0000
3003
0000
0001
1000
1001
0000
,  // measure 45
0110
0110
1001
1001
,  // measure 46
0011
MMMM
1100
MMMM
1010
MMMM
0101
MMMM
,  // measure 47
1100
MMMM
0011
MMMM
0101
MMMM
1010
0000
,  // measure 48
0220
0000
0000
0330
MMMM
0000
0000
0000
,  // measure 49
1001
0101
1001
1100
,  // measure 50
0110
0110
0011
0101
,  // measure 51
0110
MMMM
1001
MMMM
,  // measure 52
0110
1001
0110
0110
,  // measure 53
1001
1010
1001
0011
,  // measure 54
0110
0110
1100
1010
,  // measure 55
0100
0001
1000
0100
,  // measure 56
0010
0001
1000
MMMM
,  // measure 57
0011
0101
0011
0101
,  // measure 58
1001
1001
1100
1010
,  // measure 59
0110
MMMM
1001
MMMM
,  // measure 60
0110
0110
1001
1001
,  // measure 61
1100
1010
1100
1010
,  // measure 62
1001
1001
0101
0011
,  // measure 63
0011
MMMM
1100
MMMM
,  // measure 64
1001
MMMM
0101
MMMM
,  // measure 65
1001
1001
1100
1100
,  // measure 66
1010
MMMM
0011
MMMM
0101
MMMM
1100
MMMM
,  // measure 67
1010
1010
0101
0101
,  // measure 68
0011
0110
1100
0110
,  // measure 69
0011
0000
0000
MMMM
0000
0000
0101
0000
0000
MMMM
0000
0000
1010
0000
0000
MMMM
,  // measure 70
0000
0000
1100
0000
0000
MMMM
0000
0000
0110
0000
0000
0000
1001
0000
0000
0000
,  // measure 71
0001
0100
0010
1000
,  // measure 72
0100
0010
0001
MMMM
,  // measure 73
1001
1001
0011
0011
,  // measure 74
0101
MMMM
1100
MMMM
1010
MMMM
0011
MMMM
,  // measure 75
0101
0101
1010
1010
,  // measure 76
1100
0110
0011
0110
,  // measure 77
1100
0000
0000
MMMM
0000
0000
1010
0000
0000
MMMM
0000
0000
0101
0000
0000
MMMM
,  // measure 78
0000
0000
0011
0000
0000
MMMM
0000
0000
0110
0000
0000
0000
1001
0000
0000
0000
,  // measure 79
1100
0000
0000
0000
MMMM
0000
0000
0101
,  // measure 80
0000
0000
MMMM
0000
0000
0000
1010
0000
0000
MMMM
0000
0000
0101
0000
0000
0000
,  // measure 81
0110
0110
1010
1010
,  // measure 82
0110
MMMM
0101
MMMM
0011
MMMM
1100
MMMM
,  // measure 83
0110
0000
0000
0000
0011
0000
0000
0000
1001
0000
0000
0000
1010
0000
0000
MMMM
,  // measure 84
0000
0000
1001
0000
0000
MMMM
0000
0000
0220
0000
0000
0000
0330
0000
0000
0000
,  // measure 85
1010
0000
0000
MMMM
0000
0000
0110
0000
0000
MMMM
0000
0000
0101
0000
0000
MMMM
,  // measure 86
0000
0000
0011
0000
0000
MMMM
0000
0000
0110
0000
0000
0000
0110
0000
0000
0000
,  // measure 87
1100
MMMM
1010
MMMM
0011
MMMM
0101
MMMM
,  // measure 88
0110
MMMM
1001
MMMM
0110
MMMM
1001
MMMM
,  // measure 89
0220
0000
0000
0000
,  // measure 90
0000
0000
0000
0330
,  // measure 91
1001
MMMM
1001
MMMM
1001
MMMM
1001
MMMM
,  // measure 92
1001
MMMM
1001
MMMM
1001
MMMM
1001
MMMM
;
