#TITLE:Break Through The Barrier;
#SUBTITLE:;
#ARTIST:lixound;
#TITLETRANSLIT:;
#SUBTITLETRANSLIT:;
#ARTISTTRANSLIT:;
#GENRE:;
#CREDIT:;
#MUSIC:Break Through The Barrier.ogg;
#BANNER:Break Through The Barrier.png;
#BACKGROUND:;
#CDTITLE:;
#SAMPLESTART:77.801;
#SAMPLELENGTH:15.000;
#SELECTABLE:YES;
#OFFSET:-0.074;
#BPMS:0.000=176.000
,124.000=88.000
,140.000=176.000
,332.000=88.000
;
#STOPS:;
#BGCHANGES:;
#FGCHANGES:;

//--------------- dance-single - Talkion (X-Scale 5) ----------------
#NOTES:
     dance-single:
     Talkion (X-Scale 5):
     Beginner:
     3:
     0,0,0,0,0:
0000
0000
0000
0000
,
1001
0000
0000
0000
,
0000
0000
0000
0000
,
0110
0000
0000
0000
,
0000
0000
0000
0000
,
1001
0000
0000
0000
,
0000
0000
0000
0000
,
0002
0000
0000
0003
,
2000
0000
0000
3000
,
0020
0000
0000
0000
,
0000
0000
0000
0000
,
0000
0000
0000
0000
,
0000
0000
0000
0030
,
0100
0000
0100
0000
,
0010
0000
0010
0000
,
1000
0001
1000
0001
,
1000
0000
0000
0000
,
0001
0000
0001
0010
,
0001
0000
0010
0100
,
0010
0000
0100
1000
,
0100
0000
1001
0000
,
1000
0000
1000
0001
,
1000
0000
0100
0010
,
0200
0000
0000
0000
,
0000
0000
0000
0300
,
0001
0000
0001
0100
,
0001
0000
1000
0100
,
1000
0000
0010
0100
,
0010
0000
0110
0000
,
1001
0000
0110
0000
,
1001
0000
1001
0000
,
1000
0010
0010
0010
,
0100
0001
0001
1000
,
0001
0010
0010
0010
,
0100
1000
1000
0001
,
0100
0000
0000
0000
,
0000
0000
0000
0000
,
0000
0000
0000
0000
,
0000
0000
0000
0000
,
0000
0000
0000
0000
,
0000
0000
0000
0000
,
0000
0000
0000
0000
,
0000
0000
0000
0000
,
0010
0000
0010
0000
,
1000
0000
1000
1000
,
0001
0000
0001
0000
,
0010
0000
0010
0010
,
0100
0000
1000
0000
,
0001
0100
0001
0100
,
0001
0000
1000
0000
,
0100
0010
0100
0010
,
0200
0000
2000
0000
,
0000
0000
0000
3300
,
0001
0100
0001
0000
,
1000
1000
0100
0000
,
1000
0010
1000
0000
,
0001
0001
0100
0000
,
0010
1000
0010
0000
,
0100
0100
0001
0000
,
1000
0100
0010
0000
,
0001
0000
1001
0000
,
1000
0010
1000
0000
,
0010
0010
0100
0000
,
0001
1000
0001
0000
,
0010
0010
0100
0000
,
1000
0000
0000
1000
,
1001
0000
0000
0001
,
2002
0000
0000
0000
,
3003
0000
1000
0000
,
0001
0000
0001
0000
,
0010
0100
0010
0000
,
0100
0000
0100
0000
,
1000
0001
1000
0000
,
0010
0000
0010
0000
,
0100
0001
0100
0000
,
0010
0010
0100
0100
,
0001
1000
0001
0000
,
0010
0000
0100
1000
,
0001
0000
0100
0001
,
1000
0000
0100
0010
,
0100
0000
1001
0000
,
1000
0000
0010
0000
,
0001
0000
0010
0010
,
1000
0100
0010
0001
,
0010
0100
1000
0001
,
0100
0010
1000
0001
,
0010
0100
1000
0010
;

//--------------- dance-single - Talkion (X-Scale 9) ----------------
#NOTES:
     dance-single:
     Talkion (X-Scale 9):
     Easy:
     6:
     0,0,0,0,0:
0000
0000
0000
0000
,
2002
0000
0000
0000
0000
3000
0000
0010
,
0000
0010
0000
0100
0000
0200
0303
0000
,
2002
0000
0000
0000
0000
0003
0000
0010
,
0000
0010
0000
0100
0000
0200
3300
0000
,
0220
0000
0000
0000
0000
0300
0000
0001
,
0000
0001
0000
0100
0000
0200
0330
0000
,
1000
0000
0000
1010
0000
0000
0110
0000
,
0001
0000
0000
0011
0000
0000
0110
0000
,
2002
0000
0000
0000
,
0000
0000
0000
0000
,
0000
0000
0000
0000
,
0000
0000
0000
3003
,
0001
0001
0010
0010
,
0100
0100
1000
1000
,
0001
0100
0001
0100
0001
0000
1000
0000
,
0200
0000
0310
1001
,
0001
0000
0100
0000
0010
1000
0010
0000
,
1000
0000
0100
0000
0010
0001
0010
0000
,
0001
0100
1000
0100
,
0010
1000
2001
3100
,
0010
0000
0001
0000
0100
0001
0100
0000
,
0010
0000
1000
0000
0100
1000
0100
0000
,
0020
0001
0000
0001
,
0230
2300
3001
1001
,
1000
0000
0010
0000
0100
0001
0100
0000
,
0001
0000
0010
0000
0100
1000
0100
0000
,
1000
0010
0001
0010
,
0100
0001
1002
0013
,
0100
1100
1000
1010
,
0010
0000
0110
0000
0100
0001
0100
0001
,
1000
0000
0100
0010
0001
1000
0010
0100
,
0001
0000
0010
0100
1000
0001
0100
0010
,
1000
0000
0100
0001
0100
1000
0001
1000
,
0001
0000
0000
0000
0100
0010
0100
0010
0100
0000
0001
0000
2000
0000
3100
0000
,
0110
0000
0000
0000
,
0000
0000
0000
0000
,
0000
0000
0000
0000
,
0000
0000
0000
0000
,
0000
0000
0000
0000
,
0000
0000
0000
0000
,
0000
0000
0000
0000
,
0000
0000
0000
0000
,
0001
0101
1000
1100
,
0001
0101
1000
1000
,
0100
0110
0010
0011
,
0100
0110
1000
1000
,
0001
0010
0001
0000
1000
0010
1000
0000
,
0001
0100
0001
0000
1000
0100
1000
0000
,
0001
0010
0001
0010
0001
0010
0100
0000
,
1000
0010
1000
0010
0200
0000
0000
0000
,
0302
0000
0000
0000
1003
0100
1000
0020
,
0000
0000
0000
0030
,
0100
0000
0001
0000
1000
0100
1000
0000
,
0100
0000
0010
0000
0001
1000
0001
0000
,
0100
0000
0010
0000
1000
0001
1000
0000
,
0100
0000
0010
0000
0100
1000
0100
0000
,
1000
0000
0001
0000
0100
0010
0100
0000
,
0001
0000
1000
0000
0100
0010
0100
0000
,
1000
0000
0010
0000
0100
0001
0100
0000
,
0010
1000
1100
0101
,
0001
0000
0010
0000
1000
0010
1000
0000
,
0010
0000
0001
0000
1000
0010
1000
0000
,
0001
0000
0100
0000
1000
0100
1000
0000
,
0100
0000
0001
0000
1000
0100
1000
0000
,
0100
0000
0012
0000
0000
0103
0010
0000
,
1000
0000
2010
0000
0000
3100
0010
0000
,
0002
0000
0000
0000
,
0000
0000
2000
3003
,
0001
0000
0100
0000
0010
0000
1000
0100
,
0010
0100
1000
1001
,
0001
0000
0100
0000
0010
0000
0100
0001
,
1000
0100
0010
0110
,
0100
0000
1000
0000
0001
0000
0100
0010
,
1000
0100
0010
0110
,
0200
0000
1300
1001
,
0001
0100
0001
0100
0001
0100
0010
0000
,
1000
0000
0100
0000
0010
0001
0010
0000
,
0001
0000
0100
0000
0010
1000
0010
0000
,
1000
0100
0001
0100
,
0010
0001
2001
3010
,
0200
0000
0300
0202
0000
0303
0022
0000
,
0033
0220
0000
0330
1000
0001
1000
0001
,
0010
0000
0100
1000
0001
0100
0010
1000
,
0001
0000
0000
0000
0010
0000
0100
0000
0010
0000
0001
0000
1000
0010
1000
0010
,
1000
0000
0001
0100
1000
0100
0010
1000
,
0001
0000
1000
0100
0010
0001
0100
0010
;

//--------------- dance-single - Talkion (X-Scale 12) ----------------
#NOTES:
     dance-single:
     Talkion (X-Scale 12):
     Medium:
     9:
     0,0,0,0,0:
0000
0000
0000
0000
,
0022
0000
0000
0000
0000
0033
0000
0101
,
0000
0101
0000
1010
0000
1010
0000
0000
,
2200
0000
0000
0000
0000
3300
0000
1010
,
0000
1010
0000
0101
0000
0101
0000
0000
,
2002
0000
0000
0000
0000
3003
0000
1100
,
0000
1100
0000
0101
0000
0101
0001
1000
,
0100
0000
0000
0110
0000
0000
0010
0000
0000
0011
0000
0000
1002
0000
0000
0000
,
1003
0000
0000
1010
0000
0000
0010
0000
0000
0110
0000
0000
0100
0000
0002
0000
,
2000
0000
0000
0000
,
0000
0000
0000
0000
,
0000
0000
0000
0000
,
0000
0000
0000
0000
0000
0000
0000
0000
0000
0000
0000
0000
0000
3003
0000
0000
,
0100
1000
0001
0000
0001
1000
0100
0000
,
0010
0001
1000
0000
1000
0001
0010
0000
,
0100
1000
0100
1000
0001
0100
0001
0100
,
0010
0000
0100
0001
1000
0100
0110
0000
,
0020
0000
0031
0100
0001
1000
0100
0000
,
0010
0100
1000
0001
0100
0010
1000
0000
,
0100
1000
0100
0000
0010
0100
0010
0000
,
0001
0100
0001
0100
0020
0000
1030
0000
,
0200
0000
0310
0001
1000
0001
0100
0000
,
0010
1000
0010
1000
0001
0010
0100
0000
,
0020
0000
0001
0032
0000
0100
0103
0010
,
2000
0000
3100
0010
0001
1000
1001
0000
,
0002
0000
0103
0010
1000
0010
1000
0000
,
0100
0010
0001
1000
0001
0100
0010
0000
,
0100
0001
1000
0000
0100
1000
0100
0000
,
0010
0001
0010
0001
2000
0000
3010
0000
,
0102
0000
0013
0100
2100
0000
3010
0100
,
0101
0000
1001
0000
1000
0100
0010
0001
,
1000
0000
0010
0000
0200
0001
0000
0301
0020
0000
0230
1000
0000
0010
0000
1300
,
0001
0000
0100
0000
0020
1000
0000
1030
0200
0000
0320
0001
0000
0100
0000
0031
,
1000
0000
0010
0000
0200
0001
0000
0301
2000
0000
3200
0001
0000
0010
0000
0310
,
0001
0000
1000
0000
0010
0100
0010
0100
0001
1000
0001
1000
0200
0000
0310
0000
,
1001
0000
0000
0000
,
0000
0000
0000
0000
,
0000
0000
0000
0000
,
0000
0000
0000
0000
,
0000
0000
0000
0000
,
0000
0000
0000
0000
,
0000
0000
0000
0000
,
0000
0000
0000
0000
,
0001
0100
0001
0000
0001
0100
0010
0000
,
1000
0000
0100
0000
1000
0000
0000
0000
1000
0000
0000
0100
0000
0000
0010
0000
,
0001
0100
1000
0000
1000
0100
0010
0000
,
1000
0000
0100
0000
0001
0000
0000
0000
0001
0000
0000
0100
0000
0000
0010
0000
,
0001
0100
0001
0100
0001
0100
0010
1000
,
0001
0010
0001
0010
0001
0010
0100
1000
,
0001
0100
0001
1000
0100
1000
0001
0010
,
0001
0000
1000
0000
0010
0000
0100
0000
0001
0000
0000
1000
0000
0000
0200
0000
,
0020
0000
0300
0000
0031
0100
0020
2000
,
0000
0000
0000
0000
0000
0000
0000
0000
0000
0000
0000
0000
0000
3030
0000
0000
,
0100
0010
0001
0010
0100
1000
0001
0000
,
0100
0010
1000
0010
0100
0001
1000
0000
,
0100
0010
0100
0010
0001
0100
0010
0000
,
0100
0001
0100
0001
1000
0100
0010
0000
,
0100
1000
0001
0100
0010
1000
0001
0000
,
0010
0100
0010
0001
1000
0010
0100
0000
,
0010
1000
0001
1000
0100
0010
0001
0010
,
0100
0100
1000
1000
0001
0100
0110
0000
,
0010
1000
0100
0001
0100
0010
0001
0000
,
0010
0001
0100
1000
0100
0010
1000
0000
,
0001
0010
0100
1000
0001
0100
0010
0000
,
0100
0001
1000
0100
0001
0100
1000
0001
,
0200
0000
0010
0000
0310
0000
0000
1000
0000
0000
0001
0000
1001
0000
0000
0000
,
2000
0000
0100
0000
3100
0000
0000
0010
0000
0000
0001
0000
1000
0000
0020
0000
,
0200
0000
0000
0000
,
0000
0030
0002
0303
,
0021
0000
0000
0230
0000
0000
1300
0000
0010
0000
0100
0000
0010
0000
0100
0000
,
0002
0000
0000
2003
0000
0000
3200
0000
0310
0000
0100
0000
1000
0000
0001
0000
,
0201
0000
0000
0320
0000
0000
2030
0000
3100
0000
0010
0000
0100
0000
0010
0000
,
0002
0000
0000
2003
0000
0000
3020
0000
0130
0000
0010
0000
1000
0000
0001
0000
,
2001
0000
0000
3200
0000
0000
0320
0000
0031
0000
0100
0000
1000
0000
0100
0000
,
0020
0000
0000
2030
0000
0000
3002
0000
0013
0000
0100
0000
1000
0000
0001
0000
,
0100
0000
0000
0110
0000
0000
0010
0000
0000
1010
0000
0000
1001
0000
0000
0000
,
0001
0010
0001
0010
0100
2000
0002
3003
,
0200
0000
0310
1000
0100
0010
0001
0000
,
0100
1000
0100
0010
1000
0001
1000
0000
,
0100
0001
0100
0000
0010
0001
0010
0000
,
0001
0100
0001
0100
0020
0000
1030
0000
,
1200
0000
0010
0320
0000
0001
0032
0000
,
0100
0203
0000
0310
1000
0001
1000
0100
,
0010
0000
0100
0000
1000
0001
1000
0000
0010
0100
0010
0100
0001
1000
0100
0000
,
0010
0000
0001
0000
0100
0001
0100
0000
0010
1000
0010
1000
0001
0001
0010
0010
,
0100
0000
0010
0000
0001
1000
0001
0000
0100
0010
0100
0010
1000
0001
0010
0000
,
0100
0000
1000
0000
0100
0010
0001
0000
1000
0010
1000
0010
0100
0001
1000
0100
;

//--------------- dance-single - Talkion (X-Scale 15) ----------------
#NOTES:
     dance-single:
     Talkion (X-Scale 15):
     Hard:
     10:
     0,0,0,0,0:
0000
0000
0000
0000
,
2200
0000
0000
0000
0000
3300
0000
0110
,
0000
0011
0000
1001
0000
0101
0000
0000
,
2020
0000
0000
0000
0000
3030
0000
0110
,
0000
0101
0000
1001
0000
0011
0000
0000
,
0220
0000
0000
0000
0000
0330
0000
1100
,
0000
1001
0000
1010
0000
0110
0100
0001
,
1000
0000
0000
1100
0000
0000
0110
0000
0000
0011
0000
0000
1002
0000
0000
0000
,
0103
0000
0000
0110
0000
0000
1010
0000
0000
1001
0000
0000
1100
0000
0100
0000
,
0020
0000
0000
0000
,
0000
0000
0000
0000
,
0002
0030
0200
0003
,
0020
0300
2000
3030
,
0100
0010
0100
0010
0001
0100
0001
0100
,
0010
1000
0010
1000
0100
0010
0100
0010
,
0001
0000
0001
0000
1000
0000
1000
0000
0010
0100
0010
0100
0010
0100
0010
0100
,
0001
0000
0000
0010
0000
0000
0100
0000
1000
0000
0001
0000
1001
0000
0000
0000
,
0012
0000
0000
0000
1003
0000
0010
0000
1000
0100
1000
0000
0100
0000
0010
0000
,
0001
0100
0001
0000
0100
0000
0010
0000
1000
0000
0100
0000
0010
0000
0001
0000
,
0010
1000
0010
0001
0010
1000
0010
0100
,
0010
0001
1000
0010
0100
0001
1000
0000
,
1200
0000
0000
0000
0310
0000
0001
0000
0100
0001
0100
0000
0010
0000
1000
0000
,
0100
1000
0100
0000
0010
0000
0001
0000
1000
0000
0010
0000
1000
0000
0010
0000
,
0200
0000
0001
0302
0000
0010
0013
0100
,
2000
0000
3001
0100
1000
0100
0110
0000
,
2010
0000
0000
0000
3100
0000
0010
0000
0001
1000
0001
0000
0100
0000
0010
0000
,
1000
0001
1000
0000
0100
0000
0010
0000
0001
0000
0100
0000
0010
0000
1000
0000
,
0100
0001
0100
1000
0100
0001
0100
0010
,
0100
1000
0001
0100
0010
1000
0001
0000
,
2001
0000
3100
0100
0210
0000
1300
1000
,
1001
0000
0000
0000
0101
0000
0000
0000
1100
0000
0100
0010
0001
0000
0100
0010
,
2000
0000
3100
0000
0010
0001
1000
0001
0020
0100
0130
0000
1000
0001
0101
0000
,
0021
0000
0130
0000
1000
0001
0100
1000
0200
0010
0310
0000
1000
0001
0011
0000
,
0020
0000
0130
0000
1000
0001
0100
0001
2000
0100
3100
0000
0010
0001
0100
0010
,
2010
0000
0000
0000
0000
0000
0000
0000
0000
0000
0000
0000
3200
0000
0000
0000
0000
0000
0000
0000
0000
0000
0000
0000
0010
0000
0000
0000
0000
0000
0010
0000
0000
0000
0000
0000
0010
0000
0000
0000
0000
0000
0310
0000
0000
0000
0000
0000
0001
0000
0000
0000
0000
0000
0100
0000
0000
0001
0000
0000
0100
0000
0000
0000
0000
0000
0010
0000
0000
0000
0000
0000
1000
0000
0000
0000
0100
0000
0000
0000
1000
0000
0000
0000
0001
0000
0000
0000
0100
0000
0000
0000
0001
0000
0000
0000
,
1000
0000
0000
0000
,
0000
0000
0000
0000
,
0200
0000
0320
0000
,
0032
0000
2003
0000
,
3020
0000
0032
0000
,
2003
0000
3200
0000
,
0302
0000
2003
0000
,
3200
0000
0000
0000
0310
0001
0000
0000
,
1001
0000
0001
0000
0100
0000
0010
1000
0010
0000
0100
0000
0001
0000
1000
0100
,
1000
0000
0100
0000
0010
0000
0001
1000
0001
1000
0000
0010
0000
0100
0010
0000
,
1000
0000
0100
0000
0010
0000
0001
0010
0001
0000
0100
0000
0010
0000
1000
0001
,
1000
0000
0100
0000
0010
0000
0100
1000
0100
1000
0000
0001
0000
0100
0010
0000
,
1000
0001
1000
0000
0100
0000
0010
0000
0001
1000
0001
0000
0100
0000
0010
0000
,
1000
0100
1000
0000
0100
0010
0100
0000
0010
0001
0010
0000
0001
0100
0001
0000
,
0100
0010
0100
0000
0010
0000
1000
0000
0100
0000
0010
0000
0001
0000
1000
0000
,
0010
0000
0010
0000
0010
0000
0010
0000
0100
0000
0000
0001
0000
0000
1000
0000
,
0200
0000
0000
0000
0000
0000
0000
0000
0310
0001
0010
0001
1000
0001
2000
0002
,
0000
0000
0000
3003
,
1000
0010
1000
0000
0100
0000
0010
0000
0001
0100
0000
0001
0100
0000
0010
0000
,
1000
0001
1000
0000
0100
0000
0010
0000
0001
1000
0000
0001
1000
0000
0010
0000
,
0100
0010
0100
0000
0001
0000
1000
0000
0100
0010
0000
0100
0010
0000
0001
0000
,
0100
0001
0100
0000
0010
0000
1000
0000
0100
1000
0000
0100
1000
0000
0001
0000
,
0100
0000
0010
1000
0010
0000
1000
0000
0100
0010
0000
0100
0010
0000
0001
0000
,
1000
0000
0010
1000
0010
0000
0100
0000
0001
0010
0000
0001
0010
0000
0100
0000
,
1000
0000
0001
1000
0001
0000
0100
0000
0010
0100
0010
0000
1000
0000
0100
0000
,
0010
0000
0001
0100
0001
0000
1000
0100
1000
0000
0100
0000
0010
0001
0010
0001
,
1000
0010
1000
0000
0100
0000
0010
0000
0001
0100
0000
0001
0100
0000
0010
0000
,
0100
0001
0100
0000
0001
0000
0010
0000
0100
1000
0000
0100
1000
0000
0010
0000
,
1000
0100
1000
0000
0100
0000
0010
0000
0001
0100
0000
0001
0100
0000
0010
0000
,
1000
0001
1000
0000
0100
0000
0010
0000
0001
0000
0100
0000
0110
0000
0010
0000
,
2000
0000
0100
0000
3200
0000
0000
0320
0000
0031
1000
0001
1000
0000
0000
0000
,
0002
0000
0100
0000
0103
0020
0000
2030
0000
3100
0010
0000
0001
1000
0002
0000
,
0200
0000
0000
0000
,
0000
0003
0020
0330
,
1010
0000
0000
1000
0001
0000
0010
0000
0100
0000
0010
0001
0010
0000
0001
0000
,
0100
0000
0000
0100
0010
0000
1000
0000
0100
0000
0010
0000
0001
0000
0100
0000
,
0101
0000
0000
0001
1000
0000
0100
0000
0010
0000
0100
1000
0100
0000
1000
0000
,
0010
0000
0000
0010
0100
0000
0001
0000
0010
0000
0100
0000
1000
0000
0010
0000
,
0110
0000
0000
0100
0001
0000
1000
0000
0100
0000
0010
0100
0010
0000
0100
0000
,
1000
0000
0000
1000
0001
0000
0100
0000
0010
0000
1000
0000
0001
0000
0010
0000
,
0200
1000
2300
0001
3002
0100
0103
0000
,
0010
1000
0010
1000
0010
1000
0010
1000
0010
0100
0010
0100
0001
0000
0000
0000
,
0021
0000
0000
0000
0130
1000
0100
0000
1001
0000
0001
0000
0100
0000
0010
0000
,
1000
0010
1000
0000
0100
0000
0010
0000
0001
0000
1000
0000
1010
0000
0010
0000
,
0100
0001
0100
1000
0100
0001
0100
0010
,
1000
0100
0010
0001
0100
0010
1000
0000
,
1200
0000
0310
0012
0000
0103
0120
0000
,
1030
0000
1200
0000
0000
0000
0310
0000
0001
0000
1000
0010
0100
0000
0001
0010
,
0200
0000
0310
0000
0001
0100
0001
0100
1000
0100
0010
1000
0010
1000
0001
0010
,
0200
0000
0310
0000
0001
1000
0001
1000
0010
0001
0010
0200
0001
0001
0001
0301
,
2000
0000
3100
0000
0010
0001
0010
0001
0100
0010
1000
0100
1000
0100
0001
0100
,
0020
0000
0031
0000
0100
0010
0100
0010
1000
0001
0100
0010
1000
0001
0010
0100
;

//--------------- dance-single - Talkion (X-Scale 17) ----------------
#NOTES:
     dance-single:
     Talkion (X-Scale 17):
     Challenge:
     12:
     0,0,0,0,0:
0000
0000
0000
0000
,
2020
0000
0000
0000
0000
3030
0000
0110
,
0000
0101
0000
1001
0000
1100
0000
0000
,
0022
0000
0000
0000
0000
0033
0000
0110
,
0000
1100
0000
1001
0000
0101
0000
0000
,
0220
0000
0000
0000
0000
0330
0000
1010
,
0000
0000
1100
0000
0000
0000
1001
0000
0000
0000
0011
0000
0010
0100
1000
0000
,
0100
0000
0000
1010
0000
0000
0011
0000
0000
0110
0000
0000
1001
0000
0001
0000
,
0100
0000
0000
1010
0000
0000
0101
0000
0000
1001
0000
0000
1100
0000
0100
0000
,
0020
0000
0000
0032
0000
0000
0203
0000
0000
2300
0000
0000
3200
0000
0000
0000
,
0320
0000
0000
2030
0000
0000
3200
0000
0000
0302
0000
0000
0203
0000
0000
0000
,
0320
0000
0000
0032
0000
0000
2003
0000
0000
3020
0000
0000
0032
0000
0000
0000
,
2003
0000
0000
3200
0000
0000
0302
0000
0000
2003
0000
0000
3200
0000
0000
0000
,
0310
0001
0010
0001
1000
0010
1000
0010
,
0001
0010
0001
0010
0100
0001
1000
0100
,
0010
0001
0010
0001
1000
0010
1000
0010
0100
0001
0100
0001
1000
0100
1000
0100
,
0010
0000
0001
1000
0001
0000
0100
0000
0010
0000
1000
0000
1001
0000
0000
0000
,
0021
0000
0000
0000
0130
1000
0100
1000
0001
0100
0001
0000
0100
0010
0100
0000
,
0010
1000
0010
1000
0001
0010
0100
0000
0010
0001
0010
0000
0001
0100
0010
0000
,
1000
0100
1000
0000
0010
0100
0010
0000
0100
0001
0100
0000
0010
1000
0010
1000
,
0001
0010
0100
0000
0010
0001
0010
0000
0200
0000
0000
0000
1300
0000
0001
0000
,
0201
0000
0000
0000
0310
1000
0010
1000
0100
0010
0100
0000
0010
0001
0010
0001
,
0100
0010
0100
0000
0010
1000
0001
0000
0010
0100
0010
0000
0001
1000
0010
0000
,
0200
0001
0001
0302
0010
0010
0023
1000
,
2030
0010
3010
0001
0100
0010
1010
0000
,
1200
0000
0000
0000
0310
0001
0010
0001
1000
0010
0100
0000
0010
1000
0100
0000
,
0010
0100
0010
0100
1000
0001
0100
0000
0010
1000
0010
0000
0100
0001
1000
0000
,
0100
0010
0100
0000
0010
0001
0010
0000
0001
0100
0010
0000
1000
0010
1000
0010
,
0100
0001
1000
0000
0100
1000
0100
0000
0020
0000
0001
0000
0031
0000
0000
0000
,
1002
0000
0000
0000
0103
0010
1000
0010
2000
0000
0000
0000
3100
0010
0001
0010
,
0002
0000
0000
0000
0103
0000
0010
0000
1010
0000
1000
0100
1000
0000
0001
0100
,
0001
0000
0010
0000
0100
0010
0010
1000
0100
0100
0001
1000
0010
0100
0001
1000
,
0001
0000
0010
0000
0100
1000
1000
0010
0001
0001
0100
1000
0010
0100
0001
1000
,
1001
0000
0001
0000
0010
0100
0100
0001
0010
0010
1000
0001
0100
0010
1000
0001
,
1000
0000
0000
0000
0000
0000
0000
0000
0000
0000
0000
0000
0200
0000
0000
0000
0000
0000
0000
0000
0000
0000
0000
0000
0010
0000
0000
0000
0000
0000
0010
0000
0000
0000
0000
0000
0010
0000
0000
0000
0000
0000
0310
0000
0000
0000
0000
0000
0001
0000
0000
0000
0000
0000
0100
0000
0000
0001
0000
0000
0100
0000
0000
0000
0000
0000
0010
0000
0000
0000
0000
0000
1000
0000
0000
0000
0100
0000
0000
0000
0010
0000
0000
0000
0001
0000
0000
0000
0100
0000
0000
0000
0010
0000
0000
0000
,
1000
0000
0000
0000
,
0000
0000
0000
0000
,
0020
0032
0203
2300
,
3020
2030
3200
0302
,
0023
2030
3200
2300
,
3020
0032
0203
0320
,
2030
3200
0302
0023
,
0032
0000
0203
0000
1300
0001
0000
0000
,
0011
0000
0001
0000
0100
0000
0010
1000
0010
0000
1000
0000
0100
0000
0010
0001
,
0010
0000
0100
0000
1000
0000
0010
0100
0001
0100
0000
0010
0000
1000
0100
0000
,
1100
0000
1000
0000
0010
0000
0100
0001
0100
0000
0001
0000
0010
0000
0100
1000
,
0100
0000
0010
0000
0001
0000
0100
0010
1000
0010
0000
0100
0000
0001
0010
0000
,
0100
1000
0100
1000
0001
0100
0001
0100
0010
1000
0010
1000
0001
0010
0001
0010
,
0100
1000
0100
1000
0010
0100
0010
0100
0001
1000
0001
1000
0100
0010
0100
0010
,
0001
0100
0010
1000
0010
1000
0100
0010
0001
0010
0001
0100
0010
1000
0100
0010
,
0100
1000
0001
0100
0010
1000
0001
1000
0100
0000
0000
0110
0000
0000
0011
0000
,
2002
0000
0000
0000
0000
0000
0003
0000
3010
0100
0001
1000
0100
0010
0002
2000
,
0000
0000
0000
3003
,
0010
1000
0010
0000
1000
0100
1000
0100
0010
0001
1000
0001
0010
0000
0001
0100
,
0001
0100
0010
0000
1000
0100
1000
0100
0010
0001
1000
0001
0100
0000
0010
1000
,
0100
1000
0100
0000
0010
0100
1000
0001
0100
0010
0100
0010
1000
0000
0001
0010
,
0100
0010
0100
0000
1000
0010
1000
0010
0100
0001
1000
0000
1001
0000
0001
0000
,
0010
0000
0100
1000
0100
1000
0001
0100
0010
1000
0001
0010
0100
0000
0010
0000
,
0001
0000
0100
0010
0100
0010
1000
0001
0010
0100
1000
0010
0100
0000
0010
0000
,
0100
0000
0001
0010
0001
0010
0100
1000
0001
1000
0010
0000
0100
0000
0010
0000
,
1000
0000
0001
0010
0001
0000
1000
0010
1000
0000
0010
0000
0100
0001
0100
0001
,
1000
0100
1000
0000
0001
0100
0001
0100
0010
1000
0001
1000
0010
0000
1000
0100
,
1000
0100
0010
0000
0001
0100
0001
0100
0010
1000
0001
1000
0100
0000
0010
0001
,
0100
0001
0100
0000
0010
0100
0001
0010
0100
1000
0010
0100
0001
0000
0100
0010
,
1000
0010
0100
0000
0001
0010
0100
1000
0100
1000
0010
0100
0001
0000
1000
0000
,
1100
0000
0100
0000
0010
0001
0000
0101
0000
0100
0010
1000
0010
0000
0000
0000
,
0101
0000
0001
0000
0010
0100
0000
1100
0000
1000
0010
0100
0010
0100
0001
1000
,
0200
0000
0000
0000
,
0000
0000
0020
0330
,
0011
0000
0000
0001
0100
0000
0010
0000
1000
0000
0010
0100
0001
0010
0001
0010
,
0100
0000
0000
0100
1000
0000
0010
0000
0100
0000
0001
0100
0001
0000
1000
0000
,
1100
0000
0000
1000
0010
0000
0100
0000
0001
0000
0100
0010
1000
0100
1000
0100
,
0010
0000
0000
0010
0001
0000
0100
0000
0010
0000
1000
0010
1000
0000
0001
0000
,
1001
0000
0000
1000
0100
0000
0010
0000
0100
0000
1000
0001
0100
0010
0100
0010
,
1000
0000
0000
1000
0010
0000
0100
0000
0001
0000
0010
0001
0010
0000
0100
0000
,
1100
0000
1000
0010
0100
0000
0101
0000
0001
0010
0100
0000
0120
0000
0000
0000
,
0031
0100
0001
0100
0010
1000
0001
0010
0001
0010
0100
1000
0001
0000
0000
0000
,
1020
0000
0000
0000
0130
0001
0100
0001
1000
0000
1100
0000
0100
0010
0001
0000
,
0010
0001
0010
0001
0100
0010
1000
0000
0001
1000
0100
0000
0110
0000
0010
0000
,
0001
0010
0100
0000
0010
0100
1000
0000
0010
0100
0001
0000
0101
0000
0100
0000
,
0010
1000
0100
0000
0010
0001
0100
0000
0020
0000
1000
0000
1030
0000
0000
0000
,
1002
0010
0013
0210
1000
1300
1020
0100
,
0130
0000
0201
0000
0010
0000
0310
0000
1000
0000
0001
0010
0001
0000
1000
0010
,
1000
0000
0000
0000
0100
0000
0000
0000
0010
0000
0001
0000
1000
0010
1000
0010
1000
0000
0100
0000
0010
0001
0010
0001
0010
0000
0100
0000
1000
0000
0001
0000
,
0100
0000
0000
0000
0010
0000
0000
0000
0100
0000
0001
0000
1000
0100
1000
0100
0010
0000
0001
0000
0100
0010
0100
0010
0100
0000
0001
0000
1000
0000
0100
0000
,
0110
0000
0000
0000
0010
0000
0000
0000
0100
0000
1000
0000
0001
0100
0001
0100
0001
0000
0010
0000
0100
1000
0100
1000
0100
0000
0010
0000
0001
0000
0100
0000
,
0010
0000
0000
0000
0100
0000
0000
0000
0001
0000
1000
0000
0100
0010
0100
0010
0001
0000
0100
0000
0010
0000
1000
0000
0100
0010
0001
0100
0010
1000
0100
0010
;

//--------------- dance-single - Talkion (X-Scale 18) ----------------
#NOTES:
     dance-single:
     Talkion (X-Scale 18):
     Edit:
     13:
     0,0,0,0,0:
0000
0000
0000
0000
,
0202
0000
0000
0000
0000
0303
0000
0110
,
0000
1010
0000
1100
0000
0110
0010
0001
,
2002
0000
0000
0000
0000
3003
0000
0011
,
0000
0110
0000
1100
0000
1010
1000
0001
,
0022
0000
0000
0000
0000
0033
0000
0110
,
0000
0000
0000
1100
0000
0000
0000
0000
0000
1010
0000
0000
0000
0000
0000
0110
0000
0000
0100
0001
0100
0001
0000
0000
,
1000
0000
0010
1000
0000
0010
1000
0000
0001
0010
0000
0001
0010
0000
0100
0000
,
0010
0001
0010
0001
1000
0010
1000
0010
0001
0010
0100
0001
1000
0100
1000
0100
,
0020
0000
0000
0000
,
0000
0000
0000
0000
,
0200
0030
2000
0300
,
0020
3000
0200
0030
,
0301
0010
0001
0010
1000
0001
1000
0001
,
0100
1000
0100
1000
0001
0100
0010
1000
,
0001
0010
0001
0010
0100
1000
0100
1000
0001
0100
0001
0100
1000
0100
0010
1000
,
0001
0000
0010
0100
0010
0000
0100
0000
1000
0000
0001
0000
1001
0000
0000
0000
,
1020
0000
0000
0000
0130
0001
0100
0001
1000
0100
0001
0100
1000
0001
1000
0000
,
0010
1000
0010
1000
0001
0100
1000
0100
0001
1000
0001
1000
0100
0010
0001
0000
,
0010
0100
0010
0100
1000
0001
0100
0000
0010
0100
0010
0100
0001
1000
0100
0010
,
0001
0010
0100
1000
0001
0200
0010
0000
1000
0000
0010
0000
0310
0000
0000
0000
,
0102
0000
0000
0000
0013
0100
1000
0001
0100
0001
0100
0000
0010
0100
0001
1000
,
0100
1000
0100
0000
0010
0001
0010
0001
1000
0010
0001
0010
1000
0001
1000
0100
,
0020
0001
0001
0032
0100
0100
0203
1000
,
2300
0100
3100
0010
0110
0100
1001
0000
,
0201
0000
0000
0000
0310
1000
0010
1000
0001
0010
1000
0010
0001
1000
0001
0000
,
0100
0001
0100
0001
1000
0010
0001
0010
1000
0001
1000
0001
0010
0100
1000
0000
,
0100
0010
0100
0010
0001
1000
0010
0000
0100
0010
0100
0010
1000
0001
0010
0100
,
1000
0100
0010
0001
1000
0020
0100
0000
0001
0000
0100
0000
0130
0000
0000
0000
,
1010
0000
1000
0000
0100
0001
0100
0010
0011
0000
0001
0000
0100
1000
0100
0010
,
1010
0000
0000
1000
0000
0000
1001
0000
0000
0001
0000
0000
0011
0000
0000
0010
0100
0010
0100
0000
0000
1000
0001
1000
,
0002
0000
0000
0000
0103
0000
0010
0000
1000
0000
0100
0000
0010
0100
0010
0100
1000
0000
0001
0000
0100
1000
0100
1000
0100
0000
0010
0000
1000
0001
1000
0001
,
0020
0000
0000
0000
0130
0000
0010
0000
0001
0000
0100
0000
0010
1000
0010
1000
0001
0000
0010
0000
0100
0001
0100
0001
0100
0000
1000
0000
0001
0100
0001
0100
,
0002
0000
0000
0000
0013
0000
0100
0000
1000
0000
0010
0000
0100
0010
0100
0010
1000
0000
0001
0000
0010
1000
0010
1000
0010
0000
0100
0000
1000
0001
1000
0001
,
0200
0000
0000
0000
0000
0000
0000
0000
0000
0000
0000
0000
1300
0000
0000
0000
0000
0000
0100
0000
0000
0000
0000
0000
0010
0000
0000
0000
0000
0000
1000
0000
0000
0000
0000
0000
0001
0000
0000
0010
0000
0000
0001
0000
0000
0010
0000
0000
0100
0000
0000
0000
0000
0000
1000
0000
0001
0000
1000
0000
0001
0000
0000
0000
0000
0000
0100
0000
0000
0000
0000
0000
0010
0000
0000
0000
1000
0000
0000
0000
0100
0000
0000
0000
0001
0000
0000
0000
1000
0000
0000
0000
0010
0000
0000
0000
,
0004
0000
0000
0000
,
0000
0000
0000
0000
,
0200
0000
0300
0M00
2000
0000
3000
M000
,
0020
0000
0030
00M0
0200
0000
0300
0M00
,
0020
0000
0030
00M0
2000
0000
3000
M000
,
0200
0000
0300
0M00
0020
0000
0030
00M0
,
0200
0000
0300
0M00
2000
0000
3000
M000
,
0020
0000
0030
00M0
1003
0001
0000
0000
,
1001
0000
0000
0001
0000
0000
0100
0000
0000
0010
1000
0010
1000
0000
0000
0100
0000
0000
0010
0000
0000
0001
0010
0001
,
0010
0000
0000
0000
0000
0000
0100
0000
0000
0000
0000
0000
1000
0000
0000
0000
0000
0000
0001
0000
0100
0000
0001
0000
0100
0000
0000
0010
0000
0000
0000
0000
0000
1010
0000
0000
0000
0000
0000
1000
0000
0000
0100
0000
0000
0000
0000
0000
,
0110
0000
0000
0010
0000
0000
0001
0000
0000
0100
0001
0100
0001
0000
0000
0100
0000
0000
0010
0000
0000
1000
0100
1000
,
0100
0000
0000
0000
0000
0000
0010
0000
0000
0000
0000
0000
0100
0000
0000
0000
0000
0000
1000
0000
0001
0000
1000
0000
0001
0000
0000
0100
0000
0000
0000
0000
0000
0110
0000
0000
0000
0000
0000
0010
0000
0000
1000
0000
0001
0000
1000
0000
,
0001
0000
0000
0010
0000
0000
0100
0000
0000
0010
0000
0000
0100
0000
0000
1000
0000
0000
0001
0000
0000
0100
0000
0000
0010
0000
1000
0000
0010
0000
1000
0000
0000
0100
0000
0000
0010
0000
0000
0100
0000
0000
0010
0000
0000
0001
0000
0000
,
0100
0000
0010
0000
0100
0000
0010
0000
0000
1000
0000
0000
0100
0000
1000
0000
0100
0000
1000
0000
0000
0001
0000
0000
0100
0000
0001
0000
0100
0000
0001
0000
0000
1000
0000
0000
0100
0000
0010
0000
0100
0000
0010
0000
0000
0001
0000
0000
,
1000
0000
0010
0000
1000
0000
0010
0000
0000
0100
0000
0000
0001
0000
0000
1000
0000
0000
0100
0000
0000
0010
0000
0000
0001
0000
0000
1000
0000
0000
0010
0000
0000
0100
0000
0000
0001
0000
0000
1000
0000
0000
0100
0000
0000
0001
0000
0000
,
0100
0010
0100
0010
1000
0010
0001
1000
0010
0000
0000
0110
0000
0000
0101
0000
,
4004
0000
3000
0000
0013
0100
0010
0100
1000
0010
0100
0001
0010
0100
2000
0002
,
0000
0000
0000
3003
,
0100
0010
1000
0010
1000
0100
0001
0100
0010
0001
1000
0001
0100
0000
0010
0000
,
1000
0001
0010
1000
0010
0100
1000
0001
0100
0001
1000
0100
0010
0000
0100
0000
,
1000
0001
0100
0010
0100
0001
1000
0100
0010
0001
0100
0010
1000
0000
0100
0000
,
0010
0100
1000
0010
0001
0010
0100
0001
1000
0001
0010
0100
1000
0000
0010
0000
,
1000
0100
1000
0100
0010
0001
1000
0010
0100
0001
1000
0100
0001
0000
0100
0000
,
0010
0001
0010
0001
1000
0010
0100
0001
1000
0100
1000
0010
0001
0000
0010
0000
,
0100
0000
0000
0001
0000
0000
0100
0000
0000
0001
0000
0000
1000
0000
0000
0100
0000
0000
0010
0000
0000
0001
0000
0000
1000
0000
0010
0000
1000
0000
0010
0000
0000
0000
0000
0000
0100
0000
0000
0000
0000
0000
0001
0000
0000
0000
0000
0000
,
1001
0000
0000
0000
0000
0000
0001
0000
0010
0000
0001
0000
0010
0000
0000
0000
0000
0000
0100
0000
1000
0000
0100
0000
1000
0000
0000
0000
0000
0000
0010
0000
0000
0100
0000
0000
0001
0000
0000
0001
0000
0000
1000
0000
0000
1000
0000
0000
,
0100
0010
0100
0010
0001
0100
1000
0001
1000
0100
0010
1000
0010
0000
0100
0000
,
0010
0100
0010
0100
0001
0010
1000
0001
1000
0010
0100
1000
0100
0000
0010
0000
,
0001
0100
0001
0100
0010
1000
0100
0010
1000
0001
1000
0010
0001
0000
0100
0000
,
0010
1000
0010
1000
0001
0010
0100
1000
0001
0100
1000
0001
1000
0000
0100
0000
,
0110
0000
0000
0000
0000
0000
0110
0000
0000
0000
0000
0000
0010
0000
0000
2000
0000
0000
0000
0000
0000
3200
0000
0000
0000
0000
0000
0310
0000
0000
0001
0000
1000
0000
0001
0000
1000
0000
0000
0000
0000
0000
0000
0000
0000
0000
0000
0000
,
1001
0000
0000
0000
0000
0000
1001
0000
0000
0000
0000
0000
0001
0000
0000
0200
0000
0000
0000
0000
0000
0320
0000
0000
0000
0000
0000
1030
0000
0000
0100
0000
0000
0000
0000
0000
0010
0000
0001
0000
0010
0000
0004
0000
0000
0000
0000
0000
,
4000
0000
0000
0000
,
0000
0000
0000
3003
,
1010
0000
0010
0100
0010
0000
0100
0000
0001
0000
1000
0100
0010
1000
0001
0100
,
0010
0000
0001
1000
0001
0000
0100
0000
0010
0000
1010
0000
1001
0000
0001
0000
,
0011
0000
0010
0100
0010
0000
0100
0000
1000
0000
0001
0100
0010
0001
1000
0100
,
0010
0000
1000
0001
1000
0000
0100
0000
0010
0000
0011
0000
0101
0000
0100
0000
,
0110
0000
0010
1000
0100
0000
0010
0000
0001
0000
1000
0010
0001
0010
0100
1000
,
0100
0000
0010
1000
0010
0000
1000
0000
0100
0000
0110
0000
0011
0000
0001
0000
,
0040
0100
0430
1000
4300
0001
0004
3003
,
1000
0010
1000
0010
0001
1000
0100
0001
0100
0001
1000
0100
0010
0000
0000
0000
,
0021
0000
0000
0000
0130
1000
0001
1000
0010
0000
0001
0010
0100
0001
1000
0000
,
0100
0010
0001
1000
0010
0100
0001
1000
0100
0000
0010
1000
0010
0001
1000
0000
,
0010
0100
0001
1000
0100
0010
0001
1000
0010
0000
0100
1000
0100
0001
1000
0000
,
0100
0010
0001
0100
0010
1000
0100
0020
0001
0000
0100
0000
0130
0000
0000
0000
,
1200
1000
1300
1020
0001
0031
0021
1000
,
1030
0000
0000
1200
0000
0000
0001
0000
0000
0301
0000
0000
0100
0000
0000
0010
0001
0010
0001
0000
0000
1000
0010
1000
,
0020
0000
0000
0000
0130
0000
0001
0000
1000
0000
0100
0010
0001
0010
0100
1000
0001
0000
0100
1000
0100
0010
1000
0100
0010
0000
0001
0010
0100
1000
0001
0100
,
2000
0000
0000
0000
3100
0000
0010
0000
1000
0000
0001
0010
0100
1000
0010
0100
0010
0000
1000
0100
0010
1000
0010
0001
1000
0000
0010
0001
0010
1000
0001
0010
,
0200
0000
0000
0000
0310
0000
0001
0000
1000
0000
0010
0001
1000
0100
0010
1000
0010
0000
1000
0100
0010
0001
0100
0010
1000
0000
0100
0001
1000
0010
0100
1000
,
0200
0000
0000
0000
0310
0000
0001
0000
1000
0000
0010
0100
0001
0010
0100
1000
0010
0000
0001
0010
1000
0100
0001
0100
1000
0010
0100
0001
0010
0100
1000
0001
;
