#VERSION:0.83;
#TITLE:4 Walls;
#SUBTITLE:;
#ARTIST:f(x);
#TITLETRANSLIT:;
#SUBTITLETRANSLIT:;
#ARTISTTRANSLIT:;
#GENRE:K-POP;
#ORIGIN:;
#CREDIT:;
#BANNER:[VIP2 Full Flavor] - 4 Walls.png;
#BACKGROUND:[VIP2 Full Flavor] - 4 Walls-bg.png;
#PREVIEWVID:;
#JACKET:[VIP2 Full Flavor] - 4 Walls-jacket.png;
#CDIMAGE:;
#DISCIMAGE:;
#LYRICSPATH:;
#CDTITLE:CDTitle.png;
#MUSIC:[VIP2 Full Flavor] - 4 Walls.ogg;
#OFFSET:0.006839;
#SAMPLESTART:97.824944;
#SAMPLELENGTH:15.695286;
#SELECTABLE:YES;
#BPMS:0.000=125.992;
#STOPS:;
#DELAYS:;
#WARPS:;
#TIMESIGNATURES:0.000=4=4;
#TICKCOUNTS:0.000=4;
#COMBOS:0.000=1;
#SPEEDS:0.000=1.000=0.000=0;
#SCROLLS:0.000=1.000;
#FAKES:;
#LABELS:0.000=Song Start;
#BGCHANGES:11.500=[VIP2 Full Flavor] - 4 Walls.mp4=1.000=1=0=1===CrossFade==,
274.000=[VIP2 Full Flavor] - 4 Walls-bg.png=1.000=1=0=1===CrossFade==,
99999=-nosongbg-=1.000=0=0=0 // don't automatically add -songbackground-
;
#KEYSOUNDS:;
#ATTACKS:
;

//---------------dance-single - ----------------
#NOTEDATA:;
#CHARTNAME:;
#STEPSTYPE:dance-single;
#DESCRIPTION:;
#CHARTSTYLE:;
#DIFFICULTY:Challenge;
#METER:9;
#RADARVALUES:0.624883,0.668132,0.345133,0.360139,0.802809,583.000000,537.000000,46.000000,48.000000,4.000000,0.000000,0.000000,0.000000,0.000000,0.624883,0.668132,0.345133,0.360139,0.802809,583.000000,537.000000,46.000000,48.000000,4.000000,0.000000,0.000000,0.000000,0.000000;
#CREDIT:DDRDAIKENKAI;
#NOTES:
// measure 0
0000
0000
0000
0000
,  // measure 1
0000
0000
0000
0000
,  // measure 2
0000
0000
0000
0000
,  // measure 3
0000
0000
0000
0000
0000
0000
0000
0000
0000
0000
0000
0000
0000
0000
0000
0000
0000
0000
1000
0000
0010
0000
0000
0100
,  // measure 4
0000
0000
0001
0000
0000
1000
0000
0000
0010
0000
0000
0100
0000
0000
0001
0000
0000
1000
0000
0000
0100
0000
0000
0010
,  // measure 5
0000
0000
0001
0000
0000
0010
0000
0000
0100
0000
0000
2000
0000
0000
0000
0000
3000
0000
0001
0000
0010
0000
0000
0100
,  // measure 6
0000
0000
1000
0000
0000
0001
0000
0000
0100
0000
0000
0010
0000
0000
1000
0000
0000
0001
0000
0000
0010
0000
0000
0100
,  // measure 7
0000
0000
1000
0000
0000
0100
0000
0000
0010
0000
0000
0002
0000
0000
0000
0000
0003
0000
1000
0000
0001
0000
0000
0100
,  // measure 8
0000
0000
0010
0000
0000
0100
0000
0000
0010
0000
0000
1000
0000
0000
0001
0000
0000
1000
0000
0000
0010
0000
0000
0100
,  // measure 9
0000
0000
0001
0000
0000
0100
0000
0000
0010
0000
0000
0200
0000
0000
0000
0000
0000
0000
0310
0000
0000
0000
0000
0020
,  // measure 10
0000
0000
0000
1030
0000
0000
0001
0000
0000
0000
0000
0002
0000
0000
0000
1003
0000
0000
0100
0000
0000
0000
0000
0000
,  // measure 11
1000
0001
0100
0000
0202
0000
0303
0000
,  // measure 12
1001
0000
0000
0001
1000
0000
0100
0000
1000
0001
0000
0000
1001
0000
0000
1000
,  // measure 13
0001
0000
0100
0000
0001
0000
0000
0000
1000
0010
0100
0001
1000
0000
0001
0000
,  // measure 14
1001
0000
0000
0001
1000
0000
0010
0000
1000
0001
0000
0000
1001
0000
0000
1000
,  // measure 15
0001
0000
0000
0010
0000
0000
0011
0000
0000
0000
0000
0010
0000
0000
0010
0000
0000
0100
1000
0000
0000
0010
0000
0000
,  // measure 16
0120
0000
0000
0130
0010
0000
0100
0000
1000
0100
0000
0000
0110
0000
0000
0010
,  // measure 17
0001
0020
0100
0000
0130
0001
1000
0100
,  // measure 18
0010
1000
0010
0001
0100
0010
0001
0010
,  // measure 19
0220
0000
0030
0001
0301
0000
1000
0000
,  // measure 20
1100
0000
0000
0000
0000
0000
0000
0000
1000
0000
0000
0000
0000
0000
0000
0000
0001
0000
0000
0000
0000
0100
0000
0000
0001
0000
0000
0000
0000
1000
0000
0000
0010
0000
0000
0000
0000
0000
0000
0000
0100
0000
0000
0000
0000
0000
0000
0000
0001
0000
0000
0000
0000
0010
0000
0000
0001
0000
0000
0000
0000
2000
0000
0000
,  // measure 21
0000
0000
0000
0000
0000
0000
0000
0000
0000
0000
0000
0000
0000
0000
0000
0000
0000
0000
0000
0000
0000
0000
0000
0000
0100
0000
0000
0000
0000
0000
0000
0000
0000
0000
0000
0000
0000
0000
0000
0000
0000
0000
0000
0000
0000
0000
0000
0000
0000
0000
0000
0000
0000
0000
0000
0000
0000
0000
0000
0000
0000
0000
0000
0100
3000
0000
0000
0000
0000
0000
0000
0000
0000
0000
0000
0000
0000
0000
0000
0000
0000
0000
0000
0000
0000
0000
0000
0000
0000
0000
0000
0000
0000
0000
0000
0000
1100
0000
0000
0000
0000
0000
0000
0000
0000
0000
0000
0000
0000
0000
0000
0000
0000
0000
0000
0000
0000
0000
0000
0000
0000
0000
0000
0000
0000
0000
0000
0000
0000
0000
0000
0000
0000
0000
0000
0000
0000
0000
0000
0000
0000
0000
0000
0000
1000
0000
0000
0000
0000
0000
0000
0000
0000
0000
0000
0000
0000
0000
0000
0000
0000
0000
0000
0000
0000
0000
0000
0000
0010
0000
0000
0000
0000
0000
0000
0000
0000
0000
0000
0000
0000
0000
0000
0100
0000
0000
0000
0000
0000
0000
0000
0000
,  // measure 22
0002
0000
0000
0000
0000
0000
0000
0000
0000
0000
0000
0000
0000
0000
0000
0000
1003
0000
0000
0000
0000
0001
0000
0000
0100
0000
0000
0000
0000
0010
0000
0000
1000
0000
0000
0000
0000
0000
0000
0000
0000
0000
0000
0000
0000
0000
0000
0000
0001
0000
0000
0000
0000
1000
0000
0000
0010
0000
0000
0000
0000
0100
0000
0000
,  // measure 23
0000
0000
0000
0010
0000
0000
0110
0000
0000
0000
0000
0001
0000
0000
0001
0000
0000
1000
0100
0000
0000
0010
0000
0000
,  // measure 24
0011
0000
0000
0000
0000
0000
0000
0000
0000
0000
0000
0000
0000
0000
0000
0000
0010
0000
0000
0000
0000
0100
0000
0000
1000
0000
0000
0000
0000
0100
0000
0000
0010
0000
0000
0000
0000
0000
0000
0000
0000
0000
0000
0000
0000
0000
0000
0000
0001
0000
0000
0000
0000
0100
0000
0000
0010
0000
0000
0000
0000
0100
0000
0000
,  // measure 25
0000
0000
0000
0000
0000
0000
0000
0000
0000
0000
0000
0000
0000
0000
0000
0000
0000
0000
0000
0000
0000
0000
0000
0000
0010
0000
0000
0000
0000
0000
0000
0000
0000
0000
0000
0000
0000
0000
0000
0000
0000
0000
0000
0000
0000
0000
0000
0000
0000
0000
0000
0000
0000
0000
0000
0000
0000
0000
0000
0000
0000
0000
0000
0000
0000
0010
0000
0000
0000
0000
0000
0000
0000
0000
0000
0000
0000
0000
0000
0000
0000
0000
0000
0000
0000
0000
0000
0000
0000
0000
0000
0000
0000
0000
0000
0000
1002
0000
0000
0000
0000
0000
0000
0000
0000
0000
0000
0000
0000
0000
0000
0000
0000
0000
0000
0000
0000
0000
0000
0000
0000
0000
0000
0000
0000
0000
0000
0000
0000
0000
0000
0000
0000
0000
0000
0000
0000
0000
0000
0000
0000
0000
0000
0000
1003
0000
0000
0000
0000
0000
0000
0000
0000
0000
0000
0000
0000
0000
0000
0000
0000
0000
0000
0000
0000
0000
0000
0000
0001
0000
0000
0000
0000
0000
0000
0000
0000
0000
0000
0000
0000
0000
0000
1000
0000
0000
0000
0000
0000
0000
0000
0000
,  // measure 26
0100
0000
0000
0000
0000
0000
0000
0000
0000
0000
0000
0000
0000
0000
0000
0000
1000
0000
0000
0000
0000
0001
0000
0000
0100
0000
0000
0000
0000
0010
0000
0000
1000
0000
0000
0000
0000
0000
0000
0000
0000
0000
0000
0000
0000
0000
0000
0000
0001
0000
0000
0000
0000
1000
0000
0000
0010
0000
0000
0000
0000
0100
0000
0000
,  // measure 27
0001
0000
0000
1000
0000
0000
1001
0000
0000
0000
0000
1000
0000
0000
1000
0000
0000
0001
1000
0000
0100
1000
0000
0100
,  // measure 28
0000
0000
0000
0000
0010
0000
0000
0000
0000
0010
0000
0000
0001
0000
0000
0000
0000
0000
0100
0000
0000
0000
0000
0000
0202
0000
0000
0303
0000
0000
0000
0000
0000
0000
0000
0000
0001
0000
0000
0010
0000
0000
0001
0000
0000
0100
0000
0000
,  // measure 29
0000
0000
0000
0010
0000
0000
0000
0000
0000
1000
0000
0000
0100
0000
0000
1000
0000
0000
0100
0000
0000
1000
0000
0000
0020
0000
0000
0000
0030
0000
0000
0000
0000
0000
0000
0000
1000
0000
0000
0000
0000
0000
1000
0000
0000
0001
0000
0000
,  // measure 30
0000
0000
0000
1000
0000
0000
0000
0000
0000
0000
0000
0000
1001
0000
0000
0000
0000
0000
0000
0000
0000
0001
0000
0000
1000
0000
0000
0000
1000
0000
0000
0000
0100
0000
0000
0000
0001
0000
0000
0000
0001
0000
0000
0000
0100
0000
0000
0000
,  // measure 31
1000
0010
0100
0001
0010
0100
1000
0010
1000
0001
0001
1000
,  // measure 32
0010
0001
0010
1000
0100
1000
0001
0001
0100
0010
0010
1000
,  // measure 33
0001
0010
0100
1000
0100
0010
0011
0000
0000
1100
0000
0000
,  // measure 34
0001
0010
1000
0001
0100
1000
1010
0000
0000
0101
0000
0000
,  // measure 35
1000
0000
0000
0000
0100
0000
0000
0000
0001
0000
0000
0000
1000
0000
0000
0000
0010
0000
0000
0000
0001
0000
0000
0000
0101
0000
0000
0000
0000
0000
0000
0000
0000
0000
0000
0000
1000
0000
0000
0100
0000
0000
0000
0000
0000
1000
0000
0000
,  // measure 36
0020
0100
0130
0000
0102
0000
1000
1003
,  // measure 37
0001
0000
0010
0000
0100
0000
0010
0000
0001
0100
0000
0010
0000
1000
0000
0002
,  // measure 38
0000
0000
1000
0003
2000
0000
0000
3200
0000
0000
0310
0000
0001
1000
0000
0200
,  // measure 39
0000
0000
1000
0000
1300
0000
0000
0000
0012
0000
0000
0000
1003
0100
0000
1000
,  // measure 40
0001
0000
1000
0000
1001
0000
1000
0000
0001
0000
0100
0000
0101
0000
0100
0010
,  // measure 41
1000
0000
0100
0000
1100
0000
1000
0000
0001
0000
0100
0010
0000
1000
0000
0002
,  // measure 42
0000
0000
0013
0000
0110
0000
0100
0000
2000
0000
0000
3001
0000
0100
0000
0020
,  // measure 43
0000
0000
0000
1000
0000
0000
1000
0000
0000
0000
0000
0100
0000
0000
0130
0000
0000
0000
0001
0000
0000
0001
0000
0000
,  // measure 44
1002
0000
0000
0103
0010
0000
1000
0000
0001
0100
0000
0000
0120
0000
0000
1030
,  // measure 45
0001
0000
2000
0000
3100
0000
0000
0000
0010
0001
0010
0100
1000
0000
0001
0000
,  // measure 46
1002
0000
0000
0013
0100
0000
1000
0000
0001
0010
0000
0000
0012
0000
0000
1003
,  // measure 47
0100
0000
1000
0000
1002
0000
0000
0000
1003
0010
0000
0000
0100
0000
0001
0000
,  // measure 48
0102
0000
0000
0103
0010
0000
0100
0000
0010
1000
0000
0000
1020
0000
0000
1030
,  // measure 49
0100
2000
0001
0000
3001
0010
0100
1000
,  // measure 50
0010
0100
1000
0100
0001
0010
0100
1000
,  // measure 51
2200
0000
3000
0010
0310
0000
1001
0000
,  // measure 52
0110
0000
0000
0000
0000
0000
0000
0000
0001
0000
0000
0000
0000
0000
0000
0000
1000
0000
0000
0000
0000
0100
0000
0000
1000
0000
0000
0000
0000
0001
0000
0000
0010
0000
0000
0000
0000
0000
0000
0000
0100
0000
0000
0000
0000
0000
0000
0000
1000
0000
0000
0000
0000
0010
0000
0000
1000
0000
0000
0000
0000
0001
0000
0000
,  // measure 53
0000
0000
0000
0000
0000
0000
0000
0000
0000
0000
0000
0000
0000
0000
0000
0000
0000
0000
0000
0000
0000
0000
0000
0000
0101
0000
0000
0000
0000
0000
0000
0000
0000
0000
0000
0000
0000
0000
0000
0000
0000
0000
0000
0000
0000
0000
0000
0000
0000
0000
0000
0000
0000
0000
0000
0000
0000
0000
0000
0000
0000
0000
0000
0000
0000
1100
0000
0000
0000
0000
0000
0000
0000
0000
0000
0000
0000
0000
0000
0000
0000
0000
0000
0000
0000
0000
0000
0000
0000
0000
0000
0000
0000
0000
0000
0000
1002
0000
0000
0000
0000
0000
0000
0000
0000
0000
0000
0000
0000
0000
0000
0000
0000
0000
0000
0000
0000
0000
0000
0000
0000
0000
0000
0000
0000
0000
0000
0000
0000
0000
0000
0000
0000
0000
0000
0000
0003
0000
0000
0000
0000
0000
0000
0000
1000
0000
0000
0000
0000
0000
0000
0000
0000
0000
0000
0000
0000
0000
0000
0000
0000
0000
0000
0000
0000
0000
0000
0000
0001
0000
0000
0000
0000
0000
0000
0000
0000
0000
0000
0000
0000
0000
0000
1000
0000
0000
0000
0000
0000
0000
0000
0000
,  // measure 54
0100
0000
0000
0000
0000
0000
0000
0000
0000
0000
0000
0000
0000
0000
0000
0000
1000
0000
0000
0000
0000
0001
0000
0000
0100
0000
0000
0000
0000
0010
0000
0000
1000
0000
0000
0000
0000
0000
0000
0000
0000
0000
0000
0000
0000
0000
0000
0000
0010
0000
0000
0000
0000
0100
0000
0000
0001
0000
0000
0000
0000
2000
0000
0000
,  // measure 55
0000
0000
0000
0100
0000
0000
3100
0000
0000
0000
0000
0010
0000
0000
0010
0000
0000
0001
1000
0000
0000
0100
0000
0000
,  // measure 56
1100
0000
0000
0000
0000
0000
0000
0000
1000
0000
0000
0000
0000
0000
0000
0000
0001
0000
0000
0000
0000
0010
0000
0000
0100
0000
0000
0000
0000
1000
0000
0000
0010
0000
0000
0000
0000
0000
0000
0000
1000
0000
0000
0000
0000
0000
0000
0000
0100
0000
0000
0000
0000
0010
0000
0000
0001
0000
0000
0000
0000
0100
0000
0000
,  // measure 57
0010
0000
0000
0000
0000
0000
0000
0000
0000
0000
0000
0000
0000
0000
0000
0000
0000
0000
0000
0000
0000
0000
0000
0000
1000
0000
0000
0000
0000
0000
0000
0000
0000
0000
0000
0000
0000
0000
0000
0000
0000
0000
0000
0000
0000
0000
0000
0000
0000
0000
0000
0000
0000
0000
0000
0000
0000
0000
0000
0000
0000
0000
0000
0000
0000
1001
0000
0000
0000
0000
0000
0000
0000
0000
0000
0000
0000
0000
0000
0000
0000
0000
0000
0000
0000
0000
0000
0000
0000
0000
0000
0000
0000
0000
0000
0000
0110
0000
0000
0000
0000
0000
0000
0000
0000
0000
0000
0000
0000
0000
0000
0000
0000
0000
0000
0000
0000
0000
0000
0000
0000
0000
0000
0000
0000
0000
0000
0000
0000
0000
0000
0000
0000
0000
0000
0000
0000
0000
0000
0000
0000
0000
0000
0000
0010
0000
0000
0000
0000
0000
0000
0000
0000
0000
0000
0000
0000
0000
0000
0100
0000
0000
0000
0000
0000
0000
0000
0000
0001
0000
0000
0000
0000
0000
0000
0000
0000
0000
0000
0000
0000
0000
0000
1000
0000
0000
0000
0000
0000
0000
0000
0000
,  // measure 58
0100
0000
0000
0000
0000
0000
0000
0000
0010
0000
0000
0000
0000
0000
0000
0000
0100
0000
0000
0000
0000
1000
0000
0000
0001
0000
0000
0000
0000
0010
0000
0000
0001
0000
0000
0000
0000
0000
0000
0000
1000
0000
0000
0000
0000
0000
0000
0000
0001
0000
0000
0000
0000
0100
0000
0000
0010
0000
0000
0000
0000
1000
0000
0000
,  // measure 59
0010
0001
0100
1000
0010
0001
0200
0000
,  // measure 60
0310
0000
0000
0000
0000
0000
0000
0000
0000
0000
0000
0000
0000
0000
0000
0000
1001
0000
0000
0000
0000
0001
0000
0000
1000
0000
0000
0000
0000
0100
0000
0000
1000
0000
0000
0000
0000
0000
0000
0000
0010
0000
0000
0000
0000
0000
0000
0000
1000
0000
0000
0000
0000
0100
0000
0000
1000
0000
0000
0000
0000
0020
0000
0000
,  // measure 61
0000
0000
0000
0000
0000
0000
0000
0000
0000
0000
0000
0000
0000
0000
0000
0000
0000
0000
0000
0000
0000
0000
0000
0000
0001
0000
0000
0000
0000
0000
0000
0000
0000
0000
0000
0000
0000
0000
0000
0000
0000
0000
0000
0000
0000
0000
0000
0000
0000
0000
0000
0000
0000
0000
0000
0000
0000
0000
0000
0000
0000
0000
0000
0000
0000
0130
0000
0000
0000
0000
0000
0000
0000
0000
0000
0000
0000
0000
0000
0000
0000
0000
0000
0000
0000
0000
0000
0000
0000
01MM
0000
0000
0000
0000
0000
0000
2000
0000
0000
0000
0000
0000
0000
0000
0000
0000
0000
0000
0000
0000
0000
0000
0000
0000
0000
0000
0000
0000
0000
0000
0100
0000
0000
0000
0000
0000
0000
0000
0000
0000
0000
0000
0000
0000
0000
0000
0000
0000
0000
0000
0000
0000
0000
0000
3200
0000
0000
0000
0000
0000
0000
0000
0000
0000
0000
0000
0000
0000
0000
0000
0000
0000
0000
0000
0000
0000
0000
0000
0310
0000
0000
0000
0000
0000
0000
0000
0000
0000
0000
0000
0000
0000
0000
0000
0000
0001
0000
0000
0000
0000
0000
0000
,  // measure 62
0100
0000
0000
0000
0000
0000
0000
0000
0001
0000
0000
0000
0000
0000
0000
0000
0010
0000
0000
0000
0000
0100
0000
0000
0010
0000
0000
0000
0000
0001
0000
0000
0100
0000
0000
0000
0000
0000
0000
0000
0010
0000
0000
0000
0000
0000
0000
0000
1000
0000
0000
0000
0000
0001
0000
0000
1000
0000
0000
0000
0000
0100
0000
0000
,  // measure 63
1000
0000
0000
0010
0000
0000
1010
0000
0000
0000
0000
0100
0000
0000
0001
0000
0000
0001
1000
0000
0000
0100
0000
0000
,  // measure 64
0010
0000
0000
0000
0000
0000
0000
0000
0001
0000
0000
0000
0000
0000
0000
0000
1000
0000
0000
0000
0000
0010
0000
0000
0100
0000
0000
0000
0000
0001
0000
0000
0010
0000
0000
0000
0000
0000
0000
0000
0100
0000
0000
0000
0000
0000
0000
0000
1000
0000
0000
0000
0000
0010
0000
0000
0100
0000
0000
0000
0000
0002
0000
0000
,  // measure 65
0000
0000
0000
0000
0000
0000
0000
0000
0000
0000
0000
0000
0000
0000
0000
0000
0000
0000
0000
0000
0000
0000
0000
0000
1000
0000
0000
0000
0000
0000
0000
0000
0000
0000
0000
0000
0000
0000
0000
0000
0000
0000
0000
0000
0000
0000
0000
0000
0000
0000
0000
0000
0000
0000
0000
0000
0000
0000
0000
0000
0000
0000
0000
0000
0000
0013
0000
0000
0000
0000
0000
0000
0000
0000
0000
0000
0000
0000
0000
0000
0000
0000
0000
0000
0000
0000
0000
0000
0000
M01M
0000
0000
0000
0000
0000
0000
0200
0000
0000
0000
0000
0000
0000
0000
0000
0000
0000
0000
0000
0000
0000
0000
0000
0000
0000
0000
0000
0000
0000
0000
0010
0000
0000
0000
0000
0000
0000
0000
0000
0000
0000
0000
0000
0000
0000
0000
0000
0000
0000
0000
0000
0000
0000
0000
0320
0000
0000
0000
0000
0000
0000
0000
0000
0000
0000
0000
0000
0000
0000
0000
0000
0000
0000
0000
0000
0000
0000
0000
1030
0000
0000
0000
0000
0000
0000
0000
0000
0000
0000
0000
0000
0000
0000
0001
0000
0000
0000
0000
0000
0000
0000
0000
,  // measure 66
0010
0000
0000
0000
0000
0000
0000
0000
0100
0000
0000
0000
0000
0000
0000
0000
0010
0000
0000
0000
0000
0001
0000
0000
1000
0000
0000
0000
0000
0010
0000
0000
1000
0000
0000
0000
0000
0000
0000
0000
0001
0000
0000
0000
0000
0000
0000
0000
0100
0000
0000
0000
0000
0001
0000
0000
1000
0000
0000
0000
0000
0100
0000
0000
,  // measure 67
1000
0000
0000
0001
0000
0000
1000
0000
0001
0000
0000
1000
0000
0000
0010
0000
0000
1000
0001
0000
0000
0200
0000
0000
,  // measure 68
0000
0000
0300
0000
;

//---------------dance-single - ----------------
#NOTEDATA:;
#CHARTNAME:;
#STEPSTYPE:dance-single;
#DESCRIPTION:;
#CHARTSTYLE:;
#DIFFICULTY:Hard;
#METER:7;
#RADARVALUES:0.440527,0.433667,0.187572,0.652751,0.116295,411.000000,386.000000,25.000000,87.000000,0.000000,0.000000,0.000000,0.000000,0.000000,0.440527,0.433667,0.187572,0.652751,0.116295,411.000000,386.000000,25.000000,87.000000,0.000000,0.000000,0.000000,0.000000,0.000000;
#CREDIT:DDRDAIKENKAI;
#NOTES:
// measure 0
0000
0000
0000
0000
,  // measure 1
0000
0000
0000
0000
,  // measure 2
0000
0000
0000
0000
,  // measure 3
0000
0000
0000
0000
,  // measure 4
0001
0010
0001
0100
0001
0010
0001
0100
,  // measure 5
0001
0010
0100
1000
0001
0000
1001
0000
,  // measure 6
0010
0100
0010
1000
0010
0100
0010
1000
,  // measure 7
0010
0100
0001
0010
0100
0000
1100
0000
,  // measure 8
0001
0100
1000
0100
0001
0100
1000
0100
,  // measure 9
0001
0010
0100
1000
0010
0000
1000
0000
,  // measure 10
0200
0310
0020
0130
,  // measure 11
1000
0001
0100
0000
0202
0000
0303
0000
,  // measure 12
1002
0000
0000
2003
0000
0000
3200
0000
0000
0320
0000
0000
0230
0000
0000
2300
,  // measure 13
0000
3002
1000
0000
0100
0100
0103
0000
,  // measure 14
0200
0000
0000
0302
0000
0000
0023
0000
0000
0230
0000
0000
0320
0000
0000
0032
,  // measure 15
0000
2003
0100
0000
0001
0001
3001
0000
,  // measure 16
0002
0000
0000
0203
0000
0000
2300
0000
0000
3200
0000
0000
0320
0000
0000
2030
,  // measure 17
0000
3002
0000
0003
0000
0010
0100
0020
,  // measure 18
0000
0130
1000
0002
0000
1003
0001
0200
,  // measure 19
0020
0000
0300
0100
0130
0000
2001
0000
,  // measure 20
3001
0010
1000
0010
0001
0010
1000
0010
,  // measure 21
0001
0000
0101
0000
0010
1000
0200
0000
,  // measure 22
2300
3010
2000
3010
,  // measure 23
0100
0000
0001
0010
0100
0000
0210
0000
,  // measure 24
1300
0010
0001
0010
1000
0010
0001
0010
,  // measure 25
1000
0000
1100
0000
0010
0001
0200
0000
,  // measure 26
0302
0013
0002
0013
,  // measure 27
0001
1000
0010
0000
0220
0000
0330
0000
,  // measure 28
1000
0000
0001
0000
0100
0000
0010
0000
0100
0010
0000
0000
1000
0000
0000
0000
,  // measure 29
0001
0000
0100
0000
0010
0000
1000
0000
0010
1000
0000
0000
0001
0000
0000
0000
,  // measure 30
1000
0100
0001
0000
1000
0100
0001
0000
,  // measure 31
1000
0100
0001
0100
1000
0100
0001
0000
,  // measure 32
0100
0000
0100
0010
0000
0010
0001
0000
0001
1000
0000
1000
,  // measure 33
0010
0000
0010
0100
0000
0100
0001
0000
0000
0011
0000
0000
,  // measure 34
0010
0000
0001
1000
0000
0001
0100
0000
0000
0101
0000
0000
,  // measure 35
0010
0000
1000
0001
0000
1000
0100
0000
0000
0110
0000
0000
,  // measure 36
0012
1003
0012
1003
,  // measure 37
0201
0000
0310
0100
0000
0100
0010
0100
,  // measure 38
1000
0100
0001
0000
1000
0010
0001
0000
,  // measure 39
1000
0000
0100
0000
0001
0000
0010
0000
0100
0000
0000
1000
0001
0000
0000
0000
,  // measure 40
0001
0100
0010
0100
0001
0100
0010
0100
,  // measure 41
0001
1000
0100
1000
0000
1000
0100
1000
,  // measure 42
0010
0000
0010
1000
0010
0000
0010
0100
,  // measure 43
0002
0000
0023
0000
0130
1000
1001
0000
,  // measure 44
2100
0000
0000
3002
0000
0000
2003
0000
0000
3200
0000
0000
0320
0000
0000
0230
,  // measure 45
0000
2300
0001
3000
0001
0100
1000
0100
,  // measure 46
0020
0000
0000
0032
0000
0000
0023
0000
0000
2030
0000
0000
3200
0000
0000
0320
,  // measure 47
0000
0032
0100
0003
0101
0000
1000
1000
,  // measure 48
0002
0000
0000
0023
0000
0000
0230
0000
0000
2300
0000
0000
3020
0000
0000
0230
,  // measure 49
0000
0302
1000
0003
1000
0010
0001
0020
,  // measure 50
0000
1030
0100
0020
0000
0031
0001
0200
,  // measure 51
0020
0000
0300
1000
1030
0000
1002
0000
,  // measure 52
0103
1000
0100
0001
0100
1000
0100
0001
,  // measure 53
1000
0000
1100
0000
0010
0001
0200
0000
,  // measure 54
0302
0013
0002
0013
,  // measure 55
0100
1000
0001
0100
0010
0000
0120
0000
,  // measure 56
0031
0010
1000
0010
0001
0010
1000
0010
,  // measure 57
0100
0000
0101
0000
0001
0010
0200
0000
,  // measure 58
2300
3010
2000
3010
,  // measure 59
0100
0001
1000
0100
0010
0001
0200
0000
,  // measure 60
0310
0000
1001
0001
0100
0010
1000
0001
,  // measure 61
0100
0010
1000
0001
0020
0230
0320
0000
,  // measure 62
0031
1000
0100
0010
0001
1000
0100
0010
,  // measure 63
0001
0010
0100
0010
0001
1000
0200
0000
,  // measure 64
1300
0010
0100
0001
1000
0010
0100
0001
,  // measure 65
1000
0100
0010
0100
0020
0032
0023
0000
,  // measure 66
0031
0010
0100
1000
0001
0010
0100
1000
,  // measure 67
0001
0100
0010
0000
0110
0000
2002
0000
,  // measure 68
3003
0000
0000
0000
;

//---------------dance-single - ----------------
#NOTEDATA:;
#CHARTNAME:;
#STEPSTYPE:dance-single;
#DESCRIPTION:;
#CHARTSTYLE:;
#DIFFICULTY:Medium;
#METER:5;
#RADARVALUES:0.364426,0.408157,0.112543,0.442670,0.000000,340.000000,325.000000,15.000000,59.000000,0.000000,0.000000,0.000000,0.000000,0.000000,0.364426,0.408157,0.112543,0.442670,0.000000,340.000000,325.000000,15.000000,59.000000,0.000000,0.000000,0.000000,0.000000,0.000000;
#CREDIT:DDRDAIKENKAI;
#NOTES:
// measure 0
0000
0000
0000
0000
,  // measure 1
0000
0000
0000
0000
,  // measure 2
0000
0000
0000
0000
,  // measure 3
0000
0000
0000
0000
,  // measure 4
2000
0010
3002
0010
,  // measure 5
1003
0100
0010
0001
1000
0000
0000
0000
,  // measure 6
0002
0103
2000
3100
,  // measure 7
0001
0010
0100
1000
0001
0000
0000
0000
,  // measure 8
2000
3010
0200
0301
,  // measure 9
1000
0100
0010
0001
0100
0000
0001
0000
,  // measure 10
0020
0130
0200
0310
,  // measure 11
0010
0001
0100
0000
0220
0000
0330
0000
,  // measure 12
1002
1000
0010
0100
,  // measure 13
0010
0000
0010
0000
0013
0001
0010
0000
,  // measure 14
0210
0010
1000
0010
,  // measure 15
1000
0000
1000
0000
1300
0001
1000
0000
,  // measure 16
0002
1000
0100
1000
,  // measure 17
2003
0010
0001
0100
,  // measure 18
3020
0001
0230
0310
,  // measure 19
0120
0000
0000
1000
2030
0000
3002
0000
,  // measure 20
1003
0100
1000
0100
1000
0100
1000
0100
,  // measure 21
0010
0000
0001
0000
1000
0001
0100
0000
,  // measure 22
0020
1030
0020
1030
,  // measure 23
0001
0000
0010
0100
1000
0000
0001
0000
,  // measure 24
0010
0001
0010
0001
0010
0001
0010
0001
,  // measure 25
0100
0000
0010
0000
1000
0100
0010
0000
,  // measure 26
0002
0103
0002
0103
,  // measure 27
0010
1000
0100
0000
2200
0000
3300
0000
,  // measure 28
1000
0000
1000
0000
0001
0010
0001
0000
,  // measure 29
1000
0000
1000
0000
0001
0100
0001
0000
,  // measure 30
1000
0001
0100
0000
0001
1000
0100
0000
,  // measure 31
0020
0032
0203
0320
,  // measure 32
1030
0100
0010
0000
0001
0100
0010
0000
,  // measure 33
1000
0100
0010
0001
0100
0000
0110
0000
,  // measure 34
0100
0001
0010
0100
1000
0000
1001
0000
,  // measure 35
1000
0010
0100
0001
0100
0000
0110
0000
,  // measure 36
1020
0130
1020
0130
,  // measure 37
0002
0000
0013
0100
0000
0100
0010
0001
,  // measure 38
0200
0310
0200
0310
,  // measure 39
2000
0000
3001
0000
1000
1000
0001
0000
,  // measure 40
0010
0100
1000
0000
0001
0100
0010
0000
,  // measure 41
1000
0100
0010
0000
0001
1000
0010
0000
,  // measure 42
0100
0001
0010
0000
0100
1000
0001
0000
,  // measure 43
0200
0000
0010
0000
0010
0000
0310
0010
,  // measure 44
2000
3002
0023
0230
,  // measure 45
1000
0000
1000
0000
1300
0001
1000
0000
,  // measure 46
0020
0230
0302
2003
,  // measure 47
0100
0000
0100
0000
3100
0000
0010
0001
,  // measure 48
2000
0001
0010
3001
,  // measure 49
0002
0100
1000
0103
,  // measure 50
0200
0310
0020
0130
,  // measure 51
0120
0000
0000
1000
1030
0000
0002
0000
,  // measure 52
0013
0100
0010
0100
0010
0100
0010
0100
,  // measure 53
1000
0000
1100
0000
1000
0001
0100
0000
,  // measure 54
0002
0013
0002
0013
,  // measure 55
0001
0100
0000
0100
0010
0000
0120
0000
,  // measure 56
1030
0001
1000
0001
1000
0001
1000
0001
,  // measure 57
0100
0000
0110
0000
0100
0001
0010
0000
,  // measure 58
2000
3010
0002
0103
,  // measure 59
0010
1000
0100
0000
0010
0001
0100
0000
,  // measure 60
0010
0000
1001
0001
0100
0000
0001
1000
,  // measure 61
0100
0000
0010
0000
0001
1000
0200
0000
,  // measure 62
1300
0001
0100
0000
0010
0100
0001
0000
,  // measure 63
0010
0100
1000
0010
1000
0100
0010
0000
,  // measure 64
0001
0100
0001
0000
1000
0010
1000
0000
,  // measure 65
0001
0010
0001
0000
1000
0100
2000
0000
,  // measure 66
3010
0100
0010
0000
1000
0001
1000
0000
,  // measure 67
0010
0100
0001
0000
0200
0000
0020
0000
,  // measure 68
0330
0000
0000
0000
;

//---------------dance-single - ----------------
#NOTEDATA:;
#CHARTNAME:;
#STEPSTYPE:dance-single;
#DESCRIPTION:;
#CHARTSTYLE:;
#DIFFICULTY:Easy;
#METER:3;
#RADARVALUES:0.281894,0.382647,0.157561,0.367642,0.000000,263.000000,242.000000,21.000000,49.000000,0.000000,0.000000,0.000000,0.000000,0.000000,0.281894,0.382647,0.157561,0.367642,0.000000,263.000000,242.000000,21.000000,49.000000,0.000000,0.000000,0.000000,0.000000,0.000000;
#CREDIT:DDRDAIKENKAI;
#NOTES:
0000
0000
0000
0000
,
0000
0000
0000
0000
,
0000
0000
0000
0000
,
0000
0000
0000
0000
,
2000
3000
0002
0003
,
0100
0010
1000
0000
,
0002
0003
2000
3000
,
0010
0100
0001
0000
,
0200
0300
0020
0030
,
1000
0100
0010
0000
,
0200
0300
0020
0030
,
0001
0100
0020
0030
,
1000
1000
0001
0001
,
0100
0000
0100
0000
0100
0100
0100
0000
,
0001
0001
1000
1000
,
0100
0100
0010
0001
,
0010
0010
0001
0001
,
1000
0000
1000
0000
1000
1000
1000
0000
,
0010
0010
0100
0100
,
0120
0000
0000
0100
0130
0000
0010
0000
,
2000
3002
2003
3002
,
1003
1100
0010
0001
,
0200
0301
0200
0301
,
0010
0100
1000
1000
,
0002
0023
0032
0023
,
0031
0011
0001
0100
,
0020
1030
0020
2030
,
3001
0100
0220
0330
,
1000
1000
1000
0100
,
0010
0010
0010
0001
,
0100
0100
0010
0010
,
1000
1000
1000
1001
,
0001
0101
1000
1100
,
1000
0001
0101
1100
,
0001
1000
1100
0101
,
1000
0010
0110
1001
,
1001
0100
1001
0100
,
1000
0100
0010
0001
,
2000
3000
0002
0003
,
0100
0000
0100
0000
0010
0010
0020
0000
,
1030
1000
0001
0001
,
0100
0100
0001
0001
,
0010
0010
0100
0100
,
2000
0000
0000
3000
,
0001
0001
1000
1000
,
0100
0000
0100
0000
0100
0100
0100
0000
,
0010
0010
0001
0001
,
1000
1000
0001
0001
,
0100
0100
0010
0010
,
1000
1000
0001
0001
,
0010
0010
0100
0100
,
0210
0000
0000
0010
0310
0000
0010
0000
,
0002
2003
3002
2003
,
3001
0011
0001
1000
,
0020
1030
0020
1030
,
0100
0010
0001
0001
,
2000
3200
2300
3200
,
1300
1100
1000
0010
,
0200
0301
0200
0301
,
0001
0010
1000
0100
,
0010
1001
0100
0010
,
0100
1000
0200
0320
,
0032
0103
0010
0100
,
0001
0010
1000
0100
,
0010
0100
0010
0001
,
0010
0100
0020
2030
,
3100
0010
0100
0001
,
0100
1000
1001
0220
,
0330
0000
0000
0000
;

//---------------dance-single - ----------------
#NOTEDATA:;
#CHARTNAME:;
#STEPSTYPE:dance-single;
#DESCRIPTION:;
#CHARTSTYLE:;
#DIFFICULTY:Beginner;
#METER:1;
#RADARVALUES:0.158633,0.203328,0.007503,0.022509,0.000000,148.000000,147.000000,1.000000,3.000000,0.000000,0.000000,0.000000,0.000000,0.000000,0.158633,0.203328,0.007503,0.022509,0.000000,148.000000,147.000000,1.000000,3.000000,0.000000,0.000000,0.000000,0.000000,0.000000;
#CREDIT:DDRDAIKENKAI;
#NOTES:
0000
0000
0000
0000
,
0000
0000
0000
0000
,
0000
0000
0000
0000
,
0000
0000
0000
0000
,
1000
0000
1000
0000
,
0001
0001
0001
0000
,
0100
0000
0100
0000
,
0010
0010
0010
0000
,
1000
0000
1000
0000
,
0010
0010
0010
0000
,
0100
0000
0100
0000
,
0001
0001
0001
0000
,
1000
0000
1000
0000
,
1000
0000
1000
1000
,
1000
0000
1000
0000
,
1000
0000
1000
0000
,
0001
0000
0001
0000
,
0001
0000
0001
0000
,
0100
0100
0100
0100
,
0100
0000
0010
0010
,
0020
0000
0000
0000
,
0030
0000
1000
0000
,
0001
0000
1000
0000
,
0100
0000
1000
0000
,
0020
0000
0000
0000
,
0030
0000
1000
0000
,
0001
0000
0100
0000
,
0010
0010
0010
0000
,
1000
0000
1000
0000
,
0100
0000
0100
0000
,
0010
0000
0010
0000
,
0001
0001
0001
0001
,
0001
0000
0001
0000
,
1000
1000
1000
0000
,
0001
0001
0001
0000
,
0100
0100
0100
0000
,
0010
0000
0010
0000
,
0100
0100
0100
0000
,
0001
0000
0001
0000
,
1000
1000
1000
0000
,
0100
0000
0010
0000
,
0001
0000
1000
0000
,
0001
0000
0100
0000
,
0020
0000
0000
0030
,
0000
1000
0000
1000
,
0000
0001
0001
0001
,
0000
0100
0000
0100
,
0000
0001
0001
0001
,
0000
0010
0000
0010
,
0000
0100
0000
0100
,
0000
1000
0000
1000
,
1000
0000
0001
0001
,
0001
0000
1000
0000
,
0100
0000
0010
0010
,
0010
0000
0100
0000
,
1000
0000
0001
0001
,
0001
0000
0100
0000
,
0010
0000
0100
0100
,
0100
0000
0010
0000
,
1000
1000
1000
0000
,
0000
1001
0000
0100
,
0000
0010
0000
0100
,
0000
0001
0000
1000
,
0000
0100
0000
0010
,
0000
0100
0000
1000
,
0000
0001
0000
1000
,
0000
0010
0000
0100
,
0000
0010
0010
0010
;

//---------------dance-single - Expert II----------------
#NOTEDATA:;
#CHARTNAME:;
#STEPSTYPE:dance-single;
#DESCRIPTION:Expert II;
#CHARTSTYLE:;
#DIFFICULTY:Edit;
#METER:9;
#RADARVALUES:0.612021,0.668132,0.217584,0.157561,0.585225,571.000000,542.000000,29.000000,21.000000,0.000000,4.000000,0.000000,0.000000,0.000000,0.612021,0.668132,0.217584,0.157561,0.585225,571.000000,542.000000,29.000000,21.000000,0.000000,4.000000,0.000000,0.000000,0.000000;
#CREDIT:DDRDAIKENKAI;
#NOTES:
// measure 0
0000
0000
0000
0000
,  // measure 1
0000
0000
0000
0000
,  // measure 2
0000
0000
0000
0000
,  // measure 3
0000
0000
0000
0000
,  // measure 4
2000
0010
0001
0100
,  // measure 5
3002
0100
0023
1000
,  // measure 6
0230
1000
0001
1000
,  // measure 7
0320
0001
0230
0010
,  // measure 8
2300
0100
0010
0001
,  // measure 9
3200
0010
2300
0001
,  // measure 10
3020
0001
0100
1030
,  // measure 11
0002
0000
0000
0000
0000
0000
0103
0000
0000
0000
0000
0001
0000
0000
1000
0000
0000
1000
0100
0000
0000
0000
0000
0000
,  // measure 12
1100
0100
1000
0010
0100
0010
0001
0010
,  // measure 13
1000
0000
0001
0000
0010
0000
0001
0000
1000
0100
0010
0001
0100
0000
0010
0000
,  // measure 14
0100
0001
0010
0001
1000
0001
0100
0010
,  // measure 15
1000
0000
0000
0010
0000
0000
0110
0000
0000
0000
0000
1000
0000
0000
0001
0000
0000
1000
0100
0000
0000
0010
0000
0000
,  // measure 16
1000
0000
0000
0010
0000
0000
0001
0000
0000
0010
0000
0000
0100
0000
0000
0010
0000
0000
0001
0000
0000
0000
0000
1000
,  // measure 17
0100
0000
0000
1000
0000
0000
0010
0000
0000
0100
0000
0000
0010
0000
0000
0000
0000
1000
0001
0000
0000
0100
0000
0000
,  // measure 18
1000
0000
0000
0100
0000
0000
0010
0000
0000
1000
0000
0000
0100
0000
0000
0000
0000
0010
0001
0000
0000
0000
0000
0000
,  // measure 19
2200
0000
0000
0010
3310
0000
0002
0000
,  // measure 20
1003
0000
0000
0000
0000
0000
0000
0000
0000
0000
0000
0000
0000
0000
0000
0000
0001
0000
0000
0000
0000
0010
0000
0000
0100
0000
0000
0000
0000
0010
0000
0000
1000
0000
0000
0000
0000
0000
0000
0000
0001
0000
0000
0000
0000
0000
0000
0000
1000
0000
0000
0000
0000
0010
0000
0000
0100
0000
0000
0000
0000
0010
0000
0000
,  // measure 21
0000
0000
0000
0000
0000
0000
0000
0000
0001
0000
0000
0000
0000
0000
0000
0000
0000
0000
0000
0000
0000
0001
0000
0000
0000
0000
0000
0000
0000
0000
0000
0000
1000
0000
0000
0000
0000
0000
0000
0000
0000
0000
0000
0000
0000
0000
0000
0000
0010
0000
0000
0000
0000
0000
0000
0000
1000
0000
0000
0000
0000
0001
0000
0000
,  // measure 22
0100
0000
0000
0000
0000
0000
0000
0000
0000
0000
0000
0000
0000
0000
0000
0000
1000
0000
0000
0000
0000
0100
0000
0000
0010
0000
0000
0000
0000
0100
0000
0000
0001
0000
0000
0000
0000
0000
0000
0000
1000
0000
0000
0000
0000
0000
0000
0000
0001
0000
0000
0000
0000
0100
0000
0000
0010
0000
0000
0000
0000
0100
0000
0000
,  // measure 23
0000
0000
0000
0001
0000
0000
1001
0000
0000
0000
0000
1000
0000
0000
0010
0000
0000
0100
0001
0000
0000
1000
0000
0000
,  // measure 24
0100
0000
0000
0000
0000
0000
0000
0000
0001
0000
0000
0000
0000
0000
0000
0000
0100
0000
0000
0000
0000
1000
0000
0000
0010
0000
0000
0000
0000
0100
0000
0000
0001
0000
0000
0000
0000
0000
0000
0000
0010
0000
0000
0000
0000
0000
0000
0000
1000
0000
0000
0000
0000
0010
0000
0000
0100
0000
0000
0000
0000
1000
0000
0000
,  // measure 25
0000
0000
0000
0000
0000
0000
0000
0000
0010
0000
0000
0000
0000
0000
0000
0000
0000
0000
0000
0000
0000
0010
0000
0000
0000
0000
0000
0000
0000
0000
0000
0000
0120
0000
0000
0000
0000
0000
0000
0000
0000
0000
0000
0000
0000
0000
0000
0000
1030
0000
0000
0000
0000
0000
0000
0000
0100
0000
0000
0000
0000
1000
0000
0000
,  // measure 26
0001
0000
0000
0000
0000
0000
0000
0000
0100
0000
0000
0000
0000
0000
0000
0000
1000
0000
0000
0000
0000
0100
0000
0000
0001
0000
0000
0000
0000
0010
0000
0000
0100
0000
0000
0000
0000
0000
0000
0000
1000
0000
0000
0000
0000
0000
0000
0000
0010
0000
0000
0000
0000
0001
0000
0000
0010
0000
0000
0000
0000
1000
0000
0000
,  // measure 27
0100
0000
0000
0010
0000
0000
0110
0000
0000
0000
0000
0001
0000
0000
0100
0000
0000
0001
1000
0000
0000
0100
0000
0000
,  // measure 28
1000
0000
0000
0000
0000
0000
0000
0000
0000
0000
0000
0000
0000
0000
0000
0000
1000
0000
0000
0000
0000
0010
0000
0000
0100
0000
0000
0000
0000
0010
0000
0000
1000
0000
0000
0000
0000
0000
0000
0000
0000
0000
0000
0000
0000
0000
0000
0000
1000
0000
0000
0000
0000
0001
0000
0000
0100
0000
0000
0000
0000
0001
0000
0000
,  // measure 29
1000
0000
0000
0000
0000
0000
0000
0000
0001
0000
0000
0000
0000
0000
0000
0000
0000
0000
0000
0000
0000
0001
0000
0000
0000
0000
0000
0000
0000
0000
0000
0000
1000
0000
0000
0000
0000
0000
0000
0000
0000
0000
0000
0000
0000
0000
0000
0000
0001
0000
0000
0000
0000
0000
0000
0000
1000
0000
0000
0000
0000
0001
0000
0000
,  // measure 30
0100
0000
0000
0000
0000
0000
0000
0000
0000
0000
0000
0000
0000
0000
0000
0000
0010
0000
0000
0000
0000
1000
0000
0000
0010
0000
0000
0000
0000
0100
0000
0000
0000
0000
0000
0000
0000
0000
0000
0000
0000
0000
0000
0000
0000
0000
0000
0000
0001
0000
0000
0000
0000
0010
0000
0000
0001
0000
0000
0000
0000
0100
0000
0000
,  // measure 31
0000
0000
0000
0000
0000
0000
0110
0000
0000
0000
0000
1000
0000
0000
0001
0000
0000
0000
1001
0000
0000
0100
0000
0000
,  // measure 32
0010
0000
0000
0000
0000
0000
0000
0000
0000
0000
0000
0000
0000
0000
0000
0000
0001
0000
0000
0000
0000
1000
0000
0000
0100
0000
0000
0000
0000
1000
0000
0000
0001
0000
0000
0000
0000
0000
0000
0000
0000
0000
0000
0000
0000
0000
0000
0000
0010
0000
0000
0000
0000
0100
0000
0000
0010
0000
0000
0000
0000
0001
0000
0000
,  // measure 33
0000
0000
0000
0000
0000
0000
0000
0000
1000
0000
0000
0000
0000
0000
0000
0000
0000
0000
0000
0000
0000
0010
0000
0000
0000
0000
0000
0000
0000
0000
0000
0000
0101
0000
0000
0000
0000
0000
0000
0000
0000
0000
0000
0000
0000
0000
0000
0000
1010
0000
0000
0000
0000
0000
0000
0000
0010
0000
0000
0000
0000
1000
0000
0000
,  // measure 34
0001
0000
0000
0000
0000
0000
0000
0000
0000
0000
0000
0000
0000
0000
0000
0000
0001
0000
0000
0000
0000
1000
0000
0000
0100
0000
0000
0000
0000
0010
0000
0000
0001
0000
0000
0000
0000
0000
0000
0000
0000
0000
0000
0000
0000
0000
0000
0000
0001
0000
0000
0000
0000
1000
0000
0000
0010
0000
0000
0000
0000
0100
0000
0000
,  // measure 35
0010
0000
0000
0000
0000
0000
0110
0000
0000
0000
0000
0010
0000
0000
0010
0000
0000
0100
0001
0000
0000
1000
0000
0000
,  // measure 36
0100
1000
0100
0000
0000
1000
0100
0000
1000
0010
1000
0000
0000
0010
1000
0000
,  // measure 37
0001
0010
0001
0000
0000
0010
0001
0000
0100
0001
0100
0000
0000
0001
0100
0000
,  // measure 38
0010
0100
0010
0000
0000
0100
0010
0000
1000
0001
1000
0000
0000
0001
1000
0000
,  // measure 39
0001
0000
0000
1000
0000
0000
0100
0000
0000
0000
0000
0000
1100
0000
0000
0000
0000
0000
0000
0000
0000
0000
1000
0000
0000
0000
0000
0000
0010
0000
0000
0000
0000
0000
0100
0000
0001
0000
0000
0000
0000
0000
1000
0000
0000
0000
0000
0000
,  // measure 40
0001
0010
0001
0000
1000
0100
1000
0000
0001
0010
0001
0000
1000
0100
1000
0000
,  // measure 41
0010
0100
0010
0000
0100
0010
0100
0000
0001
1000
0001
0000
1000
0001
1000
0000
,  // measure 42
0010
1000
0010
0000
0100
0001
0100
0000
0010
1000
0010
0000
0100
0001
0100
0000
,  // measure 43
0001
0000
0000
0010
0000
0000
0100
0000
0000
0000
0000
0000
0110
0000
0000
0000
0000
0000
0000
0000
0000
0000
1000
0000
0000
0000
0000
0000
1000
0000
0000
0000
0000
0000
0000
0000
1001
0000
0000
0000
0000
0000
1100
0000
0000
0000
0000
0000
,  // measure 44
0101
0100
0001
1000
0001
0100
0010
0100
,  // measure 45
0001
0000
1000
0000
0100
0000
1000
0000
0001
0010
0100
1000
0010
0000
0100
0000
,  // measure 46
0010
1000
0010
0001
0010
1000
0001
0100
,  // measure 47
0001
0000
0000
0010
0000
0000
0100
0000
0000
1000
0000
0000
0010
0000
0000
0000
0000
0100
0001
0000
0000
1000
0000
0000
,  // measure 48
0001
0000
0000
0010
0000
0000
0001
0000
0000
1000
0000
0000
0010
0000
0000
1000
0000
0000
0001
0000
0000
0000
0000
1000
,  // measure 49
0010
0000
0000
1000
0000
0000
0100
0000
0000
0010
0000
0000
0001
0000
0000
0000
0000
0100
0001
0000
0000
0010
0000
0000
,  // measure 50
0100
0000
0000
1000
0000
0000
0001
0000
0000
0010
0000
0000
0100
0000
0000
0000
0000
1000
0001
0000
0000
0000
0000
0000
,  // measure 51
0202
0000
0000
0010
0313
0000
1002
0000
,  // measure 52
1003
0000
0000
0000
0000
0000
0000
0000
0010
0000
0000
0000
0000
0000
0000
0000
0100
0000
0000
0000
0000
0001
0000
0000
0010
0000
0000
0000
0000
0100
0000
0000
1000
0000
0000
0000
0000
0000
0000
0000
0010
0000
0000
0000
0000
0000
0000
0000
1000
0000
0000
0000
0000
0100
0000
0000
0010
0000
0000
0000
0000
0001
0000
0000
,  // measure 53
0000
0000
0000
0000
0000
0000
0000
0000
0100
0000
0000
0000
0000
0000
0000
0000
0000
0000
0000
0000
0000
0110
0000
0000
0000
0000
0000
0000
0000
0100
0000
0000
0010
0000
0000
0000
0000
0000
0000
0000
1000
0000
0000
0000
0000
0000
0000
0000
0001
0000
0000
0000
0000
1000
0000
0000
0010
0000
0000
0000
0000
0100
0000
0000
,  // measure 54
0010
0000
0000
0000
0000
0000
0000
0000
1000
0000
0000
0000
0000
0000
0000
0000
0010
0000
0000
0000
0000
0100
0000
0000
0001
0000
0000
0000
0000
1000
0000
0000
0100
0000
0000
0000
0000
0000
0000
0000
1000
0000
0000
0000
0000
0000
0000
0000
0001
0000
0000
0000
0000
0010
0000
0000
0001
0000
0000
0000
0000
0100
0000
0000
,  // measure 55
0010
0000
0000
1000
0000
0000
1001
0000
0000
1000
0000
0001
0000
0000
0010
0000
0000
0001
1000
0000
0001
0100
0000
0000
,  // measure 56
0110
0000
0000
0000
0000
0000
0000
0000
0010
0000
0000
0000
0000
0000
0000
0000
1000
0000
0000
0000
0000
0100
0000
0000
0010
0000
0000
0000
0000
0100
0000
0000
1000
0000
0000
0000
0000
0000
0000
0000
0010
0000
0000
0000
0000
0000
0000
0000
0001
0000
0000
0000
0000
0010
0000
0000
1000
0000
0000
0000
0000
0010
0000
0000
,  // measure 57
0100
0000
0000
0000
0000
0000
0000
0000
0001
0000
0000
0000
0000
0000
0000
0000
0000
0000
0000
0000
0000
1001
0000
0000
0000
0000
0000
0000
0000
0001
0000
0000
1000
0000
0000
0000
0000
0000
0000
0000
0001
0000
0000
0000
0000
0000
0000
0000
1000
0000
0000
0000
0000
0100
0000
0000
0010
0000
0000
0000
0000
0100
0000
0000
,  // measure 58
0001
0000
0000
0000
0000
0000
0000
0000
1000
0000
0000
0000
0000
0000
0000
0000
0001
0000
0000
0000
0000
0100
0000
0000
0010
0000
0000
0000
0000
0100
0000
0000
1000
0000
0000
0000
0000
0000
0000
0000
0001
0000
0000
0000
0000
0000
0000
0000
0100
0000
0000
0000
0000
0010
0000
0000
0100
0000
0000
0000
0000
0001
0000
0000
,  // measure 59
0010
1000
0100
0001
0010
1000
0200
0000
,  // measure 60
0310
0000
0000
0000
0000
0000
0000
0000
0000
0000
0000
0000
0000
0000
0000
0000
0110
0000
0000
0000
0000
0010
0000
0000
0100
0000
0000
0000
0000
0001
0000
0000
1000
0000
0000
0000
0000
0000
0000
0000
0100
0000
0000
0000
0000
0000
0000
0000
0010
0000
0000
0000
0000
0100
0000
0000
1000
0000
0000
0000
0000
0001
0000
0000
,  // measure 61
0000
0000
0000
0000
0000
0000
0000
0000
0010
0000
0000
0000
0000
0000
0000
0000
0000
0000
0000
0000
0000
0001
0000
0000
0000
0000
0000
0000
0000
0001
0000
0000
0200
0000
0000
0000
0000
0000
0000
0000
0310
0000
0000
0000
0000
0000
0000
0000
0110
0000
0000
0000
0000
0000
0000
0000
0010
0000
0000
0000
0000
1000
0000
0000
,  // measure 62
0100
0000
0000
0000
0000
0000
0000
0000
0001
0000
0000
0000
0000
0000
0000
0000
0100
0000
0000
0000
0000
1000
0000
0000
0010
0000
0000
0000
0000
0100
0000
0000
0001
0000
0000
0000
0000
0000
0000
0000
0010
0000
0000
0000
0000
0000
0000
0000
1000
0000
0000
0000
0000
0010
0000
0000
0001
0000
0000
0000
0000
0100
0000
0000
,  // measure 63
0010
0000
0000
1000
0000
0000
1001
0000
0000
0001
0000
0100
0000
0000
0110
0000
0000
0010
1000
0000
0001
1000
0000
0000
,  // measure 64
0001
0000
0000
0000
0000
0000
0000
0000
0010
0000
0000
0000
0000
0000
0000
0000
0001
0000
0000
0000
0000
0100
0000
0000
1000
0000
0000
0000
0000
0100
0000
0000
0010
0000
0000
0000
0000
0000
0000
0000
0001
0000
0000
0000
0000
0000
0000
0000
0010
0000
0000
0000
0000
1000
0000
0000
0010
0000
0000
0000
0000
0100
0000
0000
,  // measure 65
0001
0000
0000
0000
0000
0000
0000
0000
1000
0000
0000
0000
0000
0000
0000
0000
0000
0000
0000
0000
0000
1001
0000
0000
0000
0000
0000
0000
0000
0001
0000
0000
0010
0000
0000
0000
0000
0000
0000
0000
0100
0000
0000
0000
0000
0000
0000
0000
0110
0000
0000
0000
0000
0000
0000
0000
0100
0000
0000
0000
0000
1000
0000
0000
,  // measure 66
0001
0000
0000
0000
0000
0000
0000
0000
0100
0000
0000
0000
0000
0000
0000
0000
1000
0000
0000
0000
0000
0100
0000
0000
0010
0000
0000
0000
0000
0100
0000
0000
0001
0000
0000
0000
0000
0000
0000
0000
1000
0000
0000
0000
0000
0000
0000
0000
0001
0000
0000
0000
0000
0010
0000
0000
0100
0000
0000
0000
0000
0010
0000
0000
,  // measure 67
1000
0000
0000
0010
0000
0000
0110
0000
0000
0000
0000
0001
0000
0000
1000
0000
0000
0001
0100
0000
0000
0020
0000
0000
,  // measure 68
0000
0000
0030
0000
;
