#TITLE:Xperanza;
#SUBTITLE:;
#ARTIST:aran;
#TITLETRANSLIT:;
#SUBTITLETRANSLIT:;
#ARTISTTRANSLIT:;
#GENRE:;
#CREDIT:;
#BANNER:bn.png;
#BACKGROUND:bg.png;
#LYRICSPATH:;
#CDTITLE:;
#MUSIC:Xperanza.ogg;
#OFFSET:-0.921000;
#SAMPLESTART:72.973076;
#SAMPLELENGTH:14.414413;
#SELECTABLE:YES;
#BPMS:0.000000=199.800003
,176.000000=99.900002
,184.000000=199.800003
,214.000000=99.900002
,215.000000=199.800003
;
#STOPS:
;
#BGCHANGES:;
#KEYSOUNDS:;
#ATTACKS:;

//---------------dance-single - ----------------
#NOTES:
     dance-single:
     :
     Hard:
     10:
     0.687166,1.314947,0.228279,0.301654,0.358724,590.000000,562.000000,28.000000,37.000000,0.000000,0.000000,0.687166,1.314947,0.228279,0.301654,0.358724,590.000000,562.000000,28.000000,37.000000,0.000000,0.000000:
0000
0000
0000
0000
,
0000
0000
0000
0000
,
0000
0000
0000
0000
,
0000
0000
0000
0000
,
0000
0000
0000
0000
,
0000
0000
0000
0000
,
0000
0000
0000
0000
,
0000
0000
0000
0000
,
1000
0000
0010
0000
0000
0100
0001
0100
,
0000
0010
0000
1000
0000
0001
0000
1000
,
0000
0000
0100
0010
0001
1000
0000
0010
,
0000
1000
0000
0100
0000
0010
0100
0000
,
1001
1000
1001
0001
,
1001
1000
1001
0001
,
0110
0100
0110
0010
,
0100
0001
1000
0100
0000
0010
0100
1000
,
0001
1000
0001
1000
0001
1000
0001
1000
0010
0100
0010
0100
0010
0100
0010
0100
,
0001
1000
0001
1000
0001
1000
0001
1000
0010
0100
0010
0100
0010
0100
0010
0100
,
0001
1000
0001
1000
0010
0100
0010
0100
0001
1000
0001
1000
0010
0100
0010
0100
,
0001
1000
0010
0100
0001
1000
0010
0100
0001
1000
0010
0100
0010
0000
0000
0000
,
0100
0000
0100
0001
0020
0000
0000
0030
,
0100
1000
0001
1000
0100
1000
0010
0010
,
0100
0001
1000
0100
2000
0000
0000
0000
,
3001
0010
0001
1000
0010
1000
0100
0100
,
0020
0032
0203
0320
0030
0100
0001
2000
,
0000
3001
0000
1000
0000
0100
0000
0000
,
0110
0100
1001
0100
,
1001
0000
1000
0001
0000
1000
0002
0000
,
0003
0000
0000
0100
0020
0000
0100
0000
,
1030
0001
0010
0100
1000
0001
0100
0001
,
1000
0100
0010
0100
2000
0000
0000
0000
,
3010
0000
1000
0001
1000
0000
0000
0000
0001
0000
0001
0000
1000
0000
1000
0000
,
0100
0010
0001
0000
0010
0001
0010
0001
,
0010
0000
0010
0100
0010
0100
2000
0000
,
3010
0100
0001
1000
0010
0100
0001
1000
,
0100
0001
0100
1000
0001
0000
1000
0000
,
0020
0000
0000
0130
0001
1000
0001
0100
,
0000
0010
0000
1000
0000
0100
0000
0010
,
0000
0000
0100
0010
0001
0010
0000
0001
,
0000
0000
0000
1000
0000
1000
0000
0000
,
0010
0000
0100
0000
0000
0010
1000
0100
,
0000
0010
0000
0100
0000
1000
0000
0000
,
1001
0000
0010
0000
1001
0000
0100
0010
,
0000
0100
0010
1000
0000
0001
0010
0100
,
2002
0000
0000
0000
,
3003
0000
0000
0000
,
1000
0001
0010
0001
,
1000
0100
0010
0100
,
1000
0010
0100
0001
,
0010
0100
0010
0001
,
1000
0000
0000
0001
0100
1000
0100
0001
,
0000
0000
0100
0001
0010
0000
0100
1000
,
0010
0100
0010
1000
0001
0010
0100
0010
,
0001
0000
1000
0000
0100
0000
0010
0000
0002
0000
0003
0000
1000
0001
1000
0001
,
1000
0001
1000
0001
0100
0010
0100
0010
0100
0010
0100
0010
1000
0001
1000
0001
,
1000
0001
1000
0001
0100
0010
0100
0010
0100
0010
0100
0010
1000
0001
1000
0001
,
0100
0010
0100
0010
1000
0001
1000
0001
0100
0010
0100
0010
1000
0001
0100
0010
,
1000
0001
0100
0010
1000
0001
0100
0010
0200
0000
0000
0000
0310
0000
0000
0000
,
1000
0000
1000
0000
0001
0000
0000
0000
0010
0000
0010
0000
0100
0000
0000
0100
,
0000
0100
0010
0000
0001
0001
1000
0000
,
0001
0000
0001
0000
0100
0000
0100
0000
0010
0000
0000
0000
0100
0000
0000
0100
,
0000
0000
0100
0000
0010
0000
0000
0000
0010
0100
0010
0100
0010
0000
0000
0000
,
1000
0000
0100
0000
0001
0000
0000
0000
0001
0000
0100
0000
1000
0000
0000
0010
,
0000
0001
0010
0000
0100
0001
1000
0000
,
0100
0000
0001
0000
0100
0000
0010
0000
0001
0000
0000
0000
1000
0000
0000
1000
,
0000
0000
1000
0000
0001
0000
0000
0000
0100
0010
1000
0001
0010
0000
0000
0000
,
0000
0100
0020
0000
0001
0000
0130
0010
,
0001
0200
0010
0000
0001
0000
0310
0000
,
0100
0010
2000
0000
3001
0010
0100
0100
,
0020
0000
0000
0000
0032
0000
2003
0000
3002
0000
2003
0000
3010
0000
1000
0010
,
1000
0000
0000
0000
0001
0000
0100
0001
0100
0000
0010
1000
0010
0000
1000
0000
,
0001
0000
1000
0000
0100
0000
1000
0000
0020
0000
0000
0000
0130
0000
0000
0010
,
1000
0000
0001
0000
0010
0000
0000
0010
0100
0000
1000
0000
0001
1000
0001
1000
,
0001
1000
0001
1000
0001
1000
0001
1000
0001
1000
0001
1000
0020
0000
0000
0000
,
0000
0000
0000
0000
,
0000
0000
0000
0000
,
0030
0000
0000
0000
,
0000
0000
0000
0000
0000
0000
1000
0010
,
1000
0010
0100
0001
0100
0001
0010
0001
,
0010
0000
0001
0000
1000
0000
0100
0000
1000
0000
0100
0000
1000
0000
0000
0001
,
0010
0000
0000
0010
0100
0000
0000
0100
1000
0000
0000
1000
0001
0000
0000
1001
,
0000
0000
1000
0000
0000
1001
0000
0000
0010
0000
1000
0000
0200
0000
0000
0000
,
0310
0000
0100
1000
0010
0010
0000
0100
,
0000
0010
0000
1001
0000
0021
0000
0000
,
0130
0010
0001
1000
0000
1010
0000
0001
,
0000
1020
0000
0100
0130
0000
1010
0000
,
0101
0000
0000
0001
0010
1000
0000
0010
,
0000
0011
0000
1100
0000
0000
1002
0000
,
0013
2001
3010
1001
,
0110
1001
0110
0100
,
0010
1000
0100
0000
0100
1000
0010
0001
,
0010
1000
0001
0000
1000
0001
0010
0000
,
0010
0001
1000
0000
1000
0001
0010
0100
,
0010
0000
0100
0010
0001
1000
0010
0000
,
0100
1000
0100
0001
0010
0200
0000
0310
,
0001
2000
0000
3001
0010
0100
0020
0000
,
0031
0100
1000
0100
0010
2000
0000
3001
,
0020
0200
0000
0000
0000
0000
0330
0000
;

//---------------dance-single - ----------------
#NOTES:
     dance-single:
     :
     Medium:
     8:
     0.529933,0.679130,0.269043,0.171209,0.016306,455.000000,422.000000,33.000000,21.000000,0.000000,0.000000,0.529933,0.679130,0.269043,0.171209,0.016306,455.000000,422.000000,33.000000,21.000000,0.000000,0.000000:
0000
0000
0000
0000
,
0000
0000
0000
0000
,
0000
0000
0000
0000
,
0000
0000
0000
0000
,
0000
0000
0000
0000
,
0000
0000
0000
0000
,
0000
0000
0000
0000
,
0000
0000
0000
0000
,
1001
0001
1000
0001
,
1000
0001
1000
0001
,
0110
0010
0100
0010
,
0100
0010
0100
0110
,
1001
0001
1010
0010
,
1001
0010
1001
0100
,
1001
0110
1001
0110
,
0001
0100
0010
1000
,
0001
1000
0001
1000
0010
0100
0010
0100
,
0001
1000
0001
1000
0010
0100
0010
0100
,
0001
1000
0010
0100
0001
1000
0010
0100
,
0001
1000
0010
0100
0001
1000
0010
0000
,
1000
0000
0100
0010
0002
0000
0000
0000
,
0013
0001
1000
0010
,
0100
0000
0010
1000
0200
0000
0000
0000
,
0310
0000
0100
0000
1000
0000
0001
1000
,
0010
0100
0010
0000
0000
1000
0010
1000
,
0000
0001
0000
0010
0000
0100
0000
0000
,
0110
0010
1001
0100
,
1001
0110
1001
0110
,
1001
0000
0000
0001
0020
0000
0000
0130
,
1000
0010
0100
0001
2000
0000
0000
0000
,
3010
0000
0000
0100
0020
0000
0000
0000
,
1030
0010
0001
0000
0001
0010
0100
0010
,
0001
1000
0010
0000
0100
0001
1000
0001
,
1000
0100
1000
0100
1000
0100
0020
0000
,
0230
1300
0020
0130
,
0002
1003
0200
0310
,
1001
0000
0010
0000
0000
0100
0001
0010
,
0000
0100
0000
1000
0000
0001
0000
1000
,
0000
0000
0010
0100
0001
1000
0000
0001
,
0000
0000
0000
1000
0000
1000
0000
0000
,
0010
0000
0100
0000
0000
0100
0010
1000
,
0000
0001
0000
0010
0000
1000
0000
0000
,
0010
0000
0100
0000
0010
0000
0001
0010
,
0000
0010
0100
1000
0000
1000
0100
0010
,
0002
0000
0000
0000
,
0003
0000
0000
0000
,
1000
0010
1000
0010
,
0100
0001
0100
0001
,
0010
0001
0010
0001
,
1000
0100
1000
0100
,
1000
0001
0100
0001
,
0010
0100
0010
0001
,
1000
0010
0100
0010
,
1000
0000
0001
0000
0020
0000
0031
1000
,
0001
1000
0010
0100
0010
0100
0001
1000
,
0001
1000
0010
0100
0010
0100
0001
1000
,
0010
0100
0001
1000
0010
0100
0001
1000
,
0010
0100
0001
1000
0010
0000
0100
0000
,
0010
1000
0010
0000
1000
0010
1000
0000
,
0010
0000
0100
0000
0001
0100
0001
0000
,
0100
0000
0001
0000
0100
0000
0001
0000
0100
0000
0000
0000
0001
0000
0000
1000
,
0000
0001
1000
0000
1000
0001
1000
0000
,
0001
0100
0001
0000
0100
0010
0100
0000
,
0010
0000
1000
0000
0010
0100
0010
0000
,
0100
0000
0010
0000
0100
0000
0010
0000
0100
0000
0000
0000
0010
0000
0000
1000
,
0000
0001
0010
0000
0100
0000
1001
0000
,
0000
0001
0100
0000
0000
1000
0100
0010
,
0100
0002
0000
0000
0000
0000
0003
0000
,
0000
0010
0200
0000
0000
0000
0310
0010
,
0002
0000
1003
0100
1000
0100
0010
0001
,
0010
0000
0010
0100
1000
0100
0010
0000
,
0100
1000
0010
0100
0002
0000
2003
0000
,
3010
0000
0200
0000
0301
0000
0010
0100
,
0010
0100
0010
0100
0010
0100
0020
0000
,
0000
0000
0000
0000
,
0000
0000
0000
0000
,
0030
0000
0000
0000
,
0000
0000
0000
1001
,
0010
1001
0100
0110
,
1000
0110
0001
0110
,
0100
0000
0000
0000
1001
0000
0000
0000
0010
0000
0000
0000
1001
0000
0000
1000
,
0000
0000
0001
0000
0000
0100
0000
0000
0010
0000
1000
0000
0100
0000
0000
0000
,
0011
0000
0000
0010
0001
0001
0000
1000
,
0000
0010
0000
0100
0000
0010
0000
0000
,
0100
0010
1000
0100
0000
0010
0000
0100
,
0000
1000
0000
0001
1000
0000
1010
0000
,
0101
0000
0000
0001
1000
1000
0000
0100
,
0000
0010
0000
0100
0000
0000
0010
0000
,
0001
0000
0100
0000
0010
1000
0000
0001
,
0010
0100
0000
0100
0010
0001
1000
0000
,
0001
0100
0001
0000
0100
0010
0100
0000
,
0010
0000
1001
0000
1000
0001
0100
0000
,
0100
0001
1000
0000
1000
0010
1000
0001
,
0010
0100
1001
0101
,
0001
0000
0100
0000
0010
1000
0000
0010
,
0100
0001
0000
0010
0100
1000
0000
0100
,
0010
0001
0010
0100
0010
0001
0000
1000
,
0020
0200
0000
0000
0000
0000
0000
0000
,
0330
0000
0000
0000
;

//---------------dance-single - ----------------
#NOTES:
     dance-single:
     :
     Easy:
     5:
     0.344748,0.439437,0.228279,0.122292,0.000000,296.000000,268.000000,28.000000,15.000000,0.000000,0.000000,0.344748,0.439437,0.228279,0.122292,0.000000,296.000000,268.000000,28.000000,15.000000,0.000000,0.000000:
0000
0000
0000
0000
,
0000
0000
0000
0000
,
0000
0000
0000
0000
,
0000
0000
0000
0000
,
0000
0000
0000
0000
,
0000
0000
0000
0000
,
0000
0000
0000
0000
,
0000
0000
0000
0000
,
1001
0000
0000
0000
,
0001
0000
0000
0000
,
0110
0000
0000
0000
,
1000
0000
0000
0000
,
0110
0000
0010
0000
,
0110
0000
0100
0000
,
1001
0010
1000
0010
,
0100
0100
0010
0100
,
0101
0000
1010
0000
,
1100
0000
0110
0000
,
0011
0000
1100
0000
,
0101
0000
1010
0000
,
1001
0000
0002
0000
,
0103
0001
0010
0010
,
0100
1000
0200
0000
,
1300
0100
1000
1000
,
0100
1000
0000
0100
,
1000
0010
0100
0001
,
1000
1000
0001
0001
,
0100
0010
1000
0010
,
0100
0000
0020
0000
,
0230
0000
0000
0000
,
0300
0000
0020
0000
,
2000
0030
3010
0010
,
0100
0001
1000
0100
,
1000
0010
0100
0001
,
1001
0000
0110
0000
,
1001
0001
0001
1000
,
0001
0000
0100
0000
0000
0010
0000
0000
,
0010
0100
0010
1000
,
0001
0010
0100
0010
,
0000
0000
0000
0001
0000
0001
0000
0000
,
1000
0001
0000
0100
,
0000
0001
0100
0010
,
0100
0010
1000
0010
,
0100
0001
1000
0100
,
2002
0000
0000
0000
,
3003
0000
0000
0000
,
0010
0000
0100
0000
,
0010
0000
1000
0000
,
0001
0000
0010
0000
,
0100
0000
0010
0000
,
0001
0000
1000
0001
,
0100
0000
0001
0000
,
1000
0000
0010
1000
,
0100
0000
1000
1001
,
0000
1010
0000
0101
,
0000
0011
0000
0110
,
0000
1100
0000
0100
,
1000
1000
0000
0001
,
1000
0010
1000
0001
,
0001
0001
1000
0001
,
0100
0100
0100
0010
,
1000
0010
0200
0310
,
1000
0100
0010
0100
,
0100
0100
0010
0001
,
0010
0010
0010
0001
,
0001
1000
0001
0110
,
0000
0002
0000
0200
,
0000
0000
0000
0303
,
0000
0020
0000
2000
,
0030
3000
0010
0000
0010
0000
1000
0000
,
1000
0001
0010
0010
,
0001
1000
0001
0100
,
0000
0100
0000
0100
,
0100
0100
0100
0100
,
0010
0000
1000
0000
,
0010
0000
0100
0000
,
0001
0000
1000
0000
,
0100
0000
1000
0001
,
1000
0010
0100
0001
,
1000
0010
0100
0001
,
0001
1000
1000
0020
,
0000
0000
0000
0130
,
1001
0001
1000
0010
,
1000
0100
1000
0010
,
0100
0001
0010
0100
,
0010
0001
1000
1001
,
0101
0001
0100
0010
,
1000
0010
0100
0010
,
0010
0100
0100
0010
,
0100
0001
1000
0001
,
0010
0001
0010
1000
,
0010
0001
1000
0010
,
1000
0010
1000
0010
,
0001
0010
1000
0001
,
0100
0000
0010
0000
1000
0010
0000
0010
,
0100
0010
0000
0000
0100
0000
0010
0000
,
1000
0000
0001
0000
1000
0001
0000
0001
,
0100
0020
0000
0000
0000
0000
0000
0000
,
0030
0000
0000
0000
;

//---------------dance-single - ----------------
#NOTES:
     dance-single:
     :
     Beginner:
     3:
     0.152574,0.277145,0.057070,0.000000,0.000000,131.000000,124.000000,7.000000,0.000000,0.000000,0.000000,0.152574,0.277145,0.057070,0.000000,0.000000,131.000000,124.000000,7.000000,0.000000,0.000000,0.000000:
// measure 0
0000
0000
0000
0000
,  // measure 1
0000
0000
0000
0000
,  // measure 2
0000
0000
0000
0000
,  // measure 3
0000
0000
0000
0000
,  // measure 4
0000
0000
0000
0000
,  // measure 5
0000
0000
0000
0000
,  // measure 6
0000
0000
0000
0000
,  // measure 7
0000
0000
0000
0000
,  // measure 8
1000
0000
0000
0000
,  // measure 9
1000
0000
0000
0000
,  // measure 10
0001
0000
0000
0000
,  // measure 11
0001
0000
0000
0001
,  // measure 12
0001
0000
0000
0000
,  // measure 13
1000
0000
0000
0000
,  // measure 14
0010
0000
0100
0000
,  // measure 15
0010
0000
0000
0000
,  // measure 16
1000
0000
0010
0000
,  // measure 17
0100
0000
0001
0000
,  // measure 18
1001
0000
0000
0000
,  // measure 19
0000
0000
0000
0000
,  // measure 20
0010
0000
0100
0000
,  // measure 21
0010
0000
0000
0000
,  // measure 22
1000
0000
0100
0000
,  // measure 23
1000
0000
0000
0000
,  // measure 24
0001
0000
0000
0000
,  // measure 25
1000
0000
0000
0000
,  // measure 26
0010
0000
0000
0000
,  // measure 27
0100
0000
0000
0000
,  // measure 28
0000
0000
0010
0000
,  // measure 29
1000
0000
0000
0000
,  // measure 30
0000
0000
0001
0000
,  // measure 31
1000
0000
0000
0000
,  // measure 32
0010
0000
0000
0000
,  // measure 33
0100
0000
0000
0000
,  // measure 34
0001
0000
0001
0000
,  // measure 35
0001
0000
0000
0000
,  // measure 36
1001
0000
0000
0000
,  // measure 37
1000
0000
0000
0000
,  // measure 38
0010
0000
0000
0000
,  // measure 39
0100
0000
0000
0000
,  // measure 40
0001
0000
0000
0000
,  // measure 41
0010
0000
0000
0000
,  // measure 42
0001
0000
0000
0000
,  // measure 43
1000
0000
0000
0000
,  // measure 44
0110
0000
0000
0000
,  // measure 45
0000
0000
0000
0000
,  // measure 46
1000
0000
0000
0000
,  // measure 47
0010
0000
0000
0000
,  // measure 48
0100
0000
0000
0000
,  // measure 49
0001
0000
0000
0000
,  // measure 50
1000
0000
0000
0000
,  // measure 51
0001
0000
0000
0000
,  // measure 52
0010
0000
0000
0000
,  // measure 53
0100
0000
0000
0010
,  // measure 54
0000
0010
0000
0001
,  // measure 55
0000
0001
0000
1000
,  // measure 56
0000
0001
0000
0100
,  // measure 57
0000
0000
0000
1001
,  // measure 58
0000
0001
0000
1000
,  // measure 59
1000
1000
0000
0001
,  // measure 60
0000
0100
0000
0010
,  // measure 61
0010
0010
0000
0100
,  // measure 62
0000
0010
0000
1000
,  // measure 63
1000
1000
0000
0010
,  // measure 64
0000
0100
0000
0001
,  // measure 65
0001
0001
0000
0000
,  // measure 66
0000
1000
0000
0001
,  // measure 67
0000
0000
0000
0000
,  // measure 68
0000
0100
0000
0010
,  // measure 69
0000
1000
0000
0001
,  // measure 70
0000
1000
0000
0010
,  // measure 71
0000
1000
0000
0100
,  // measure 72
0000
0100
0000
0100
,  // measure 73
0100
0100
0100
0000
,  // measure 74
0000
0000
0000
0000
,  // measure 75
0000
0000
0000
0000
,  // measure 76
0000
0000
0000
0000
,  // measure 77
0000
0000
0000
1000
,  // measure 78
0000
0000
0000
0001
,  // measure 79
0000
0000
0000
0100
,  // measure 80
0000
0010
0000
1001
,  // measure 81
0000
0000
0000
1000
,  // measure 82
1000
0000
0001
0000
,  // measure 83
1000
0000
0000
0010
,  // measure 84
0000
0000
0000
0100
,  // measure 85
0000
0000
0000
0010
,  // measure 86
0000
0000
0000
1000
,  // measure 87
0000
0000
0000
0001
,  // measure 88
0000
0001
0000
0001
,  // measure 89
0000
0000
0000
1001
,  // measure 90
0000
1000
0000
0010
,  // measure 91
0010
0010
0000
0100
,  // measure 92
0000
0010
0000
1000
,  // measure 93
1000
1000
0000
0001
,  // measure 94
0000
1000
0000
0000
,  // measure 95
0000
0000
0000
0001
,  // measure 96
0000
0100
0000
0000
,  // measure 97
0000
0110
0000
0000
0000
0000
0000
0000
;
