#VERSION:0.83;
#TITLE:Without Chu;
#SUBTITLE:;
#ARTIST:7 Minutes Dead feat. Emsi;
#TITLETRANSLIT:;
#SUBTITLETRANSLIT:;
#ARTISTTRANSLIT:;
#GENRE:;
#ORIGIN:;
#CREDIT:;
#BANNER:withoutchu_bn.png;
#BACKGROUND:withoutchu_bg.png;
#PREVIEWVID:;
#JACKET:withoutchu_jacket.png;
#CDIMAGE:;
#DISCIMAGE:;
#LYRICSPATH:;
#CDTITLE:cdtitle.png;
#MUSIC:withoutchu.ogg;
#OFFSET:-0.577000;
#SAMPLESTART:28.269306;
#SAMPLELENGTH:18.461540;
#SELECTABLE:YES;
#BPMS:0.000=104.000;
#STOPS:;
#DELAYS:;
#WARPS:;
#TIMESIGNATURES:0.000=4=4;
#TICKCOUNTS:0.000=4;
#COMBOS:0.000=1;
#SPEEDS:0.000=1.000=0.000=0;
#SCROLLS:0.000=1.000;
#FAKES:;
#LABELS:0.000=Song Start;
#BGCHANGES:;
#KEYSOUNDS:;
#ATTACKS:
;

//---------------dance-single - ----------------
#NOTEDATA:;
#CHARTNAME:;
#STEPSTYPE:dance-single;
#DESCRIPTION:;
#CHARTSTYLE:;
#DIFFICULTY:Hard;
#METER:7;
#RADARVALUES:0.329765,0.428754,0.208335,0.116668,0.137501,277.000000,252.000000,25.000000,14.000000,0.000000,0.000000,0.000000,0.000000,0.000000,0.329765,0.428754,0.208335,0.116668,0.137501,277.000000,252.000000,25.000000,14.000000,0.000000,0.000000,0.000000,0.000000,0.000000;
#CREDIT:;
#NOTES:
0000
0000
0000
0000
,
0000
0000
0000
0000
,
0000
0000
0000
0000
,
0000
0000
0000
0000
,
0001
0100
0010
0000
0010
0100
0000
0100
,
0000
0100
0001
0000
0001
1000
0100
0000
,
0100
1000
0010
0000
0010
1000
0000
1000
,
0000
1000
0001
0000
0010
0001
0000
0000
,
1000
0100
0010
0000
0100
0010
0000
0010
,
0000
0010
0001
0000
1000
0001
0100
0000
,
0001
0100
0010
0000
0100
0010
0000
0010
,
0000
0010
1000
0000
1000
0001
0010
0000
,
0001
0010
0100
0010
0002
0000
1003
0000
,
1000
0100
1000
0010
0200
0000
0310
0000
,
0000
1000
0010
0100
0001
0000
0001
1000
0000
0000
0000
0000
0001
1000
0001
0000
,
0000
1000
0100
0010
0001
0000
0001
1000
0000
0000
0010
0000
0110
0000
0000
0000
,
1000
0000
0100
0000
0010
0000
0100
0000
2000
0000
0000
0000
3001
0000
0000
0001
,
0100
0010
0100
0000
0001
0000
1000
0000
0200
0000
0000
0000
0310
0000
0000
0000
,
0000
0001
0100
0010
1000
0000
0001
0000
1000
0000
0000
0000
1000
0001
1000
0000
,
0000
0001
0010
0100
1000
0000
0001
1000
0000
0000
0001
0000
1001
0000
0000
0000
,
1000
0100
0010
0100
0000
0000
0010
0000
0001
0000
1000
0000
1001
0000
0010
0000
,
0001
1000
0010
0000
0010
0100
0001
0000
,
0001
0100
0010
0000
0100
0000
0000
0000
0010
0000
0100
0000
0000
0000
0010
0000
,
0000
0010
0100
0000
0001
1000
1000
0000
,
1000
0001
0100
0010
0000
0000
0010
0000
0100
0000
0001
0000
0101
0000
1000
0000
,
0000
1000
0100
0001
0000
0000
0100
0000
0010
0000
0001
0000
0010
0000
0000
0000
,
0001
0100
0010
0000
0100
0000
0000
0000
0010
0000
0100
0000
0000
0000
0100
0000
,
0000
0100
0001
0000
1000
0100
1100
0000
,
1000
0000
0000
0100
0000
0000
1000
0000
0001
0000
0000
0000
0100
0000
0001
0000
,
1000
0000
0000
0010
0000
0000
0000
0000
0110
0000
0000
0000
1001
0000
0000
0000
,
0001
0000
0000
0010
0000
0000
0001
0000
1000
0000
0000
0010
0000
0000
0000
0000
,
0100
0000
0000
0010
0000
0000
0000
0000
0110
0000
0000
0000
1001
0000
0000
0000
,
0001
0000
0000
0100
0000
0000
0001
0000
1000
0000
0000
0000
0100
0000
1000
0000
,
0001
0000
0000
0010
0000
0000
0000
0000
0110
0000
0000
0000
1001
0000
0000
0000
,
1000
0000
0000
0010
0000
0000
1000
0000
0001
0000
0000
0010
0000
0000
0000
0000
,
0100
0000
0000
0010
0000
0000
0000
0000
0100
0000
0010
0000
0001
0000
1000
0000
,
0010
0000
0010
0100
0010
0100
0110
0000
,
0002
0010
0013
0001
2000
0010
3010
0000
,
1100
0000
0101
0000
1100
0000
1000
0010
,
0100
0020
0130
0001
2000
0001
3001
0000
,
0011
1010
0011
0001
,
2000
0010
3010
1000
0002
0010
0013
0000
,
0101
0000
1100
0000
0101
0000
0001
0010
,
0100
0020
0130
1000
0002
1000
1003
0000
,
1010
0000
0011
0000
1010
0000
1000
0001
,
2002
0000
0000
0000
,
0000
0000
0000
0000
,
0000
0000
0000
0000
,
0000
0000
0000
0000
,
3003
0000
0000
0000
;

//---------------dance-single - ----------------
#NOTEDATA:;
#CHARTNAME:;
#STEPSTYPE:dance-single;
#DESCRIPTION:;
#CHARTSTYLE:;
#DIFFICULTY:Easy;
#METER:3;
#RADARVALUES:0.190478,0.215418,0.041667,0.091667,0.000000,160.000000,155.000000,5.000000,11.000000,0.000000,0.000000,0.000000,0.000000,0.000000,0.190478,0.215418,0.041667,0.091667,0.000000,160.000000,155.000000,5.000000,11.000000,0.000000,0.000000,0.000000,0.000000,0.000000;
#CREDIT:;
#NOTES:
0000
0000
0000
0000
,
0000
0000
0000
0000
,
0000
0000
0000
0000
,
0000
0000
0000
0000
,
1000
0000
1000
0000
0100
0000
0000
1000
,
0000
0001
0100
0000
0001
0000
0000
0000
,
0001
0000
0001
0000
0010
0000
0000
0001
,
0000
1000
0010
0000
1000
0000
0000
0000
,
1000
0000
0001
0000
0100
0000
0000
0010
,
0000
0100
0001
0000
0010
0000
0000
0000
,
0001
0000
1000
0000
0100
0000
0000
0010
,
0000
0001
1000
0000
0010
0000
0000
0000
,
0200
0300
0000
0010
,
0100
0001
1000
1000
,
0002
0010
1003
0001
,
2000
0010
3001
0001
,
0100
0010
1000
0001
,
0010
0100
0010
0001
,
2000
0100
3001
1000
,
0002
0100
1003
1001
,
0000
0000
0000
1001
,
1000
0100
1000
0000
,
0001
0000
0100
0000
0010
0000
0000
0100
,
0000
0100
0001
0000
0010
0000
0010
0000
,
0200
0000
1000
0000
0310
0000
0000
0001
,
0000
1000
0001
0000
0100
0000
0010
0000
,
1000
0000
0100
0000
1000
0000
0000
0010
,
0000
0100
0010
0000
1000
0000
1000
0000
,
0001
0100
0100
0010
,
0100
0001
1000
1001
,
1000
0100
1000
0010
,
0100
0001
0010
0011
,
0001
0010
0001
1000
,
0010
0100
0010
0110
,
0100
0001
1000
0100
,
0010
0100
1000
1000
,
0010
0010
0010
0100
,
0002
0100
0100
0103
,
0100
1000
0010
0001
,
2000
0100
0100
3100
,
0100
0001
0010
1000
,
0002
0010
0010
0013
,
0010
1000
0100
0001
,
2000
0010
0010
3010
,
0010
0001
0100
1000
,
0002
0000
0000
0000
,
0000
0000
0000
0000
,
0003
0000
0000
0000
;

//---------------dance-single - ----------------
#NOTEDATA:;
#CHARTNAME:;
#STEPSTYPE:dance-single;
#DESCRIPTION:;
#CHARTSTYLE:;
#DIFFICULTY:Medium;
#METER:5;
#RADARVALUES:0.253574,0.274169,0.016667,0.150001,0.045834,213.000000,211.000000,2.000000,18.000000,0.000000,0.000000,0.000000,0.000000,0.000000,0.253574,0.274169,0.016667,0.150001,0.045834,213.000000,211.000000,2.000000,18.000000,0.000000,0.000000,0.000000,0.000000,0.000000;
#CREDIT:;
#NOTES:
0000
0000
0000
0000
,
0000
0000
0000
0000
,
0000
0000
0000
0000
,
0000
0000
0000
0000
,
0001
0100
0001
0000
0100
0010
0000
0100
,
0000
0001
1000
0000
0001
1000
0000
0000
,
1000
0100
1000
0000
0010
0100
0000
0010
,
0000
0100
0001
0000
1000
0001
0000
0000
,
0001
0010
0001
0000
1000
0100
0000
0010
,
0000
0100
0010
0000
0001
0100
0000
0000
,
0010
1000
0010
0000
0100
0001
0000
0100
,
0000
0010
0100
0000
0001
1000
0000
0000
,
0002
0000
0000
1003
,
1000
0100
1000
0010
1000
0000
0001
0000
,
0001
0010
0001
1000
0001
0000
0001
0000
,
1000
0010
1000
0001
1000
0000
0010
0000
,
0100
0001
0100
0010
0100
0000
0001
0000
,
0001
0010
0001
0100
0001
0000
1000
0000
,
1000
0100
0001
0100
1000
0000
0001
0000
,
1000
0010
0001
0010
1000
0000
1001
0000
,
1000
0000
0000
0100
0000
0000
0010
0000
0100
0000
0010
0000
0000
0000
0010
0000
,
0000
0001
0100
0000
0100
0010
0100
0000
,
0001
0100
0010
0000
0010
1000
0000
0001
,
0000
1000
0100
0000
0010
0100
0010
0000
,
0100
0001
0010
1000
0010
1000
0000
0010
,
1000
0001
1000
0000
0100
0010
0001
0000
,
1000
0100
1000
0000
0010
0100
0000
0001
,
0000
1000
0010
0000
0100
0001
1000
0000
,
0100
0000
0000
1000
0000
0000
0000
0000
0010
0000
0000
0000
0100
0000
0001
0000
,
1000
0000
0000
0001
0000
0000
0000
0000
0010
0000
0000
0000
0010
0000
0000
0000
,
0001
0000
0000
0100
0000
0000
0000
0000
0010
0000
0000
1000
0000
0000
0001
0000
,
0010
0000
0000
0100
0000
0000
0000
0000
0010
0000
0000
0000
0010
0000
0000
0000
,
0100
0000
0000
1000
0000
0000
0000
0000
0001
0000
0000
0000
1000
0000
0010
0000
,
0100
0000
0000
0001
0000
0000
0000
0000
1000
0000
0000
0000
1000
0000
0000
0000
,
0010
0000
0000
0100
0000
0000
0000
0000
0001
0000
0000
0010
0000
0000
0000
0000
,
0100
0000
0000
0010
0000
0000
0000
0000
0001
0000
0000
0000
1000
0000
0001
0000
,
0100
0100
0100
0110
,
0001
0100
0001
0000
1000
0100
1000
0000
,
2000
3020
0032
0203
,
1300
0100
1000
0001
1000
0000
0001
0000
,
0002
0023
2030
3200
,
0301
0100
0001
0000
1000
0010
1000
0000
,
0002
0203
2300
3020
,
0031
0010
0001
1000
0001
0000
1000
0000
,
2000
3020
0032
0203
,
2300
0000
0000
0000
,
0000
0000
0000
0000
,
3000
0000
0000
0000
;

//---------------dance-single - Stop Chu----------------
#NOTEDATA:;
#CHARTNAME:;
#STEPSTYPE:dance-single;
#DESCRIPTION:Stop Chu;
#CHARTSTYLE:;
#DIFFICULTY:Edit;
#METER:8;
#RADARVALUES:0.303574,0.387920,0.241669,0.050000,0.162501,255.000000,226.000000,29.000000,6.000000,0.000000,0.000000,0.000000,0.000000,0.000000,0.303574,0.387920,0.241669,0.050000,0.162501,255.000000,226.000000,29.000000,6.000000,0.000000,0.000000,0.000000,0.000000,0.000000;
#CREDIT:DigitalBasic;
#OFFSET:-0.577000;
#BPMS:0.000000=104.000000
;
#STOPS:;
#DELAYS:;
#WARPS:;
#TIMESIGNATURES:0.000000=4=4
;
#TICKCOUNTS:0.000000=4
;
#COMBOS:0.000000=1
;
#SPEEDS:0.000000=1.000000=0.000000=0
,1.000000=100.000000=0.000000=0
,2.000000=1.000000=0.000000=0
,3.000000=100.000000=0.000000=0
,4.000000=1.000000=0.000000=0
,5.000000=100.000000=0.000000=0
,6.000000=1.000000=0.000000=0
,7.000000=100.000000=0.000000=0
,8.000000=1.000000=0.000000=0
,9.000000=100.000000=0.000000=0
,10.000000=1.000000=0.000000=0
,11.000000=100.000000=0.000000=0
,12.000000=1.000000=0.000000=0
,13.000000=100.000000=0.000000=0
,14.000000=1.000000=0.000000=0
,181.000000=10.000000=0.000000=0
,182.000000=1.000000=0.000000=0
,183.000000=10.000000=0.000000=0
,184.000000=1.000000=0.000000=0
,185.000000=10.000000=0.000000=0
,186.000000=1.000000=0.000000=0
,187.000000=10.000000=0.000000=0
,188.000000=1.000000=0.000000=0
,189.000000=10.000000=0.000000=0
,190.000000=1.000000=0.000000=0
,191.000000=10.000000=0.000000=0
,192.000000=1.000000=0.000000=0
,193.000000=10.000000=0.000000=0
,194.000000=1.000000=0.000000=0
,195.000000=10.000000=0.000000=0
,196.000000=1.000000=0.000000=0
;
#SCROLLS:0.000000=1.000000
,0.125000=0.000000
,15.750000=2.000000
,16.000000=0.000000
,16.125000=2.000000
,16.250000=0.000000
,16.375000=2.000000
,16.500000=0.000000
,16.750000=2.000000
,17.000000=0.000000
,17.750000=2.000000
,18.000000=0.000000
,18.250000=2.000000
,18.500000=0.000000
,19.250000=2.000000
,19.500000=0.000000
,20.250000=2.000000
,20.500000=0.000000
,20.750000=2.000000
,21.000000=0.000000
,21.750000=2.000000
,22.000000=0.000000
,22.250000=2.000000
,22.500000=0.000000
,23.750000=2.000000
,24.000000=0.000000
,24.125000=2.000000
,24.250000=0.000000
,24.375000=2.000000
,24.500000=0.000000
,24.750000=2.000000
,25.000000=0.000000
,25.750000=2.000000
,26.000000=0.000000
,26.250000=2.000000
,26.500000=0.000000
,27.250000=2.000000
,27.500000=0.000000
,28.250000=2.000000
,28.500000=0.000000
,28.750000=2.000000
,29.000000=0.000000
,29.750000=2.000000
,30.000000=0.000000
,30.250000=2.000000
,30.500000=0.000000
,31.750000=2.000000
,32.000000=0.000000
,32.125000=2.000000
,32.250000=0.000000
,32.375000=2.000000
,32.500000=0.000000
,32.750000=2.000000
,33.000000=0.000000
,33.750000=2.000000
,34.000000=0.000000
,34.250000=2.000000
,34.500000=0.000000
,35.250000=2.000000
,35.500000=0.000000
,36.250000=2.000000
,36.500000=0.000000
,36.750000=2.000000
,37.000000=0.000000
,37.750000=2.000000
,38.000000=0.000000
,38.250000=2.000000
,38.500000=0.000000
,39.750000=2.000000
,40.000000=0.000000
,40.125000=2.000000
,40.250000=0.000000
,40.375000=2.000000
,40.500000=0.000000
,40.750000=2.000000
,41.000000=0.000000
,41.750000=2.000000
,42.000000=0.000000
,42.250000=2.000000
,42.500000=0.000000
,43.250000=2.000000
,43.500000=0.000000
,44.250000=2.000000
,44.500000=0.000000
,44.750000=2.000000
,45.000000=0.000000
,45.750000=2.000000
,46.000000=0.000000
,46.250000=2.000000
,46.500000=0.000000
,47.750000=2.000000
,48.000000=0.500000
,49.000000=0.000000
,50.750000=2.000000
,51.000000=0.000000
,51.750000=2.000000
,52.000000=1.000000
,54.000000=0.000000
,54.750000=2.000000
,55.000000=0.000000
,55.750000=2.000000
,56.000000=1.000000
,57.750000=0.000000
,58.750000=2.000000
,59.000000=0.000000
,59.125000=2.000000
,59.250000=0.000000
,59.375000=2.000000
,59.500000=0.000000
,60.000000=2.000000
,60.250000=1.000000
,61.750000=0.000000
,62.750000=2.000000
,63.000000=0.000000
,63.750000=2.000000
,64.000000=1.000000
,66.000000=0.000000
,66.750000=2.000000
,67.000000=0.000000
,67.500000=2.000000
,67.750000=1.000000
,70.000000=0.000000
,70.750000=2.000000
,71.000000=0.000000
,72.000000=2.000000
,72.250000=1.000000
,74.000000=0.000000
,74.750000=2.000000
,75.000000=0.000000
,75.125000=2.000000
,75.250000=0.000000
,75.375000=2.000000
,75.500000=0.000000
,76.000000=2.000000
,76.250000=1.000000
,77.750000=0.000000
,78.750000=2.000000
,79.000000=0.000000
,79.750000=2.000000
,80.000000=0.000000
,80.125000=2.000000
,80.250000=0.000000
,80.375000=2.000000
,80.500000=0.000000
,80.625000=2.000000
,80.750000=0.000000
,81.250000=2.000000
,81.500000=0.000000
,81.750000=2.000000
,82.000000=0.000000
,82.250000=2.000000
,82.500000=0.000000
,83.250000=2.000000
,83.500000=0.000000
,84.250000=2.000000
,84.500000=0.000000
,84.750000=2.000000
,85.000000=0.000000
,85.750000=2.000000
,86.000000=0.000000
,86.250000=2.000000
,86.500000=0.000000
,87.750000=2.000000
,88.000000=0.000000
,88.125000=2.000000
,88.250000=0.000000
,88.375000=2.000000
,88.500000=0.000000
,88.750000=2.000000
,89.000000=0.000000
,89.750000=2.000000
,90.000000=0.000000
,90.250000=2.000000
,90.500000=0.000000
,91.250000=2.000000
,91.500000=0.000000
,92.250000=2.000000
,92.500000=0.000000
,92.750000=2.000000
,93.000000=0.000000
,93.750000=2.000000
,94.000000=0.000000
,94.250000=2.000000
,94.500000=0.000000
,95.750000=2.000000
,96.000000=0.000000
,96.125000=2.000000
,96.250000=0.000000
,96.375000=2.000000
,96.500000=0.000000
,96.625000=2.000000
,96.750000=0.000000
,97.250000=2.000000
,97.500000=0.000000
,97.750000=2.000000
,98.000000=0.000000
,98.250000=2.000000
,98.500000=0.000000
,99.250000=2.000000
,99.500000=0.000000
,100.000000=2.000000
,100.250000=0.000000
,100.375000=2.000000
,100.500000=0.000000
,100.625000=2.000000
,100.750000=0.000000
,101.750000=2.000000
,102.000000=0.000000
,102.250000=2.000000
,102.500000=0.000000
,103.750000=2.000000
,104.000000=0.000000
,104.125000=2.000000
,104.250000=0.000000
,104.375000=2.000000
,104.500000=0.000000
,104.750000=2.000000
,105.000000=0.000000
,105.750000=2.000000
,106.000000=0.000000
,106.250000=2.000000
,106.500000=0.000000
,107.250000=2.000000
,107.500000=0.000000
,108.250000=2.000000
,108.500000=0.000000
,108.750000=2.000000
,109.000000=0.000000
,109.750000=2.000000
,110.000000=0.000000
,110.250000=2.000000
,110.500000=0.000000
,111.750000=2.000000
,112.000000=0.000000
,112.500000=2.000000
,112.750000=0.000000
,113.750000=2.000000
,114.000000=0.000000
,114.750000=2.000000
,115.000000=0.000000
,115.250000=2.000000
,115.500000=0.000000
,115.750000=2.000000
,116.000000=0.000000
,116.500000=2.000000
,116.750000=0.000000
,117.750000=2.000000
,118.000000=0.000000
,118.750000=2.000000
,119.000000=0.000000
,119.750000=2.000000
,120.000000=0.000000
,120.500000=2.000000
,120.750000=0.000000
,121.750000=2.000000
,122.000000=0.000000
,122.500000=2.000000
,122.750000=0.000000
,123.250000=2.000000
,123.500000=0.000000
,123.750000=2.000000
,124.000000=0.000000
,124.500000=2.000000
,124.750000=0.000000
,125.750000=2.000000
,126.000000=0.000000
,126.750000=2.000000
,127.000000=0.000000
,127.750000=2.000000
,128.000000=0.000000
,128.500000=2.000000
,128.750000=0.000000
,129.750000=2.000000
,130.000000=0.000000
,130.750000=2.000000
,131.000000=0.000000
,131.250000=2.000000
,131.500000=0.000000
,131.750000=2.000000
,132.000000=0.000000
,132.500000=2.000000
,132.750000=0.000000
,133.750000=2.000000
,134.000000=0.000000
,134.750000=2.000000
,135.000000=0.000000
,135.750000=2.000000
,136.000000=0.000000
,136.500000=2.000000
,136.750000=0.000000
,137.750000=2.000000
,138.000000=0.000000
,138.500000=2.000000
,138.750000=0.000000
,139.250000=2.000000
,139.500000=0.000000
,139.750000=2.000000
,140.000000=0.000000
,140.500000=2.000000
,140.750000=0.000000
,141.750000=2.000000
,142.000000=0.000000
,142.750000=2.000000
,143.000000=0.000000
,143.250000=2.000000
,143.500000=0.000000
,143.750000=2.000000
,144.000000=0.000000
,144.750000=2.000000
,145.000000=0.000000
,145.750000=2.000000
,146.000000=0.000000
,146.750000=2.000000
,147.000000=0.000000
,147.750000=2.000000
,148.000000=0.000000
,148.750000=2.000000
,149.000000=0.000000
,149.250000=2.000000
,149.500000=0.000000
,149.750000=2.000000
,150.000000=0.000000
,150.750000=2.000000
,151.000000=0.000000
,151.750000=2.000000
,152.000000=0.000000
,152.750000=2.000000
,153.000000=0.000000
,153.750000=2.000000
,154.000000=0.000000
,154.750000=2.000000
,155.000000=0.000000
,155.250000=2.000000
,155.500000=0.000000
,156.250000=2.000000
,156.500000=0.000000
,157.250000=2.000000
,157.500000=0.000000
,157.750000=2.000000
,158.000000=0.000000
,158.750000=2.000000
,159.000000=0.000000
,159.125000=2.000000
,159.250000=0.000000
,159.375000=2.000000
,159.500000=0.000000
,159.750000=2.000000
,160.000000=0.000000
,160.750000=2.000000
,161.000000=0.000000
,161.750000=2.000000
,162.000000=0.000000
,162.750000=2.000000
,163.000000=0.000000
,163.750000=2.000000
,164.000000=0.000000
,164.750000=2.000000
,165.000000=0.000000
,165.250000=2.000000
,165.500000=0.000000
,165.750000=2.000000
,166.000000=0.000000
,166.750000=2.000000
,167.000000=0.000000
,167.750000=2.000000
,168.000000=0.000000
,168.750000=2.000000
,169.000000=0.000000
,169.750000=2.000000
,170.000000=0.000000
,170.750000=2.000000
,171.000000=0.000000
,171.250000=2.000000
,171.500000=0.000000
,172.250000=2.000000
,172.500000=0.000000
,173.250000=2.000000
,173.500000=0.000000
,173.750000=2.000000
,174.000000=0.000000
,174.750000=2.000000
,175.000000=0.000000
,175.125000=2.000000
,175.250000=0.000000
,175.375000=2.000000
,175.500000=0.000000
,175.750000=2.000000
,176.000000=0.000000
,176.750000=2.000000
,177.000000=0.000000
,177.750000=2.000000
,178.000000=0.000000
,179.750000=2.000000
,180.000000=0.000000
,195.937500=1.000000
;
#FAKES:;
#LABELS:0.000000=Song Start
;
#NOTES:
0000
0000
0000
0000
,
0000
0000
0000
0000
,
0000
0000
0000
0000
,
0000
0000
0000
0000
,
1000
0001
1000
0000
0100
0000
0000
0000
0010
0000
0100
0000
0000
0000
0110
0000
,
0000
0010
0001
0000
0001
1000
0000
0000
,
0001
0100
0001
0000
1000
0000
0000
0000
0100
0000
1000
0000
0000
0000
1100
0000
,
0000
1000
0001
0000
0010
0001
0000
0000
,
0010
0100
0010
0000
0001
0000
0000
0000
1000
0000
0010
0000
0000
0000
1010
0000
,
0000
0010
0100
0000
0001
1000
0000
0000
,
1000
0100
1000
0000
0001
0000
0000
0000
0100
0000
0010
0000
0000
0000
0110
0000
,
0000
0010
1000
0000
1000
0001
0000
0000
,
2000
0000
0000
3001
,
1000
0010
0100
0001
1000
0000
1001
0000
,
0000
0001
0100
0001
0100
0000
0010
2000
0000
0000
0000
0000
3001
1000
0001
0000
,
0000
1000
0010
1000
0010
0000
0010
0100
0000
0000
0000
0000
0110
0000
0000
0000
,
0001
0000
0100
0000
0010
0000
1000
0000
0001
0000
0000
0000
1001
0000
0000
1000
,
0001
1000
0100
0000
0010
0000
0001
0000
2000
0000
0000
0000
3001
0000
0000
0000
,
0000
1000
0100
1000
0100
0000
0010
0000
0002
0000
0000
0000
1003
0001
1000
0000
,
0000
0001
0010
0001
0010
0000
0100
1000
0000
0000
0000
0000
1001
0000
0000
0000
,
1000
0100
0010
0001
0000
0000
0001
0000
1000
0000
0010
0000
0000
0000
0110
0000
,
0000
0010
1000
0000
1000
0100
0000
0000
,
1000
0100
0010
0000
0001
0000
0000
0000
1000
0000
0010
0000
0000
0000
0101
0000
,
0000
0001
1000
0000
0100
0010
0000
0000
,
0001
0010
1000
0010
0000
0000
0001
0000
0100
0000
1000
0000
0000
0000
1100
0000
,
0000
1000
0100
0001
0000
0000
0000
0000
1000
0000
0001
0000
0000
0000
0000
0000
,
0001
0100
0010
0000
1000
0000
0000
0000
0010
0000
0100
0000
0000
0000
1010
0000
,
0000
0001
0010
0000
0100
1000
0000
0000
,
1000
0000
0000
0100
0000
0000
0000
0000
0010
0000
0000
0000
0100
0000
1000
0000
,
0010
0000
0000
0100
0000
0000
0000
0000
0010
0000
0000
0000
1001
0000
0000
0000
,
0001
0000
0000
0100
0000
0000
0000
0000
0010
0000
0000
0100
0000
0000
0001
0000
,
0010
0000
0000
0100
0000
0000
0000
0000
0010
0000
0000
0000
1001
0000
0000
0000
,
0001
0000
0000
1000
0000
0000
0000
0000
0100
0000
0000
0000
1000
0000
0001
0000
,
0100
0000
0000
1000
0000
0000
0000
0000
0100
0000
0000
0000
0110
0000
0000
0000
,
1000
0000
0000
0001
0000
0000
0000
0000
0010
0000
0000
0001
0000
0000
1000
0000
,
0010
0000
0000
0001
0000
0000
0000
0000
0010
0000
0000
0000
0100
0000
0010
0000
,
0100
0100
0100
0110
,
0001
0000
0010
0100
1000
0000
1000
0000
,
1100
0000
1001
0000
0101
0000
0001
0100
,
0000
0000
0010
0000
0000
0000
0100
0000
0001
0000
0000
0000
1000
0001
1000
0000
,
0101
1001
1100
1000
,
1000
0000
0100
0010
0001
0000
0001
0000
,
0011
0000
1001
0000
1010
0000
1000
0100
,
0000
0000
1000
0000
0000
0000
0010
0000
0100
0000
0000
0000
0001
1000
0001
0000
,
1010
1001
0011
0000
,
0220
0000
0000
0000
,
0000
0000
0000
0000
,
0000
0000
0000
0000
,
0000
0000
0000
0000
,
0330
0000
0000
0000
;

//---------------dance-single - Lifting Chu----------------
#NOTEDATA:;
#CHARTNAME:;
#STEPSTYPE:dance-single;
#DESCRIPTION:Lifting Chu;
#CHARTSTYLE:;
#DIFFICULTY:Edit;
#METER:8;
#RADARVALUES:0.292860,0.318753,0.008333,0.000000,0.150001,246.000000,245.000000,1.000000,0.000000,0.000000,0.000000,0.000000,48.000000,0.000000,0.292860,0.318753,0.008333,0.000000,0.150001,246.000000,245.000000,1.000000,0.000000,0.000000,0.000000,0.000000,48.000000,0.000000;
#CREDIT:;
#NOTES:
// measure 0
0000
0000
0000
0000
,  // measure 1
0000
0000
0000
0000
,  // measure 2
0000
0000
0000
0000
,  // measure 3
0000
0000
0000
0000
,  // measure 4
1000
0010
0100
0000
0L00
0000
0000
0000
0100
0000
0010
0000
0000
0000
00L0
0000
,  // measure 5
0000
0010
1000
0000
1000
0001
0000
0000
,  // measure 6
0001
0100
0010
0000
00L0
0000
0000
0000
0010
0000
0100
0000
0000
0000
0L00
0000
,  // measure 7
0000
0100
0001
0000
0001
1000
0000
0000
,  // measure 8
1000
0001
0100
0000
0L00
0000
0000
0000
0100
0000
0001
0000
0000
0000
000L
0000
,  // measure 9
0000
0001
1000
0000
1000
0100
0000
0000
,  // measure 10
0010
0001
1000
0000
L000
0000
0000
0000
1000
0000
0010
0000
0000
0000
00L0
0000
,  // measure 11
0000
0010
0100
0000
0001
1000
1000
0000
,  // measure 12
1000
0100
0010
0001
1000
0000
L000
0000
,  // measure 13
1000
0001
0100
0010
0100
0000
00L0
0000
,  // measure 14
0000
0010
0100
0001
0100
0000
0010
1000
0000
0000
0000
0000
00L0
0000
L000
0000
,  // measure 15
0000
1000
0010
0100
0001
0000
1000
0001
0000
0000
0000
0000
L000
0000
0000
0000
,  // measure 16
1000
0000
0010
0000
0100
0000
0001
0000
1000
0000
0000
0000
000L
0000
0000
0001
,  // measure 17
0010
0100
0010
0000
0001
0000
0100
0000
0010
0000
0000
0000
0L00
0000
0000
0000
,  // measure 18
0000
0100
0010
1000
0010
0000
1000
0000
0100
0000
0000
0000
L000
0000
0L00
0000
,  // measure 19
0000
0100
1000
0001
0100
0000
0010
0100
0000
0000
0000
0000
0LL0
0000
0000
0000
,  // measure 20
0010
0000
0000
0010
0000
0000
0100
0000
0001
0000
1000
0000
0000
0000
L000
0000
,  // measure 21
1000
0001
0100
0000
0L00
0100
0000
0000
,  // measure 22
0100
0010
1000
0000
00L0
0000
0000
0000
0010
0000
0100
0000
0000
0000
0L00
0000
,  // measure 23
0000
0100
0001
0000
000L
1000
L000
0000
,  // measure 24
1000
0100
1000
0001
0000
0000
000L
0000
0001
0000
0100
0000
0000
0000
0L00
0000
,  // measure 25
0000
0100
0010
1000
0000
0000
0000
0000
L000
0000
0100
0000
0L00
0000
0000
0000
,  // measure 26
0100
0010
0001
0000
000L
0000
0000
0000
0001
0000
1000
0000
0000
0000
L000
0000
,  // measure 27
0000
1000
0010
0000
00L0
0010
0100
0000
,  // measure 28
0001
0000
0000
0010
0000
0000
0000
0000
1000
0000
0000
0000
0010
0000
00L0
0000
,  // measure 29
0010
0000
0000
0001
0000
0000
0000
0000
1000
0000
0000
0000
000L
0000
0000
0000
,  // measure 30
0001
0000
0000
0100
0000
0000
0000
0000
1000
0000
0000
0100
0000
0000
0L00
0000
,  // measure 31
0100
0000
0000
0001
0000
0000
0000
0000
1000
0000
0000
0000
L000
0000
0000
0000
,  // measure 32
1000
0000
0000
0010
0000
0000
0000
0000
0001
0000
0000
0000
0010
0000
00L0
0000
,  // measure 33
0010
0000
0000
1000
0000
0000
0000
0000
0001
0000
0000
0000
L000
0000
0000
0000
,  // measure 34
1000
0000
0000
0100
0000
0000
0000
0000
0001
0000
0000
0100
0000
0000
0L00
0000
,  // measure 35
0100
0000
0000
1000
0000
0000
0000
0000
0001
0000
0000
0000
000L
0000
0001
0000
,  // measure 36
1000
0000
1000
0001
0100
0010
00L0
0000
,  // measure 37
0100
0100
0001
1000
0100
0100
0L00
0100
,  // measure 38
1000
0000
1000
0000
0001
0000
000L
0001
,  // measure 39
0100
0000
0010
0000
0100
0000
0001
0000
1000
0000
0000
0000
1000
0001
1000
0000
,  // measure 40
0001
0001
1000
L000
,  // measure 41
0100
0100
1000
0001
0100
0100
0L00
0100
,  // measure 42
0001
0000
0001
0000
1000
0000
L000
1000
,  // measure 43
0100
0000
0010
0000
0100
0000
1000
0000
0001
0000
0000
0000
0001
1000
0001
0000
,  // measure 44
1000
0000
1000
0000
0001
0000
000L
L000
,  // measure 45
1000
0000
0000
0000
;
