#TITLE:Touch My Body;
#SUBTITLE:;
#ARTIST:Mariah Carey;
#TITLETRANSLIT:;
#SUBTITLETRANSLIT:;
#ARTISTTRANSLIT:;
#CREDIT:;
#BANNER:;
#BACKGROUND:;
#LYRICSPATH:;
#CDTITLE:;
#MUSIC:Touch My Body.ogg;
#OFFSET:-0.040;
#SAMPLESTART:48.057;
#SAMPLELENGTH:12.000;
#SELECTABLE:YES;
#BPMS:0.000=78.500;
#STOPS:;
#BGCHANGES:;

//---------------dance-single - ----------------
#NOTES:
     dance-single:
     :
     Hard:
     6:
     0.281,0.269,0.079,0.079,0.006:
0000
0000
0000
0000
,
0000
0000
0000
0000
,
0000
0000
0000
0000
,
1000
0100
0001
0100
1000
0100
0001
0100
,
1000
0100
0010
0100
1000
0001
1000
0000
,
0001
0100
0010
0100
0001
1000
0001
0000
,
1000
0010
0100
0010
1000
0001
1000
0000
,
0001
0010
0100
0010
0001
1000
0001
0000
,
0001
0100
1000
0001
1000
0100
0001
2000
,
0000
3001
0000
0002
0000
1003
0000
1000
,
0001
0010
1000
0001
1000
0010
0001
2000
,
0000
3001
0000
0002
0000
1003
0000
1000
,
0001
0100
0001
0010
0100
1000
0002
0000
,
1003
0100
0010
0001
2000
0000
3000
0001
,
1000
0100
1000
0010
0100
0001
1000
0100
,
2000
0000
0000
3001
0000
0000
0001
0000
1000
0000
0000
0000
1000
0000
0001
0000
,
1001
0000
1000
0001
0100
0000
0100
0001
,
1000
0000
1000
0001
1000
0000
1000
0001
,
1001
0000
0001
1000
0100
0000
0100
1000
,
0001
1000
0100
1000
0001
0000
0001
1000
,
1001
0000
0001
1000
0010
0000
0010
1000
,
0001
0000
0001
1000
0001
0000
0001
1000
,
1001
0000
1000
0001
0010
0000
0010
0001
,
1000
0001
0010
0001
1000
0000
1000
0001
,
1001
1000
0000
1000
0000
1000
0000
1000
,
0000
1000
0000
1000
0100
0001
0100
1000
,
1001
0001
0000
0001
0000
0001
0000
0001
,
0000
0001
0000
0001
0100
1000
0100
0010
,
0110
0000
0000
0000
;

//---------------dance-double - ----------------
#NOTES:
     dance-double:
     :
     Hard:
     6:
     0.291,0.269,0.057,0.068,0.085:
00000000
00000000
00000000
00000000
,
00000000
00000000
00000000
00000000
,
00000000
00000000
00000000
00000000
,
10000000
01000000
00010000
01000000
10000000
01000000
00010000
01000000
,
10000000
01000000
00100000
01000000
10000000
01000000
00010000
00000000
,
00010000
00001000
00000100
00001000
00010000
00000100
00000010
00000000
,
00000001
00000100
00000010
00000100
00000001
00000100
00001000
00000000
,
00001000
00010000
01000000
00010000
00001000
01000000
00100000
00000000
,
10000000
01000000
00010000
10000000
00010000
01000000
10000000
02000000
,
00000000
03010000
00000000
00020000
00000000
00031000
00000000
00000100
,
00000001
00000010
00001000
00000001
00001000
00000010
00000001
00000200
,
00000000
00001300
00000000
00002000
00000000
00013000
00000000
00010000
,
00001000
00000000
01000000
00000000
00010000
00000000
10000000
00000000
01000000
00000000
10000000
00010000
10000000
00000000
00000000
00000000
,
10000000
01000000
00010000
00001000
00000200
00000000
00000300
00001000
,
00010000
00000000
00000100
00000000
00001000
00000000
00000001
00000000
00000100
00000000
00000001
00001000
00000001
00000000
00000100
00000000
,
00002000
00000000
00000000
00013000
00000000
00000000
00010000
00000000
00100000
00000000
00000000
00000000
10000000
00000000
00010000
00000000
,
10000000
00010000
00000000
00000000
10000000
00000000
00010000
00000000
01000000
00000000
00000000
00000000
01000000
00000000
00001000
00000000
,
00010000
00000000
00010000
00001000
00011000
00000000
00010000
00000100
,
00001000
00000001
00000000
00000000
00000001
00000000
00000010
00000000
00001000
00000000
00000000
00000000
00001000
00000000
00000010
00000000
,
00000100
00010000
00001000
00100000
01000000
00000000
00100000
00010000
,
10000000
00010000
00000000
00000000
10000000
00000000
00010000
00000000
00100000
00000000
00000000
00000000
00100000
00000000
00001000
00000000
,
00010000
00000000
00010000
00001000
00011000
00000000
00010000
00000010
,
00001000
00000001
00000000
00000000
00000001
00000000
00000100
00000000
00001000
00000000
00000000
00000000
00000100
00000000
00000010
00000000
,
00010000
00001000
01000000
00100000
10000000
01000000
00100000
00001000
,
00011000
00000100
00000000
00000100
00000000
00000100
00000000
00000100
,
00000000
00000000
00000100
00000000
00000000
00000010
00000000
00000001
00000000
00000100
00000000
00001000
00010000
00000000
00001000
00000000
,
00011000
01000000
00000000
01000000
00000000
01000000
00000000
01000000
,
00000000
00000000
01000000
00000000
00000000
00100000
00000000
10000000
00000000
01000000
00000000
00010000
00001000
00000000
00010000
00000000
,
00011000
00000000
00000000
00000000
;

//---------------dance-single - ----------------
#NOTES:
     dance-single:
     :
     Medium:
     4:
     0.218,0.222,0.068,0.011,0.057:
0000
0000
0000
0000
,
0000
0000
0000
0000
,
0000
0000
0000
0000
,
1000
0000
0000
0000
2100
0000
0000
0000
0000
0000
0001
0000
0000
0001
0000
0000
,
3001
0000
0100
0000
1000
0100
0001
0000
,
1000
0000
0100
0000
0001
0100
1000
0000
,
0001
0000
0010
0000
1000
0010
0001
0000
,
1000
0000
0010
0000
0001
0010
1000
0000
,
0100
0000
0001
0000
0100
0100
0100
0000
,
0010
0001
1001
0000
0010
1000
1001
0000
,
0001
0000
0010
0000
0100
0100
0100
0000
,
1000
0001
1001
0000
0001
1000
1001
0000
,
1000
0000
0010
0000
0100
0100
0001
0000
,
0001
0010
0001
0010
0100
0000
0000
0000
,
1000
0000
0010
0000
0100
0100
0001
0000
,
0100
0000
0000
0100
0000
0000
0010
0000
1000
0000
0000
0000
0001
0000
0100
0000
,
0001
1000
0100
0001
,
0100
0000
1000
0000
1001
0000
0001
0010
,
0001
1000
0010
0001
,
0010
0000
1000
1000
1000
0000
1000
0100
,
1000
1000
0100
0001
,
0100
0000
1000
0000
0001
0000
0001
0100
,
0001
0010
1000
0010
,
0001
0000
0001
0001
0001
0000
1000
1000
,
0100
1000
0000
0100
0000
0001
0000
0100
,
0000
0000
1000
0000
0000
0010
0000
0010
0000
0100
0000
0100
0000
0000
0001
0000
,
1000
0001
0000
0010
0000
1000
0000
0010
,
0000
0000
0001
0000
0000
0001
0000
0001
0000
1000
0000
1000
0000
0000
0001
0000
,
1000
0000
0000
0000
;

//---------------dance-single - ----------------
#NOTES:
     dance-single:
     :
     Beginner:
     1:
     0.086,0.111,0.079,0.000,0.000:
0000
0000
0000
0000
,
0000
0000
0000
0000
,
0000
0000
0000
0000
,
1000
1000
0000
0000
,
0100
0000
0000
0000
,
0010
0000
0000
0000
,
0001
0000
0000
0000
,
1000
0000
0000
0000
,
0001
0000
0000
0000
,
1000
0000
1000
0000
,
0001
0000
0000
0000
,
1000
0000
1000
0000
,
0100
0000
0100
0000
,
0010
0010
0010
0000
,
0010
0000
0010
0000
,
0100
0000
0100
0000
,
1001
0000
0001
0000
,
1000
0000
0001
0000
,
1001
0000
1000
0000
,
0001
0000
1000
0000
,
0110
0000
0100
0000
,
0010
0000
0100
0000
,
0110
0000
0010
0000
,
0100
0000
0010
0000
,
1001
0000
0001
0000
,
1000
0000
1000
0000
,
1001
0000
1000
0000
,
0001
0000
0001
0000
,
1001
0000
0000
0000
;

//---------------dance-single - ----------------
#NOTES:
     dance-single:
     :
     Easy:
     2:
     0.124,0.158,0.068,0.000,0.000:
0000
0000
0000
0000
,
0000
0000
0000
0000
,
0000
0000
0000
0000
,
1000
0100
0000
0000
,
0010
0000
0001
0000
,
0100
0000
1000
0000
,
0100
0000
0001
0000
,
0010
0000
0100
0000
,
1000
0000
0100
0000
,
0001
0100
1000
0100
,
0010
0000
0001
0000
,
0100
0001
0010
0001
,
0100
0000
0010
0000
,
1000
0100
1000
0000
,
0010
0000
0100
0000
,
0001
0000
0010
0001
,
0011
0000
0001
0000
,
0100
0000
1000
0100
,
1100
0000
0100
0000
,
0001
0010
0001
1000
,
1010
0000
0010
0000
,
0100
0000
0001
0010
,
0011
0000
0001
0000
,
0100
1000
0100
0010
,
1010
1000
0010
1000
,
0100
0001
0100
0001
,
0100
1000
0100
1000
,
0010
0001
0010
1000
,
1001
0000
0000
0000
;

//---------------dance-double - ----------------
#NOTES:
     dance-double:
     :
     Medium:
     5:
     0.246,0.237,0.090,0.079,0.017:
00000000
00000000
00000000
00000000
,
00000000
00000000
00000000
00000000
,
00000000
00000000
00000000
00000000
,
00001000
00000000
00000000
00000000
00011000
00000000
00000000
00000000
00000000
00000000
01000000
00000000
00000000
01000000
00000000
00000000
,
10000000
00000000
00100000
00000000
00010000
00001000
00010000
00000000
,
00000001
00000000
00000010
00000000
00001000
00010000
00001000
00000000
,
10000000
00000000
01000000
00000000
00010000
00001000
00010000
00000000
,
00000001
00000000
00000100
00000000
00001000
00010000
00001000
00000000
,
00010000
01000000
10000000
00000000
10000000
01000000
00010000
00002000
,
00000000
00003200
00000000
00020300
00000000
00230000
00000000
00300000
,
00001000
00000100
00000001
00000000
00000001
00000100
00001000
00020000
,
00000000
01030000
00000000
00002000
00000000
00003010
00000000
00000001
,
00000100
00000000
00001000
00000000
00010000
01000000
10000000
00000000
,
10000000
01000000
00010000
00001000
00020000
00000000
00000000
00031000
,
00010000
00000000
00001000
00000000
00000100
00000001
00000010
00000001
,
00000100
00000000
00000000
00000100
00000000
00000000
00001000
00000000
00010000
00000000
00000000
00000000
00010000
00000000
00001000
00000000
,
00011000
00000000
00010000
01000000
00010000
00000000
01000000
10000000
,
01000000
00000000
10000000
00100000
10000000
00000000
00100000
00010000
,
00011000
00000000
00001000
00000010
00001000
00000000
00000010
00000001
,
00000010
00000000
00000001
00001000
00000001
00000000
00010000
00001000
,
00011000
00000000
00001000
00000100
00001000
00000000
00000100
00000001
,
00000100
00000000
00000001
00000010
00000001
00000000
00000010
00001000
,
00011000
00000000
00010000
00100000
00010000
00000000
00100000
00000000
,
10000000
01000000
00010000
01000000
10000000
00000000
10000000
00010000
,
10010000
10000000
01000000
00010000
,
00001000
00000000
00000100
00000000
00000001
00000000
00001000
00000001
,
00001001
00000000
00001000
00000000
00000001
00000000
00000100
00001000
,
00010000
00000000
00000000
00000000
01000000
00000000
00000000
00000000
10000000
00000000
00010000
00000000
00000000
00010000
10000000
00000000
,
10010000
00000000
00000000
00000000
;

//---------------dance-double - ----------------
#NOTES:
     dance-double:
     :
     Easy:
     4:
     0.194,0.206,0.113,0.102,0.006: // measure 1
00000000
00000000
00000000
00000000
,  // measure 2
00000000
00000000
00000000
00000000
,  // measure 3
00000000
00000000
00000000
00000000
,  // measure 4
00001000
00010000
00000000
00010000
,  // measure 5
01000000
10000000
01000000
00020000
,  // measure 6
00031000
00010000
01000000
00020000
,  // measure 7
00031000
00000100
00001000
00020000
,  // measure 8
00031000
00000100
00000001
00000200
,  // measure 9
00001300
00011000
00010000
00011000
,  // measure 10
00002000
00000010
00023000
00100000
,  // measure 11
00031000
00000110
00000001
00000110
,  // measure 12
00020000
01000000
00032000
00000100
,  // measure 13
00013000
00000000
01000000
00000000
10000000
10000000
10000000
00000000
,  // measure 14
01000000
00000000
00010000
00000000
00002000
00000000
00000000
00003000
,  // measure 15
00001000
00000000
00000100
00000000
00000001
00000001
00000001
00000000
,  // measure 16
00000100
00000000
00000000
00000100
00000000
00000000
00000000
00000000
00001000
00000000
00000000
00000000
00010000
00000000
00000000
00000000
,  // measure 17
00011000
00010000
01000000
00010000
,  // measure 18
00001000
00000100
00001000
00010000
,  // measure 19
00011000
00010000
00100000
00010000
,  // measure 20
00001000
00000010
00001000
00010000
,  // measure 21
00011000
00010000
10000000
00010000
,  // measure 22
00001000
00000001
00001000
00010000
,  // measure 23
00011000
00010000
00100000
10000000
,  // measure 24
01000000
00010000
00001000
00010000
,  // measure 25
00011000
00001000
00010000
00001000
,  // measure 26
00100000
00010000
00100000
00010000
,  // measure 27
10000000
00100000
10000000
00100000
,  // measure 28
01000000
00010000
01000000
00010000
,  // measure 29
10010000
00000000
00000000
00000000
;
